<?xml version="1.0" standalone="no"?>
<!DOCTYPE svg PUBLIC "-//W3C//DTD SVG 1.1//EN" "http://www.w3.org/Graphics/SVG/1.1/DTD/svg11.dtd" >
<svg xmlns="http://www.w3.org/2000/svg" xmlns:xlink="http://www.w3.org/1999/xlink" version="1.1">
<metadata>
Created by FontForge 20170731 at Mon Dec  9 15:28:30 2019
 By Aleksey,,,
</metadata>
<defs>
<font id="IRANSansDN" horiz-adv-x="0" >
  <font-face 
    font-family="IRANSansDN"
    font-weight="400"
    font-stretch="normal"
    units-per-em="2300"
    panose-1="2 11 5 6 3 8 4 2 2 4"
    ascent="1840"
    descent="-460"
    x-height="1215"
    cap-height="1635"
    bbox="-1106 -1192 3165 2704.75"
    underline-thickness="100"
    underline-position="-750"
    unicode-range="U+0020-FEFF"
  />
<missing-glyph horiz-adv-x="1229" 
d="M102 -362v1806h1024v-1806h-1024zM217 -248h795v1577h-795v-1577z" />
    <glyph glyph-name="uniFDF2" unicode="&#xfedf;&#xfee0;&#x651;&#x64e;&#xfeea;" horiz-adv-x="2052" arabic-form="isolated" 
d="M1290 1718q-21 1 -35 17q-15 15 -13 37q5 105 -16 204q-5 21 7 39q11 17 32 22q21 4 39 -7q18 -12 22 -33q24 -112 18 -231q-1 -20 -16 -34t-35 -14h-3zM1885 1045q71 -378 78 -539q11 -267 -91 -390q-90 -108 -251 -108q-152 0 -265 117q-84 -109 -233 -123
q-18 -2 -36 -2q-123 0 -218 69q-96 69 -140 184q-17 44 -28 102l-9 52l-7 50l-3 17q-2 16 -6 51l-1 13l-2 13l-3 29q-5 33 -11 57q-16 64 -44 76q-30 14 -103 -27q-36 -21 -78 -53q-30 -23 -70 -59q-51 -46 -78 -100q-35 -71 -4 -121t116 -58q63 -5 176 14q40 6 73 -17
q33 -24 40 -65q7 -40 -17 -73q-24 -34 -64 -40l-17 -3l-18 -3q-22 -3 -41 -5q-51 -6 -96 -6q-227 0 -320 152q-77 126 -21 275q41 110 140 198q47 42 84 70q51 39 97 66q160 90 281 36q97 -42 140 -156q16 -43 26 -99q4 -22 7 -48l3 -23l2 -22q3 -32 5 -45l3 -17
q15 -113 31 -157q22 -61 73 -98q48 -35 113 -31q69 4 104 50q36 49 41 127q-2 23 -3 45q0 13 3 25q-1 22 -5 66l-2 35l-3 35q-7 141 -21 331q-5 60 -9 118q-2 18 -3 34l-1 10v2v1q-3 41 23 72q27 32 67 35q41 3 72 -23q32 -27 35 -68v-1v-2l1 -10q1 -16 3 -34q4 -59 9 -119
q14 -193 22 -336q1 -21 4 -64l3 -35l2 -35q2 -41 1 -73q14 -85 72 -135q50 -44 108 -44q41 0 67 13q19 8 32 24q24 29 36 87q15 76 8 195q-6 96 -28 233q-9 55 -22 125l-23 127l-29 154q-7 40 17 74q23 33 63 40q41 8 74 -16q34 -23 41 -64zM1576 1507q8 -55 -9 -104
q-16 -50 -54 -81q-45 -38 -106 -38q-31 0 -58 11q-33 13 -59 39q-20 -24 -45 -40q-43 -27 -92 -27q-38 0 -70 16q-75 39 -87 130q-9 67 26 139q9 19 29 26t39 -2q20 -9 27 -29t-3 -40q-9 -18 -13 -36q-6 -24 -3 -44q5 -38 32 -52q28 -14 60 6t46 65q13 38 11 98q-1 21 13 37
q15 15 36 16t37 -14q16 -14 16 -36q2 -55 -6 -97l3 -10q5 -36 39 -49q35 -13 63 10q36 30 27 91q-7 47 -52 119q-11 18 -6 38q5 21 23 32q18 12 38 7q21 -5 32 -23q57 -90 66 -158z" />
    <glyph glyph-name="uniFDFC" unicode="&#x631;&#xfef3;&#xfe8e;&#x644;" horiz-adv-x="3248" arabic-form="isolated" 
d="M707 -659q-239 0 -395 123q-211 167 -215 465v13q0 117 33 247q27 105 73 211q16 38 54 53q18 7 37 7t38 -8q38 -16 53 -54q7 -18 7 -37t-8 -39q-31 -73 -52 -146q-30 -101 -36 -191q-2 -23 -2 -45q0 -210 140 -321q103 -80 270 -80h24q184 6 303 98q116 90 139 287
q6 54 6 120q0 30 -1 62q-2 42 -6 94l-3 46l-4 46q-8 88 -10 130q-13 219 -45 660q-10 138 -21 283q-3 46 -6 87q-1 13 -2 24v8l-1 1v8q0 36 24 64q27 31 68 34h8q35 0 63 -24q31 -26 35 -67v-9q1 -11 2 -24q3 -42 6 -87q11 -145 21 -284q32 -443 45 -663q2 -39 10 -124
l4 -51l4 -52q4 -59 6 -107q1 -29 1 -56q0 -88 -10 -161q-36 -264 -212 -401q-169 -131 -417 -140h-28zM1942 29q-29 29 -29 70t29 70t70 29q179 0 262 17q116 25 161 98q19 32 19 90q0 45 -11 106q-27 139 -100 292q-10 21 -10 44q0 16 5 32q14 38 50 56q21 10 42 10
q17 0 34 -6q39 -13 56 -50q85 -175 116 -339q15 -78 15 -144q0 -117 -48 -195q-85 -140 -272 -184q-107 -25 -319 -25q-41 0 -70 29zM2388 -671q-12 23 -12 46q0 15 5 30q12 39 48 58q269 143 390 361q148 266 148 738q0 41 29 70t70 29t70 -29t29 -70q0 -510 -164 -817
q-152 -282 -479 -456q-22 -12 -47 -12q-59 0 -87 52zM1957 0q-29 1 -53 4q-54 6 -104 27q-150 60 -191 233q-18 79 -18 447v231q-1 108 -3 191q-6 211 -24 330q-1 8 -1 16q0 32 19 58q25 33 65 39q8 1 16 1q32 0 58 -19q33 -25 39 -65q19 -130 25 -349q3 -86 3 -197v-336
q1 -76 2 -129q2 -133 12 -173q17 -70 68 -93q30 -18 125 -18q41 0 70 -29t29 -70t-29 -70t-70 -29h-38zM1704 -397q-18 36 -6 75t47 58q178 93 383 87q70 -2 137 -15q25 -5 47 -11q9 -3 17 -5l12 -4q37 -12 56 -49q18 -36 6 -75t-47 -58t-73 -6h-1l-3 1l-4 1q-5 2 -10 3
q-16 4 -33 8q-50 10 -103 12q-161 7 -297 -65q-20 -11 -43 -11q-59 0 -85 54z" />
    <glyph glyph-name="uniFEF5" unicode="&#xfedf;&#xfe82;" horiz-adv-x="1373" arabic-form="isolated" 
d="M766 110q166 0 257 38q-7 23 -21 55q-19 44 -51 100q-90 -84 -260 -191q39 -2 75 -2zM751 -87q-231 1 -365 49q-56 20 -65 79q-1 8 -1 16q0 49 42 78q40 29 91 62l90 56q216 134 300 222q-51 75 -115 161q-126 171 -268 340q-129 154 -214 239q-29 29 -29 70t29 70t70 29
t70 -29q91 -92 227 -253q149 -179 281 -358q35 -48 67 -93q68 154 68 386q0 178 -40 401q-2 9 -2 18q0 30 18 56q24 33 64 40q10 2 20 2q29 0 54 -18q34 -23 41 -63q43 -238 43 -434q0 -319 -114 -528q-14 -24 -28 -47q22 -36 41 -69q98 -174 98 -271q0 -11 -1 -21
q-9 -73 -68 -109q-73 -45 -193 -66q-92 -15 -205 -15h-6zM45 1463q-27 18 -33 50q-7 33 11 60l10 14l10 15q12 18 24 32q29 36 61 60q85 64 198 44q34 -6 79 -19l41 -12l41 -14l49 -16q27 -8 48 -14q52 -14 85 -16q115 -6 194 104q19 27 52 32q32 5 59 -14q26 -19 31 -52
q6 -32 -14 -58q-130 -181 -330 -170q-47 3 -110 19q-25 7 -57 17l-57 18q-99 33 -138 39q-43 8 -72 -11q-28 -19 -72 -86q-23 -35 -66 -35q-24 0 -44 13z" />
    <glyph glyph-name="uniFEF6" unicode="&#xfee0;&#xfe82;" horiz-adv-x="1478" arabic-form="final" 
d="M635 167q-36 0 -63 22q-28 24 -34 59q-78 437 -294 930q-9 20 -9 40q0 17 7 35q15 39 52 55q20 9 40 9q18 0 36 -7q38 -15 55 -53q225 -514 307 -974q2 -10 2 -20q0 -28 -18 -54q-23 -34 -64 -41q-8 -1 -17 -1zM1477 198q41 0 70 -29t29 -70t-29 -70t-70 -29
q-86 0 -160 39q-98 51 -165 165q-13 23 -26 50q-34 -56 -80 -103q-211 -217 -636 -217q-41 0 -70 29t-29 70t29 70t70 29q342 0 495 157q123 127 123 364v22q-3 117 -81 726l-7 57q-1 7 -1 13q0 32 21 60q25 32 66 37q7 1 13 1q32 0 60 -21q32 -25 37 -65l7 -57
q79 -617 82 -743q21 -249 98 -379q37 -63 83 -88q32 -18 71 -18zM45 1423q-27 18 -33 50q-7 33 11 60l10 14l10 15q12 18 24 32q29 36 61 60q85 64 198 44q34 -6 79 -19l41 -12l41 -14l49 -16q27 -8 48 -14q52 -14 85 -16q115 -6 194 104q19 27 52 32q32 5 59 -14
q26 -19 31 -52q6 -32 -14 -58q-130 -181 -330 -170q-47 3 -110 19q-25 7 -57 17l-57 18q-99 33 -138 39q-43 8 -72 -11q-28 -19 -72 -86q-23 -35 -66 -35q-24 0 -44 13z" />
    <glyph glyph-name="uniFEF7" unicode="&#xfedf;&#xfe84;" horiz-adv-x="1270" arabic-form="isolated" 
d="M657 110q166 0 257 38q-7 23 -21 55q-19 44 -51 100q-90 -84 -260 -191q39 -2 75 -2zM642 -87q-231 1 -365 49q-56 20 -65 79q-1 8 -1 16q0 49 42 78q40 29 91 62l90 56q216 134 300 222q-51 75 -115 161q-126 171 -268 340q-129 154 -214 239q-29 29 -29 70t29 70t70 29
t70 -29q91 -92 227 -253q149 -179 281 -358q35 -48 67 -93q68 154 68 386q0 178 -40 401q-2 9 -2 18q0 30 18 56q24 33 64 40q10 2 20 2q29 0 54 -18q34 -23 41 -63q43 -238 43 -434q0 -319 -114 -528q-14 -24 -28 -47q22 -36 41 -69q98 -174 98 -271q0 -11 -1 -21
q-9 -73 -68 -109q-73 -45 -193 -66q-92 -15 -205 -15h-6zM18 1467q-11 18 -5 39q6 20 24 31l157 90q-17 6 -31 15q-48 29 -74 83q-26 53 -21 111q6 54 37 101t80 75q94 53 204 22q20 -6 31 -25q10 -18 4 -39q-6 -20 -24 -30q-19 -11 -39 -5q-69 20 -125 -13q-59 -33 -65 -96
q-7 -65 45 -96q23 -14 55 -16q12 0 25 1q10 1 20 3q27 6 60 20l30 13l30 14q19 9 38 3q20 -7 30 -25q9 -18 4 -38q-6 -20 -24 -31l-396 -226q-12 -7 -25 -7q-30 0 -45 26z" />
    <glyph glyph-name="uniFEF8" unicode="&#xfee0;&#xfe84;" horiz-adv-x="1399" arabic-form="final" 
d="M556 167q-36 0 -63 22q-28 24 -34 59q-78 437 -294 930q-9 20 -9 40q0 17 7 35q15 39 52 55q20 9 40 9q18 0 36 -7q38 -15 55 -53q225 -514 307 -974q2 -10 2 -20q0 -28 -18 -54q-23 -34 -64 -41q-8 -1 -17 -1zM1398 198q41 0 70 -29t29 -70t-29 -70t-70 -29
q-86 0 -160 39q-98 51 -165 165q-13 23 -26 50q-34 -56 -80 -103q-211 -217 -636 -217q-41 0 -70 29t-29 70t29 70t70 29q342 0 495 157q123 127 123 364v22q-3 117 -81 726l-7 57q-1 7 -1 13q0 32 21 60q25 32 66 37q7 1 13 1q32 0 60 -21q32 -25 37 -65l7 -57
q79 -617 82 -743q21 -249 98 -379q37 -63 83 -88q32 -18 71 -18zM8 1437q-11 18 -5 39q6 20 24 31l157 90q-17 6 -31 15q-48 29 -74 83q-26 53 -21 111q6 54 37 101t80 75q94 53 204 22q20 -6 31 -25q10 -18 4 -39q-6 -20 -24 -30q-19 -11 -39 -5q-69 20 -125 -13
q-59 -33 -65 -96q-7 -65 45 -96q23 -14 55 -16q12 0 25 1q10 1 20 3q27 6 60 20l30 13l30 14q19 9 38 3q20 -7 30 -25q9 -18 4 -38q-6 -20 -24 -31l-396 -226q-12 -7 -25 -7q-30 0 -45 26z" />
    <glyph glyph-name="uniFEF9" unicode="&#xfedf;&#xfe88;" horiz-adv-x="1270" arabic-form="isolated" 
d="M657 110q166 0 257 38q-7 23 -21 55q-19 44 -51 100q-90 -84 -260 -191q39 -2 75 -2zM642 -87q-231 1 -365 49q-56 20 -65 79q-1 8 -1 16q0 49 42 78q40 29 91 62l90 56q216 134 300 222q-51 75 -115 161q-126 171 -268 340q-129 154 -214 239q-29 29 -29 70t29 70t70 29
t70 -29q91 -92 227 -253q149 -179 281 -358q35 -48 67 -93q68 154 68 386q0 178 -40 401q-2 9 -2 18q0 30 18 56q24 33 64 40q10 2 20 2q29 0 54 -18q34 -23 41 -63q43 -238 43 -434q0 -319 -114 -528q-14 -24 -28 -47q22 -36 41 -69q98 -174 98 -271q0 -11 -1 -21
q-9 -73 -68 -109q-73 -45 -193 -66q-92 -15 -205 -15h-6zM135 -739q-11 18 -5 39q6 20 24 31l157 90q-17 6 -31 15q-48 29 -74 83q-26 53 -21 111q6 54 37 101t80 75q94 53 204 22q20 -6 31 -25q10 -18 4 -39q-6 -20 -24 -30q-19 -11 -39 -5q-69 20 -125 -13
q-59 -33 -65 -96q-7 -65 45 -96q23 -14 55 -16q12 0 25 1q10 1 20 3q27 6 60 20l30 13l30 14q19 9 38 3q20 -7 30 -25q9 -18 4 -38q-6 -20 -24 -31l-396 -226q-12 -7 -25 -7q-30 0 -45 26z" />
    <glyph glyph-name="uniFEFA" unicode="&#xfee0;&#xfe88;" horiz-adv-x="1399" arabic-form="final" 
d="M556 167q-36 0 -63 22q-28 24 -34 59q-78 437 -294 930q-9 20 -9 40q0 17 7 35q15 39 52 55q20 9 40 9q18 0 36 -7q38 -15 55 -53q225 -514 307 -974q2 -10 2 -20q0 -28 -18 -54q-23 -34 -64 -41q-8 -1 -17 -1zM1398 198q41 0 70 -29t29 -70t-29 -70t-70 -29
q-86 0 -160 39q-98 51 -165 165q-13 23 -26 50q-34 -56 -80 -103q-211 -217 -636 -217q-41 0 -70 29t-29 70t29 70t70 29q342 0 495 157q123 127 123 364v22q-3 117 -81 726l-7 57q-1 7 -1 13q0 32 21 60q25 32 66 37q7 1 13 1q32 0 60 -21q32 -25 37 -65l7 -57
q79 -617 82 -743q21 -249 98 -379q37 -63 83 -88q32 -18 71 -18zM135 -739q-11 18 -5 39q6 20 24 31l157 90q-17 6 -31 15q-48 29 -74 83q-26 53 -21 111q6 54 37 101t80 75q94 53 204 22q20 -6 31 -25q10 -18 4 -39q-6 -20 -24 -30q-19 -11 -39 -5q-69 20 -125 -13
q-59 -33 -65 -96q-7 -65 45 -96q23 -14 55 -16q12 0 25 1q10 1 20 3q27 6 60 20l30 13l30 14q19 9 38 3q20 -7 30 -25q9 -18 4 -38q-6 -20 -24 -31l-396 -226q-12 -7 -25 -7q-30 0 -45 26z" />
    <glyph glyph-name="uniFEFB" unicode="&#xfedf;&#xfe8e;" horiz-adv-x="1264" arabic-form="isolated" 
d="M657 110q166 0 257 38q-7 23 -21 55q-19 44 -51 100q-90 -84 -260 -191q39 -2 75 -2zM642 -87q-231 1 -365 49q-56 20 -65 79q-1 8 -1 16q0 49 42 78q40 29 91 62l90 56q216 134 300 222q-51 75 -115 161q-126 171 -268 340q-129 154 -214 239q-29 29 -29 70t29 70t70 29
t70 -29q91 -92 227 -253q149 -179 281 -358q35 -48 67 -93q68 154 68 386q0 178 -40 401q-2 9 -2 18q0 30 18 56q24 33 64 40q10 2 20 2q29 0 54 -18q34 -23 41 -63q43 -238 43 -434q0 -319 -114 -528q-14 -24 -28 -47q22 -36 41 -69q98 -174 98 -271q0 -11 -1 -21
q-9 -73 -68 -109q-73 -45 -193 -66q-92 -15 -205 -15h-6z" />
    <glyph glyph-name="uniFEFC" unicode="&#xfee0;&#xfe8e;" horiz-adv-x="1399" arabic-form="final" 
d="M556 167q-36 0 -63 22q-28 24 -34 59q-78 437 -294 930q-9 20 -9 40q0 17 7 35q15 39 52 55q20 9 40 9q18 0 36 -7q38 -15 55 -53q225 -514 307 -974q2 -10 2 -20q0 -28 -18 -54q-23 -34 -64 -41q-8 -1 -17 -1zM1398 198q41 0 70 -29t29 -70t-29 -70t-70 -29
q-86 0 -160 39q-98 51 -165 165q-13 23 -26 50q-34 -56 -80 -103q-211 -217 -636 -217q-41 0 -70 29t-29 70t29 70t70 29q342 0 495 157q123 127 123 364v22q-3 117 -81 726l-7 57q-1 7 -1 13q0 32 21 60q25 32 66 37q7 1 13 1q32 0 60 -21q32 -25 37 -65l7 -57
q79 -617 82 -743q21 -249 98 -379q37 -63 83 -88q32 -18 71 -18z" />
    <glyph glyph-name="uni06440671.isol" unicode="&#xfedf;&#xfb51;" horiz-adv-x="1264" 
d="M657 110q166 0 257 38q-7 23 -21 55q-19 44 -51 100q-90 -84 -260 -191q39 -2 75 -2zM642 -87q-231 1 -365 49q-56 20 -65 79q-1 8 -1 16q0 49 42 78q40 29 91 62l90 56q216 134 300 222q-51 75 -115 161q-126 171 -268 340q-129 154 -214 239q-29 29 -29 70t29 70t70 29
t70 -29q91 -92 227 -253q149 -179 281 -358q35 -48 67 -93q68 154 68 386q0 178 -40 401q-2 9 -2 18q0 30 18 56q24 33 64 40q10 2 20 2q29 0 54 -18q34 -23 41 -63q43 -238 43 -434q0 -319 -114 -528q-14 -24 -28 -47q22 -36 41 -69q98 -174 98 -271q0 -11 -1 -21
q-9 -73 -68 -109q-73 -45 -193 -66q-92 -15 -205 -15h-6zM473 1612q28 0 51 6q31 7 51 24q17 13 24 33t1 36q-5 14 -19 21q-13 7 -36 6q-76 -3 -137 -77q-14 -17 -26 -38q46 -12 91 -11zM258 1463q-20 7 -29 26q-9 20 -2 40l13 33q-28 9 -55 12q-29 4 -62 -19
q-10 -7 -20 -15q-3 -3 -5 -6l-2 -1v-1q-14 -16 -35 -18q-22 -2 -38 12t-18 35t12 38h1l1 1q1 2 3 3q5 6 10 11q18 17 38 29q63 41 128 33q41 -5 84 -19q22 38 47 69q90 110 212 115q50 2 88 -19q47 -24 67 -73q18 -47 3 -99q-15 -53 -59 -88q-63 -52 -167 -53
q-67 -1 -136 20l-13 -35q-12 -34 -48 -34q-9 0 -18 3z" />
    <glyph glyph-name="uni06440671.fina" unicode="&#xfee0;&#xfb51;" horiz-adv-x="1476" 
d="M633 167q-36 0 -63 22q-28 24 -34 59q-78 437 -294 930q-9 20 -9 40q0 17 7 35q15 39 52 55q20 9 40 9q18 0 36 -7q38 -15 55 -53q225 -514 307 -974q2 -10 2 -20q0 -28 -18 -54q-23 -34 -64 -41q-8 -1 -17 -1zM1475 198q41 0 70 -29t29 -70t-29 -70t-70 -29
q-86 0 -160 39q-98 51 -165 165q-13 23 -26 50q-34 -56 -80 -103q-211 -217 -636 -217q-41 0 -70 29t-29 70t29 70t70 29q342 0 495 157q123 127 123 364v22q-3 117 -81 726l-7 57q-1 7 -1 13q0 32 21 60q25 32 66 37q7 1 13 1q32 0 60 -21q32 -25 37 -65l7 -57
q79 -617 82 -743q21 -249 98 -379q37 -63 83 -88q32 -18 71 -18zM470 1552q28 0 51 6q31 7 51 24q17 13 24 33t1 36q-5 14 -19 21q-13 7 -36 6q-76 -3 -137 -77q-14 -17 -26 -38q46 -12 91 -11zM255 1403q-20 7 -29 26q-9 20 -2 40l13 33q-28 9 -55 12q-29 4 -62 -19
q-10 -7 -20 -15q-3 -3 -5 -6l-2 -1v-1q-14 -16 -35 -18q-22 -2 -38 12t-18 35t12 38h1l1 1q1 2 3 3q5 6 10 11q18 17 38 29q63 41 128 33q41 -5 84 -19q22 38 47 69q90 110 212 115q50 2 88 -19q47 -24 67 -73q18 -47 3 -99q-15 -53 -59 -88q-63 -52 -167 -53
q-67 -1 -136 20l-13 -35q-12 -34 -48 -34q-9 0 -18 3z" />
    <glyph glyph-name="yeye" unicode="&#xfbff;&#xfbff;" horiz-adv-x="1728" 
d="M1731 198q41 0 70 -29t29 -70t-29 -70t-70 -29q-82 0 -150 28q-86 35 -145 114l-8 -9q-72 -80 -197 -110q-93 -23 -354 -23q-41 0 -70 29t-29 70t29 70t70 29q343 0 405 67q43 48 43 158q0 33 -4 70q-4 31 -8 69l-2 33l-3 32q-3 43 -5 63q-1 5 -1 11q0 33 23 61
q26 31 67 35q5 1 11 1q34 0 61 -23q32 -26 36 -67q2 -21 5 -65l3 -40l4 -41q5 -47 10 -84q14 -97 39 -157q51 -123 170 -123zM849 198q41 0 70 -29t29 -70t-29 -70t-70 -29q-82 0 -150 28q-86 35 -145 114l-8 -9q-72 -80 -197 -110q-93 -23 -354 -23q-41 0 -70 29t-29 70
t29 70t70 29q343 0 405 67q43 48 43 158q0 33 -4 70q-4 31 -8 69l-2 33l-3 32q-3 43 -5 63q-1 5 -1 11q0 33 23 61q26 31 67 35q5 1 11 1q34 0 61 -23q32 -26 36 -67q2 -21 5 -65l3 -40l4 -41q5 -47 10 -84q14 -97 39 -157q51 -123 170 -123zM981 -408q-18 36 -6 75t47 58
q178 93 383 87q70 -2 137 -15q25 -5 47 -11q9 -3 17 -5l12 -4q37 -12 56 -49q18 -36 6 -75t-47 -58t-73 -6h-1l-3 1l-4 1q-5 2 -10 3q-16 4 -33 8q-50 10 -103 12q-161 7 -297 -65q-20 -11 -43 -11q-59 0 -85 54zM38 -474q-18 36 -6 75t47 58q178 93 383 87q70 -2 137 -15
q25 -5 47 -11q9 -3 17 -5l12 -4q37 -12 56 -49q18 -36 6 -75t-47 -58t-73 -6h-1l-3 1l-4 1q-5 2 -10 3q-16 4 -33 8q-50 10 -103 12q-161 7 -297 -65q-20 -11 -43 -11q-59 0 -85 54z" />
    <glyph glyph-name="yeye1" unicode="&#xfbfe;&#xfbff;" horiz-adv-x="1708" 
d="M819 29q-29 29 -29 70t29 70t70 29q179 0 262 17q116 25 161 98q19 32 19 90q0 45 -11 106q-27 139 -100 292q-10 21 -10 44q0 16 5 32q14 38 50 56q21 10 42 10q17 0 34 -6q39 -13 56 -50q85 -175 116 -339q15 -78 15 -144q0 -117 -48 -195q-85 -140 -272 -184
q-107 -25 -319 -25q-41 0 -70 29zM863 198q41 0 70 -29t29 -70t-29 -70t-70 -29q-82 0 -150 28q-86 35 -145 114l-8 -9q-72 -80 -197 -110q-93 -23 -354 -23q-41 0 -70 29t-29 70t29 70t70 29q343 0 405 67q43 48 43 158q0 33 -4 70q-4 31 -8 69l-2 33l-3 32q-3 43 -5 63
q-1 5 -1 11q0 33 23 61q26 31 67 35q5 1 11 1q34 0 61 -23q32 -26 36 -67q2 -21 5 -65l3 -40l4 -41q5 -47 10 -84q14 -97 39 -157q51 -123 170 -123zM896 -435q-18 36 -6 75t47 58q178 93 383 87q70 -2 137 -15q25 -5 47 -11q9 -3 17 -5l12 -4q37 -12 56 -49q18 -36 6 -75
t-47 -58t-73 -6h-1l-3 1l-4 1q-5 2 -10 3q-16 4 -33 8q-50 10 -103 12q-161 7 -297 -65q-20 -11 -43 -11q-59 0 -85 54zM17 -489q-18 36 -6 75t47 58q178 93 383 87q70 -2 137 -15q25 -5 47 -11q9 -3 17 -5l12 -4q37 -12 56 -49q18 -36 6 -75t-47 -58t-73 -6h-1l-3 1l-4 1
q-5 2 -10 3q-16 4 -33 8q-50 10 -103 12q-161 7 -297 -65q-20 -11 -43 -11q-59 0 -85 54z" />
    <glyph glyph-name="uni0621" unicode="&#x621;" horiz-adv-x="1019" arabic-form="isolated" 
d="M122 -110q-10 17 -10 36q0 9 2 18q8 28 33 43q57 34 117 66q76 41 151 77q-152 85 -171 247q-2 20 -2 39q0 82 42 155q51 87 146 131q61 28 126 28q40 0 81 -10q110 -27 172 -112q14 -19 14 -42q0 -5 -1 -11q-5 -29 -29 -47q-19 -14 -41 -14q-5 0 -11 1q-30 5 -47 29
q-33 44 -92 59q-22 5 -43 5q-36 0 -69 -15q-54 -26 -83 -74q-23 -40 -23 -85q0 -10 1 -20q14 -116 146 -161q33 -11 61 -11q6 0 12 1q27 2 89 21q54 19 105 33q10 3 20 3q18 0 34 -10q26 -14 34 -42q3 -10 3 -20q0 -17 -9 -34q-15 -26 -43 -34q-19 -6 -41 -12l-37 -12
l-23 -7q-140 -48 -297 -125q-61 -30 -123 -64q-49 -27 -96 -55q-17 -10 -37 -10q-40 0 -61 35z" />
    <glyph glyph-name="uni0622" unicode="&#x622;" horiz-adv-x="994" arabic-form="isolated" 
d="M45 1490q-27 18 -33 50q-7 33 11 60l10 14l10 15q12 18 24 32q29 36 61 60q85 64 198 44q34 -6 79 -19l41 -12l41 -14l49 -16q27 -8 48 -14q52 -14 85 -16q115 -6 194 104q19 27 52 32q32 5 59 -14q26 -19 31 -52q6 -32 -14 -58q-130 -181 -330 -170q-47 3 -110 19
q-25 7 -57 17l-57 18q-99 33 -138 39q-43 8 -72 -11q-28 -19 -72 -86q-23 -35 -66 -35q-24 0 -44 13zM515 -50q-41 3 -67 32q-22 25 -22 56q0 4 1 10q21 177 21 411q0 376 -55 895q-1 5 -1 10q0 31 23 56q26 28 66 31q5 1 11 1q34 0 62 -21q31 -23 35 -60q57 -526 57 -912
q0 -244 -23 -431q-4 -34 -32 -57q-28 -22 -66 -22z" />
    <glyph glyph-name="uni0623" unicode="&#x623;" horiz-adv-x="543" arabic-form="isolated" 
d="M298 -50q-41 3 -67 32q-22 25 -22 56q0 4 1 10q21 177 21 411q0 376 -55 895q-1 5 -1 10q0 31 23 56q26 28 66 31q5 1 11 1q34 0 62 -21q31 -23 35 -60q57 -526 57 -912q0 -244 -23 -431q-4 -34 -32 -57q-28 -22 -66 -22zM11 1481q-11 18 -5 39q6 20 24 31l157 90
q-17 6 -31 15q-48 29 -74 83q-26 53 -21 111q6 54 37 101t80 75q94 53 204 22q20 -6 31 -25q10 -18 4 -39q-6 -20 -24 -30q-19 -11 -39 -5q-69 20 -125 -13q-59 -33 -65 -96q-7 -65 45 -96q23 -14 55 -16q12 0 25 1q10 1 20 3q27 6 60 20l30 13l30 14q19 9 38 3
q20 -7 30 -25q9 -18 4 -38q-6 -20 -24 -31l-396 -226q-12 -7 -25 -7q-30 0 -45 26z" />
    <glyph glyph-name="uni0624" unicode="&#x624;" horiz-adv-x="1068" arabic-form="isolated" 
d="M132 -657q-28 22 -35 56q-3 12 -3 23q0 27 16 52q21 34 61 43q242 54 418 234q195 199 195 452q0 141 -73 284q-87 169 -212 169q-35 0 -67 -16q-24 -13 -45 -34q-75 -76 -75 -209v-10q2 -77 63 -128q76 -65 199 -65q40 0 85 7q8 1 16 1q31 0 57 -19q33 -24 39 -65
q1 -8 1 -16q0 -31 -19 -57q-24 -33 -65 -39q-55 -9 -107 -9q-71 0 -137 16q-115 27 -197 95q-129 108 -132 274v16q0 213 131 347q107 109 253 109q114 0 211 -66t165 -189q55 -98 83 -214q24 -98 24 -182q0 -325 -238 -578q-218 -231 -529 -301q-11 -2 -22 -2q-34 0 -61 21
zM200 926q-11 18 -5 39q6 20 24 31l157 90q-17 6 -31 15q-48 29 -74 83q-26 53 -21 111q6 54 37 101t80 75q94 53 204 22q20 -6 31 -25q10 -18 4 -39q-6 -20 -24 -30q-19 -11 -39 -5q-69 20 -125 -13q-59 -33 -65 -96q-7 -65 45 -96q23 -14 55 -16q12 0 25 1q10 1 20 3
q27 6 60 20l30 13l30 14q19 9 38 3q20 -7 30 -25q9 -18 4 -38q-6 -20 -24 -31l-396 -226q-12 -7 -25 -7q-30 0 -45 26z" />
    <glyph glyph-name="uni0625" unicode="&#x625;" horiz-adv-x="509" arabic-form="isolated" 
d="M280 -50q-41 3 -67 32q-22 25 -22 56q0 4 1 10q21 177 21 411q0 376 -55 895q-1 5 -1 10q0 31 23 56q26 28 66 31q5 1 11 1q34 0 62 -21q31 -23 35 -60q57 -526 57 -912q0 -244 -23 -431q-4 -34 -32 -57q-28 -22 -66 -22zM8 -689q-11 18 -5 39q6 20 24 31l157 90
q-17 6 -31 15q-48 29 -74 83q-26 53 -21 111q6 54 37 101t80 75q94 53 204 22q20 -6 31 -25q10 -18 4 -39q-6 -20 -24 -30q-19 -11 -39 -5q-69 20 -125 -13q-59 -33 -65 -96q-7 -65 45 -96q23 -14 55 -16q12 0 25 1q10 1 20 3q27 6 60 20l30 13l30 14q19 9 38 3
q20 -7 30 -25q9 -18 4 -38q-6 -20 -24 -31l-396 -226q-12 -7 -25 -7q-30 0 -45 26z" />
    <glyph glyph-name="uni0626" unicode="&#x626;" horiz-adv-x="1776" arabic-form="isolated" 
d="M413 -625q-329 167 -344 541q-1 19 -1 38q0 139 45 296q39 136 108 274q19 37 57 50q16 5 31 5q23 0 45 -11q36 -18 49 -57q5 -16 5 -32q0 -22 -10 -43q-133 -267 -133 -484q0 -14 1 -28q11 -258 237 -373q124 -63 275 -63q87 0 182 21q262 58 393 230q17 22 29 41
q9 15 14 27q-21 7 -66 15q-17 2 -38 5l-18 3l-17 2l-30 4l-31 4q-34 5 -62 11q-69 13 -118 35q-157 69 -157 228v8q4 137 69 269q66 133 181 237q116 104 255 157q116 45 227 45q20 0 41 -2q41 -3 67 -35q24 -27 24 -62q0 -5 -1 -10q-3 -40 -34 -67q-28 -23 -64 -23h-8
q-13 1 -26 1q-77 0 -163 -34q-100 -41 -185 -117q-180 -162 -185 -364v-2q0 -31 39 -48q31 -14 85 -24q21 -4 50 -8l51 -7l48 -6l47 -8q51 -9 88 -22q91 -33 121 -105q13 -31 13 -66q0 -38 -16 -80q-21 -55 -73 -123q-176 -230 -507 -302q-108 -24 -217 -24q-209 0 -373 83z
M361 714q-11 18 -5 39q6 20 24 31l157 90q-17 6 -31 15q-48 29 -74 83q-26 53 -21 111q6 54 37 101t80 75q94 53 204 22q20 -6 31 -25q10 -18 4 -39q-6 -20 -24 -30q-19 -11 -39 -5q-69 20 -125 -13q-59 -33 -65 -96q-7 -65 45 -96q23 -14 55 -16q12 0 25 1q10 1 20 3
q27 6 60 20l30 13l30 14q19 9 38 3q20 -7 30 -25q9 -18 4 -38q-6 -20 -24 -31l-396 -226q-12 -7 -25 -7q-30 0 -45 26z" />
    <glyph glyph-name="uni0627" unicode="&#x627;" horiz-adv-x="536" arabic-form="isolated" 
d="M270 -50q-41 4 -67 36q-22 28 -22 62q0 5 1 11q21 198 21 459q0 419 -55 998q-1 5 -1 11q0 34 23 62q26 31 66 35q5 1 11 1q34 0 62 -23q31 -26 35 -67q57 -587 57 -1017q0 -272 -23 -481q-4 -38 -32 -63t-66 -25z" />
    <glyph glyph-name="uni0628" unicode="&#x628;" horiz-adv-x="2013" arabic-form="isolated" 
d="M505 37q-225 55 -334 191q-101 126 -101 270q0 16 1 33q13 163 150 317q27 31 68 34h6q37 0 66 -25q30 -27 33 -68v-6q0 -37 -25 -66q-101 -115 -101 -218q0 -12 1 -24q4 -40 25 -77q7 -14 17 -28l8 -10l3 -5l3 -4q79 -99 287 -134q73 -13 160 -17q32 -2 66 -2h51
q326 0 540 57q214 58 265 160q16 31 16 70q0 46 -22 103q-30 80 -101 176q-19 26 -19 57q0 8 1 16q6 41 39 65q26 19 57 19q8 0 16 -1q41 -6 65 -39q162 -220 162 -396q0 -84 -37 -159q-96 -189 -422 -269q-130 -32 -296 -46q-126 -11 -264 -11q-230 0 -384 37zM983 -233
q10 1 19 1q48 0 83 -35q30 -30 34 -75q1 -6 1 -12q0 -37 -23 -67q-5 -8 -13 -15q-31 -29 -73 -35q-12 -2 -23 -2q-30 0 -57 13q-38 18 -60 54q-20 34 -20 71v7q3 53 48 80q28 17 61 17q12 0 23 -2z" />
    <glyph glyph-name="uni0629" unicode="&#x629;" horiz-adv-x="990" arabic-form="isolated" 
d="M214 94q-120 104 -120 271q0 100 55 208q20 41 49 84q11 17 25 36l12 17l11 15q20 27 27 37q23 34 63 42q11 3 22 3q28 0 52 -17q34 -23 42 -63q2 -11 2 -21q0 -28 -16 -53q-10 -14 -33 -46l-9 -12l-9 -13l-20 -27q-22 -33 -37 -60q-38 -72 -38 -130q0 -82 59 -128
q52 -40 129 -40q35 0 74 10q47 12 82 34q71 46 71 123q0 124 -136 299q-61 79 -134 145q-65 59 -116 88q-36 20 -46 60q-4 14 -4 27q0 25 13 48q20 35 60 46q14 4 27 4q25 0 48 -13q159 -91 308 -283q75 -97 119 -190q59 -124 59 -231q0 -185 -162 -289q-118 -76 -263 -76
q-157 0 -266 95zM111 1263q-18 36 -6 75t47 58q178 93 383 87q70 -2 137 -15q25 -5 47 -11q9 -3 17 -5l12 -4q37 -12 56 -49q18 -36 6 -75t-47 -58t-73 -6h-1l-3 1l-4 1q-5 2 -10 3q-16 4 -33 8q-50 10 -103 12q-161 7 -297 -65q-20 -11 -43 -11q-59 0 -85 54z" />
    <glyph glyph-name="uni062A" unicode="&#x62a;" horiz-adv-x="2013" arabic-form="isolated" 
d="M505 37q-225 55 -334 191q-101 126 -101 270q0 16 1 33q13 163 150 317q27 31 68 34h6q37 0 66 -25q30 -27 33 -68v-6q0 -37 -25 -66q-101 -115 -101 -218q0 -12 1 -24q4 -40 25 -77q7 -14 17 -28l8 -10l3 -5l3 -4q79 -99 287 -134q73 -13 160 -17q32 -2 66 -2h51
q326 0 540 57q214 58 265 160q16 31 16 70q0 46 -22 103q-30 80 -101 176q-19 26 -19 57q0 8 1 16q6 41 39 65q26 19 57 19q8 0 16 -1q41 -6 65 -39q162 -220 162 -396q0 -84 -37 -159q-96 -189 -422 -269q-130 -32 -296 -46q-126 -11 -264 -11q-230 0 -384 37zM652 902
q-18 36 -6 75t47 58q178 93 383 87q70 -2 137 -15q25 -5 47 -11q9 -3 17 -5l12 -4q37 -12 56 -49q18 -36 6 -75t-47 -58t-73 -6h-1l-3 1l-4 1q-5 2 -10 3q-16 4 -33 8q-50 10 -103 12q-161 7 -297 -65q-20 -11 -43 -11q-59 0 -85 54z" />
    <glyph glyph-name="uni062B" unicode="&#x62b;" horiz-adv-x="2013" arabic-form="isolated" 
d="M505 37q-225 55 -334 191q-101 126 -101 270q0 16 1 33q13 163 150 317q27 31 68 34h6q37 0 66 -25q30 -27 33 -68v-6q0 -37 -25 -66q-101 -115 -101 -218q0 -12 1 -24q4 -40 25 -77q7 -14 17 -28l8 -10l3 -5l3 -4q79 -99 287 -134q73 -13 160 -17q32 -2 66 -2h51
q326 0 540 57q214 58 265 160q16 31 16 70q0 46 -22 103q-30 80 -101 176q-19 26 -19 57q0 8 1 16q6 41 39 65q26 19 57 19q8 0 16 -1q41 -6 65 -39q162 -220 162 -396q0 -84 -37 -159q-96 -189 -422 -269q-130 -32 -296 -46q-126 -11 -264 -11q-230 0 -384 37zM950 1197
q-10 -1 -19 -1q-48 0 -83 35q-31 31 -34 75q-1 6 -1 12q0 37 22 67q6 8 14 15q30 29 73 35q12 2 23 2q30 0 57 -13q38 -17 60 -54q20 -34 20 -71v-7q-3 -53 -48 -80q-28 -17 -61 -17q-12 0 -23 2zM643 867q-18 36 -6 75t47 58q178 93 383 87q70 -2 137 -15q25 -5 47 -11
q9 -3 17 -5l12 -4q37 -12 56 -49q18 -36 6 -75t-47 -58t-73 -6h-1l-3 1l-4 1q-5 2 -10 3q-16 4 -33 8q-50 10 -103 12q-161 7 -297 -65q-20 -11 -43 -11q-59 0 -85 54z" />
    <glyph glyph-name="uni062C" unicode="&#x62c;" horiz-adv-x="1647" arabic-form="isolated" 
d="M729 -794q-239 5 -434 152q-219 164 -237 408q-2 28 -2 56q0 214 122 387q117 167 341 287q223 120 537 188q-171 75 -285 114q-154 51 -239 51q-151 0 -198 -163q-11 -39 -47 -59q-23 -13 -47 -13q-14 0 -28 4q-39 12 -59 47q-13 23 -13 48q0 14 4 28q43 148 143 227
t245 79q132 0 355 -81q86 -31 196 -78q43 -19 97 -42l47 -21l45 -21q118 -53 167 -73q31 -13 48 -43q13 -22 13 -48q0 -7 -1 -15q-5 -33 -29 -57q-25 -23 -58 -27q-83 -9 -165 -22q-105 -17 -203 -41q-254 -61 -432 -156q-358 -193 -358 -503q0 -19 1 -39q12 -158 163 -269
q142 -104 315 -107h16q148 0 294 52q174 63 271 179q26 31 67 35h8q36 0 64 -23q32 -26 35 -67q1 -5 1 -10q0 -35 -24 -62q-116 -138 -311 -220q-194 -82 -406 -82h-19zM1054 -76q0 -52 -40 -94q-41 -41 -89 -41q-50 0 -107 40q-40 43 -40 95q0 46 43 90q44 45 93 45
q50 0 94 -41q46 -43 46 -94z" />
    <glyph glyph-name="uni062D" unicode="&#x62d;" horiz-adv-x="1647" arabic-form="isolated" 
d="M729 -794q-239 5 -434 152q-219 164 -237 408q-2 28 -2 56q0 214 122 387q117 167 341 287q223 120 537 188q-171 75 -285 114q-154 51 -239 51q-151 0 -198 -163q-11 -39 -47 -59q-23 -13 -47 -13q-14 0 -28 4q-39 12 -59 47q-13 23 -13 48q0 14 4 28q43 148 143 227
t245 79q132 0 355 -81q86 -31 196 -78q43 -19 97 -42l47 -21l45 -21q118 -53 167 -73q31 -13 48 -43q13 -22 13 -48q0 -7 -1 -15q-5 -33 -29 -57q-25 -23 -58 -27q-83 -9 -165 -22q-105 -17 -203 -41q-254 -61 -432 -156q-358 -193 -358 -503q0 -19 1 -39q12 -158 163 -269
q142 -104 315 -107h16q148 0 294 52q174 63 271 179q26 31 67 35h8q36 0 64 -23q32 -26 35 -67q1 -5 1 -10q0 -35 -24 -62q-116 -138 -311 -220q-194 -82 -406 -82h-19z" />
    <glyph glyph-name="uni062E" unicode="&#x62e;" horiz-adv-x="1647" arabic-form="isolated" 
d="M729 -794q-239 5 -434 152q-219 164 -237 408q-2 28 -2 56q0 214 122 387q117 167 341 287q223 120 537 188q-171 75 -285 114q-154 51 -239 51q-151 0 -198 -163q-11 -39 -47 -59q-23 -13 -47 -13q-14 0 -28 4q-39 12 -59 47q-13 23 -13 48q0 14 4 28q43 148 143 227
t245 79q132 0 355 -81q86 -31 196 -78q43 -19 97 -42l47 -21l45 -21q118 -53 167 -73q31 -13 48 -43q13 -22 13 -48q0 -7 -1 -15q-5 -33 -29 -57q-25 -23 -58 -27q-83 -9 -165 -22q-105 -17 -203 -41q-254 -61 -432 -156q-358 -193 -358 -503q0 -19 1 -39q12 -158 163 -269
q142 -104 315 -107h16q148 0 294 52q174 63 271 179q26 31 67 35h8q36 0 64 -23q32 -26 35 -67q1 -5 1 -10q0 -35 -24 -62q-116 -138 -311 -220q-194 -82 -406 -82h-19zM759 1428q0 -52 -40 -94q-41 -41 -89 -41q-50 0 -107 40q-40 43 -40 95q0 46 43 90q44 45 93 45
q50 0 94 -41q46 -43 46 -94z" />
    <glyph glyph-name="uni062F" unicode="&#x62f;" horiz-adv-x="1127" arabic-form="isolated" 
d="M180 51q-39 12 -58 48q-12 22 -12 45q0 15 5 30q11 39 48 59q22 12 45 12q15 0 30 -5q143 -43 265 -43q68 0 129 13q161 35 211 157q2 4 2 10q0 5 -1 11q-2 19 -11 45q-25 72 -90 165q-142 202 -352 350q-33 24 -40 64q-2 10 -2 19q0 30 18 55q24 34 64 40q10 2 19 2
q30 0 55 -18q240 -170 401 -401q78 -111 111 -206q25 -69 25 -127q0 -46 -16 -85q-90 -217 -352 -274q-78 -17 -168 -17q-158 0 -326 51z" />
    <glyph glyph-name="uni0630" unicode="&#x630;" horiz-adv-x="1127" arabic-form="isolated" 
d="M180 51q-39 12 -58 48q-12 22 -12 45q0 15 5 30q11 39 48 59q22 12 45 12q15 0 30 -5q143 -43 265 -43q68 0 129 13q161 35 211 157q2 4 2 10q0 5 -1 11q-2 19 -11 45q-25 72 -90 165q-142 202 -352 350q-33 24 -40 64q-2 10 -2 19q0 30 18 55q24 34 64 40q10 2 19 2
q30 0 55 -18q240 -170 401 -401q78 -111 111 -206q25 -69 25 -127q0 -46 -16 -85q-90 -217 -352 -274q-78 -17 -168 -17q-158 0 -326 51zM599 1488q0 -52 -40 -94q-41 -41 -89 -41q-50 0 -107 40q-40 43 -40 95q0 46 43 90q44 45 93 45q50 0 94 -41q46 -43 46 -94z" />
    <glyph glyph-name="uni0631" unicode="&#x631;" horiz-adv-x="922" arabic-form="isolated" 
d="M27 -671q-12 23 -12 46q0 15 5 30q12 39 48 58q269 143 390 361q148 266 148 738q0 41 29 70t70 29t70 -29t29 -70q0 -510 -164 -817q-152 -282 -479 -456q-22 -12 -47 -12q-59 0 -87 52z" />
    <glyph glyph-name="uni0632" unicode="&#x632;" horiz-adv-x="922" arabic-form="isolated" 
d="M27 -671q-12 23 -12 46q0 15 5 30q12 39 48 58q269 143 390 361q148 266 148 738q0 41 29 70t70 29t70 -29t29 -70q0 -510 -164 -817q-152 -282 -479 -456q-22 -12 -47 -12q-59 0 -87 52zM835 1079q0 -52 -40 -94q-41 -41 -89 -41q-50 0 -107 40q-40 43 -40 95
q0 46 43 90q44 45 93 45q50 0 94 -41q46 -43 46 -94z" />
    <glyph glyph-name="uni0633" unicode="&#x633;" horiz-adv-x="2692" arabic-form="isolated" 
d="M483 -616q-144 57 -243 160q-168 174 -168 427q0 15 1 31q8 237 206 546q22 34 62 43q12 3 23 3q27 0 51 -16q35 -22 44 -62q2 -11 2 -21q0 -28 -16 -53q-168 -264 -175 -447v-21q0 -176 113 -293q149 -155 408 -155q121 0 231 48q131 58 202 168q76 119 76 282
q0 223 -141 529q-10 20 -10 41q0 17 7 34q14 38 51 56q20 9 41 9q17 0 34 -6q39 -14 56 -51l5 -12l7 -13q7 -15 13 -29q17 -35 33 -66q44 -84 86 -145q120 -175 228 -175q88 0 114 65q27 66 28 284v51q1 41 30 70q29 28 70 28q41 -1 70 -29q28 -29 28 -70v-13
q0 -267 86 -354q31 -31 77 -31q54 0 86 17q23 11 37 32q32 46 32 133q0 35 -5 77q-15 129 -70 273q-7 18 -7 35q0 20 9 40q17 38 55 52q18 7 36 7q20 0 40 -9q37 -16 52 -55q25 -65 44 -133q26 -92 37 -176q7 -55 7 -104q0 -155 -67 -252q-39 -57 -99 -90q-79 -45 -187 -45
q-129 0 -217 90q-14 13 -26 29q-86 -120 -260 -120q-112 0 -216 74l1 -21v-28q0 -222 -105 -387q-101 -157 -281 -239q-152 -69 -318 -69q-164 0 -308 56z" />
    <glyph glyph-name="uni0634" unicode="&#x634;" horiz-adv-x="2692" arabic-form="isolated" 
d="M483 -616q-144 57 -243 160q-168 174 -168 427q0 15 1 31q8 237 206 546q22 34 62 43q12 3 23 3q27 0 51 -16q35 -22 44 -62q2 -11 2 -21q0 -28 -16 -53q-168 -264 -175 -447v-21q0 -176 113 -293q149 -155 408 -155q121 0 231 48q131 58 202 168q76 119 76 282
q0 223 -141 529q-10 20 -10 41q0 17 7 34q14 38 51 56q20 9 41 9q17 0 34 -6q39 -14 56 -51l5 -12l7 -13q7 -15 13 -29q17 -35 33 -66q44 -84 86 -145q120 -175 228 -175q88 0 114 65q27 66 28 284v51q1 41 30 70q29 28 70 28q41 -1 70 -29q28 -29 28 -70v-13
q0 -267 86 -354q31 -31 77 -31q54 0 86 17q23 11 37 32q32 46 32 133q0 35 -5 77q-15 129 -70 273q-7 18 -7 35q0 20 9 40q17 38 55 52q18 7 36 7q20 0 40 -9q37 -16 52 -55q25 -65 44 -133q26 -92 37 -176q7 -55 7 -104q0 -155 -67 -252q-39 -57 -99 -90q-79 -45 -187 -45
q-129 0 -217 90q-14 13 -26 29q-86 -120 -260 -120q-112 0 -216 74l1 -21v-28q0 -222 -105 -387q-101 -157 -281 -239q-152 -69 -318 -69q-164 0 -308 56zM1868 1405q-10 -1 -19 -1q-48 0 -83 35q-31 31 -34 75q-1 6 -1 12q0 37 22 67q6 8 14 15q30 29 73 35q12 2 23 2
q30 0 57 -13q38 -17 60 -54q20 -34 20 -71v-7q-3 -53 -48 -80q-28 -17 -61 -17q-12 0 -23 2zM1561 1075q-18 36 -6 75t47 58q178 93 383 87q70 -2 137 -15q25 -5 47 -11q9 -3 17 -5l12 -4q37 -12 56 -49q18 -36 6 -75t-47 -58t-73 -6h-1l-3 1l-4 1q-5 2 -10 3q-16 4 -33 8
q-50 10 -103 12q-161 7 -297 -65q-20 -11 -43 -11q-59 0 -85 54z" />
    <glyph glyph-name="uni0635" unicode="&#x635;" horiz-adv-x="2916" arabic-form="isolated" 
d="M2081 162q54 0 113 5q63 6 130 24q78 21 140 55q158 87 158 231q0 101 -88 153q-34 20 -78 30q-36 9 -71 9q-194 0 -362 -144q-132 -113 -242 -311q124 -52 300 -52zM454 -573q-142 75 -222 216q-84 147 -84 331q0 33 3 68q16 220 138 423q21 35 60 45q13 3 25 3
q26 0 50 -14q35 -21 45 -61q3 -13 3 -25q0 -25 -14 -49q-95 -160 -110 -329q-3 -30 -3 -58q0 -134 59 -236q109 -192 378 -192q20 0 41 1q27 1 55 4q74 9 139 28q185 55 272 186q71 107 71 262v13q-2 202 -118 474q-8 19 -8 37t7 36q13 37 49 54q21 10 42 10q15 0 31 -5
q38 -11 57 -46q106 -193 196 -279q106 186 234 310q239 233 533 233h2q163 -1 284 -89q151 -111 151 -301q0 -247 -236 -390q-95 -58 -218 -90q-45 -11 -91 -19q-33 -5 -64 -8q-65 -5 -126 -5q-310 0 -512 140l-18 13q4 -42 4 -83q0 -217 -105 -376q-109 -165 -318 -245
q-92 -35 -195 -51q-79 -12 -159 -12q-186 0 -328 76z" />
    <glyph glyph-name="uni0636" unicode="&#x636;" horiz-adv-x="2916" arabic-form="isolated" 
d="M2081 162q54 0 113 5q63 6 130 24q78 21 140 55q158 87 158 231q0 101 -88 153q-34 20 -78 30q-36 9 -71 9q-194 0 -362 -144q-132 -113 -242 -311q124 -52 300 -52zM454 -573q-142 75 -222 216q-84 147 -84 331q0 33 3 68q16 220 138 423q21 35 60 45q13 3 25 3
q26 0 50 -14q35 -21 45 -61q3 -13 3 -25q0 -25 -14 -49q-95 -160 -110 -329q-3 -30 -3 -58q0 -134 59 -236q109 -192 378 -192q20 0 41 1q27 1 55 4q74 9 139 28q185 55 272 186q71 107 71 262v13q-2 202 -118 474q-8 19 -8 37t7 36q13 37 49 54q21 10 42 10q15 0 31 -5
q38 -11 57 -46q106 -193 196 -279q106 186 234 310q239 233 533 233h2q163 -1 284 -89q151 -111 151 -301q0 -247 -236 -390q-95 -58 -218 -90q-45 -11 -91 -19q-33 -5 -64 -8q-65 -5 -126 -5q-310 0 -512 140l-18 13q4 -42 4 -83q0 -217 -105 -376q-109 -165 -318 -245
q-92 -35 -195 -51q-79 -12 -159 -12q-186 0 -328 76zM2507 1260q0 -52 -40 -94q-41 -41 -89 -41q-50 0 -107 40q-40 43 -40 95q0 46 43 90q44 45 93 45q50 0 94 -41q46 -43 46 -94z" />
    <glyph glyph-name="uni0637" unicode="&#x637;" horiz-adv-x="1816" arabic-form="isolated" 
d="M1457 385q95 88 95 191q0 23 -5 47q-11 61 -42 95q-22 23 -55 35q-35 13 -78 13q-50 0 -110 -17q-105 -29 -179 -89q-187 -152 -371 -419q-5 -22 -19 -38q85 -8 164 -8q172 0 316 39q175 48 284 151zM1741 661q9 -46 9 -90q0 -183 -157 -330q-145 -137 -368 -198
q-168 -46 -367 -46q-136 0 -287 22q-30 -53 -61 -108q-28 -51 -87 -51q-25 0 -48 12q-35 20 -47 60q-4 14 -4 27q0 25 13 48l28 50q-134 31 -267 75q-39 13 -57 50q-11 21 -11 44q0 15 5 31q13 39 50 57q22 11 44 11q16 0 31 -5q157 -53 312 -84q27 42 54 82q57 326 57 647
q0 269 -40 533q-1 8 -1 16q0 31 19 57q24 33 65 39q8 1 16 1q31 0 57 -19q33 -24 39 -65q42 -276 42 -562q0 -166 -14 -336q94 104 192 184q109 89 257 128q72 19 139 22h18q78 0 145 -24q183 -66 224 -278z" />
    <glyph glyph-name="uni0638" unicode="&#x638;" horiz-adv-x="1816" arabic-form="isolated" 
d="M1457 385q95 88 95 191q0 23 -5 47q-11 61 -42 95q-22 23 -55 35q-35 13 -78 13q-50 0 -110 -17q-105 -29 -179 -89q-187 -152 -371 -419q-5 -22 -19 -38q85 -8 164 -8q172 0 316 39q175 48 284 151zM1741 661q9 -46 9 -90q0 -183 -157 -330q-145 -137 -368 -198
q-168 -46 -367 -46q-136 0 -287 22q-30 -53 -61 -108q-28 -51 -87 -51q-25 0 -48 12q-35 20 -47 60q-4 14 -4 27q0 25 13 48l28 50q-134 31 -267 75q-39 13 -57 50q-11 21 -11 44q0 15 5 31q13 39 50 57q22 11 44 11q16 0 31 -5q157 -53 312 -84q27 42 54 82q57 326 57 647
q0 269 -40 533q-1 8 -1 16q0 31 19 57q24 33 65 39q8 1 16 1q31 0 57 -19q33 -24 39 -65q42 -276 42 -562q0 -166 -14 -336q94 104 192 184q109 89 257 128q72 19 139 22h18q78 0 145 -24q183 -66 224 -278zM1487 1408q0 -52 -40 -94q-41 -41 -89 -41q-50 0 -107 40
q-40 43 -40 95q0 46 43 90q44 45 93 45q50 0 94 -41q46 -43 46 -94z" />
    <glyph glyph-name="uni0639" unicode="&#x639;" horiz-adv-x="1532" arabic-form="isolated" 
d="M264 -504q-153 156 -153 367q0 28 3 57q21 226 152 396q113 144 302 242q33 17 67 32q-104 68 -155 174q-38 80 -38 168q0 29 4 59q20 147 125 250q105 102 255 122q42 5 82 5q99 0 187 -33q121 -47 216 -156q24 -28 24 -64v-8q-3 -41 -34 -68q-28 -23 -64 -23h-8
q-41 2 -68 33q-104 122 -255 122q-26 0 -54 -4q-84 -11 -142 -66q-57 -56 -68 -137q-2 -16 -2 -31q0 -63 37 -115q40 -55 108 -84q65 -29 162 -29q47 0 102 7q99 17 210 29q6 1 11 1q34 0 61 -22q32 -26 37 -66q1 -6 1 -11q0 -34 -22 -62q-25 -31 -66 -36l-54 -7l-54 -8
l-47 -7l-47 -7q-249 -45 -420 -133q-319 -165 -348 -481q-2 -19 -2 -37q0 -133 96 -231q74 -76 188 -112q89 -28 190 -28q28 0 57 2q142 10 296 85q48 23 92 50q14 9 25 17q4 3 7 5l2 1l1 1q26 19 57 19q8 0 16 -1q40 -6 65 -39q19 -26 19 -57q0 -8 -1 -16q-6 -41 -38 -65
l-2 -1l-3 -2q-4 -3 -9 -7q-15 -10 -33 -21q-53 -34 -113 -63q-187 -91 -367 -104q-34 -2 -67 -2q-328 0 -523 200z" />
    <glyph glyph-name="uni063A" unicode="&#x63a;" horiz-adv-x="1532" arabic-form="isolated" 
d="M264 -504q-153 156 -153 367q0 28 3 57q21 226 152 396q113 144 302 242q33 17 67 32q-104 68 -155 174q-38 80 -38 168q0 29 4 59q20 147 125 250q105 102 255 122q42 5 82 5q99 0 187 -33q121 -47 216 -156q24 -28 24 -64v-8q-3 -41 -34 -68q-28 -23 -64 -23h-8
q-41 2 -68 33q-104 122 -255 122q-26 0 -54 -4q-84 -11 -142 -66q-57 -56 -68 -137q-2 -16 -2 -31q0 -63 37 -115q40 -55 108 -84q65 -29 162 -29q47 0 102 7q99 17 210 29q6 1 11 1q34 0 61 -22q32 -26 37 -66q1 -6 1 -11q0 -34 -22 -62q-25 -31 -66 -36l-54 -7l-54 -8
l-47 -7l-47 -7q-249 -45 -420 -133q-319 -165 -348 -481q-2 -19 -2 -37q0 -133 96 -231q74 -76 188 -112q89 -28 190 -28q28 0 57 2q142 10 296 85q48 23 92 50q14 9 25 17q4 3 7 5l2 1l1 1q26 19 57 19q8 0 16 -1q40 -6 65 -39q19 -26 19 -57q0 -8 -1 -16q-6 -41 -38 -65
l-2 -1l-3 -2q-4 -3 -9 -7q-15 -10 -33 -21q-53 -34 -113 -63q-187 -91 -367 -104q-34 -2 -67 -2q-328 0 -523 200zM1049 1715q0 -52 -40 -94q-41 -41 -89 -41q-50 0 -107 40q-40 43 -40 95q0 46 43 90q44 45 93 45q50 0 94 -41q46 -43 46 -94z" />
    <glyph glyph-name="uni0641" unicode="&#x641;" horiz-adv-x="1982" arabic-form="isolated" 
d="M1454 925q-43 -14 -80 -70q-36 -55 -48 -127q-4 -22 -4 -41q0 -27 8 -48q9 -25 31 -43q48 -38 141 -45q16 -1 31 -1q76 0 149 24q-1 27 -5 55q-23 163 -112 252q-47 47 -89 47q-12 0 -22 -3zM965 0q-572 0 -754 228q-101 126 -101 270q0 16 1 33q13 163 150 317
q27 31 68 34h6q37 0 66 -25q30 -27 33 -68v-6q0 -37 -25 -66q-101 -115 -101 -218q0 -12 1 -24q4 -40 25 -77q7 -14 17 -28l8 -10l3 -5l3 -4q52 -65 173 -103q160 -50 427 -50h65q44 1 83 2q105 5 190 18q242 37 325 142q-50 -7 -98 -7q-57 0 -112 10q-110 21 -182 80
q-112 92 -112 241q0 37 7 78q22 129 94 224q71 96 169 127q27 9 57 12q11 1 22 1q26 0 52 -5q96 -17 180 -100q138 -138 169 -369q7 -54 7 -104q0 -164 -76 -281q-116 -176 -418 -235q-105 -21 -237 -28q-49 -3 -104 -4h-81zM1623 1483q0 -52 -40 -94q-41 -41 -89 -41
q-50 0 -107 40q-40 43 -40 95q0 46 43 90q44 45 93 45q50 0 94 -41q46 -43 46 -94z" />
    <glyph glyph-name="uni0642" unicode="&#x642;" horiz-adv-x="1581" arabic-form="isolated" 
d="M263 -442q-173 173 -173 423q0 294 172 507q26 32 66 36q6 1 11 1q34 0 62 -22q32 -26 36 -67q1 -6 1 -13q0 -32 -22 -59q-128 -159 -128 -383v-3q0 -166 115 -280q140 -140 382 -140q238 0 379 143q161 164 161 440v14q0 154 -77 316q-88 186 -207 186q-35 0 -67 -16
q-24 -13 -45 -34q-75 -77 -75 -213v-7q2 -76 63 -127q76 -65 199 -65q40 0 85 7q8 1 16 1q31 0 57 -19q33 -25 39 -65q1 -8 1 -16q0 -32 -19 -58q-24 -33 -65 -39q-53 -8 -104 -8q-73 0 -140 16q-115 26 -197 95q-129 108 -132 274v16q0 213 131 346q107 110 253 110
q226 0 367 -261q114 -212 114 -438v-17q0 -166 -54 -313q-57 -156 -163 -264q-200 -202 -520 -202q-324 0 -522 198zM655 1132q-18 36 -6 75t47 58q178 93 383 87q70 -2 137 -15q25 -5 47 -11q9 -3 17 -5l12 -4q37 -12 56 -49q18 -36 6 -75t-47 -58t-73 -6h-1l-3 1l-4 1
q-5 2 -10 3q-16 4 -33 8q-50 10 -103 12q-161 7 -297 -65q-20 -11 -43 -11q-59 0 -85 54z" />
    <glyph glyph-name="uni0643" unicode="&#x643;" horiz-adv-x="2024" arabic-form="isolated" 
d="M766 518q-11 18 -5 39q5 20 24 31l157 90q-17 6 -31 15q-48 29 -74 83q-26 53 -21 111q6 54 37 101t80 75q94 53 204 22q20 -6 31 -25q10 -18 4 -39q-6 -20 -24 -30q-19 -11 -39 -5q-69 19 -125 -13q-59 -33 -65 -96q-7 -65 45 -96q23 -14 55 -16q12 0 25 1q10 1 20 3
q27 6 60 20l30 13l30 14q18 9 38 3q20 -7 30 -25q9 -18 4 -38q-6 -20 -24 -31l-396 -226q-12 -7 -25 -7q-30 0 -45 26zM137 264q-119 171 -26 424q14 38 51 56q37 17 76 3q38 -15 55 -52t3 -75q-57 -156 3 -243q53 -76 195 -120q188 -59 516 -59q426 0 569 144
q103 103 101 325q-4 409 -77 793q-8 41 15 74q23 34 63 42t74 -15t42 -63q77 -403 81 -829q2 -304 -159 -467q-200 -202 -709 -202q-689 0 -873 264z" />
    <glyph glyph-name="uni0644" unicode="&#x644;" horiz-adv-x="1483" arabic-form="isolated" 
d="M707 -659q-239 0 -395 123q-211 167 -215 465v13q0 117 33 247q27 105 73 211q16 38 54 53q18 7 37 7t38 -8q38 -16 53 -54q7 -18 7 -37t-8 -39q-31 -73 -52 -146q-30 -101 -36 -191q-2 -23 -2 -45q0 -210 140 -321q103 -80 270 -80h24q184 6 303 98q116 90 139 287
q6 54 6 120q0 30 -1 62q-2 42 -6 94l-3 46l-4 46q-8 88 -10 130q-13 219 -45 660q-10 138 -21 283q-3 46 -6 87q-1 13 -2 24v8l-1 1v8q0 36 24 64q27 31 68 34h8q35 0 63 -24q31 -26 35 -67v-9q1 -11 2 -24q3 -42 6 -87q11 -145 21 -284q32 -443 45 -663q2 -39 10 -124
l4 -51l4 -52q4 -59 6 -107q1 -29 1 -56q0 -88 -10 -161q-36 -264 -212 -401q-169 -131 -417 -140h-28z" />
    <glyph glyph-name="uni0645" unicode="&#x645;" horiz-adv-x="1237" arabic-form="isolated" 
d="M857 234q40 0 66 13l2 1l3 1q4 3 7 5q9 7 16 19q17 31 17 93v7q-1 98 -40 190q-47 113 -119 113q-20 0 -40 -12q-25 -15 -49 -50q-61 -89 -106 -294q-2 -9 -5 -17q158 -69 248 -69zM180 -764q-28 23 -34 60q-16 105 -29 216q-19 152 -30 294q-14 187 -14 344
q0 167 16 300q7 58 61 80q21 8 40 8q32 0 60 -23q68 -56 178 -120q37 160 89 263q61 121 148 175q66 41 143 41h1q186 -1 286 -201q69 -137 71 -297v-9q0 -123 -50 -203q-40 -63 -107 -95q-64 -31 -149 -31q-144 0 -346 90q-121 54 -241 130q-2 -54 -2 -112q0 -194 23 -437
q11 -113 26 -229q6 -45 12 -89q5 -34 10 -65q1 -8 1 -16q0 -32 -19 -58q-24 -33 -65 -39l-15 -1q-36 0 -64 24z" />
    <glyph glyph-name="uni0646" unicode="&#x646;" horiz-adv-x="1604" arabic-form="isolated" 
d="M256 -482q-169 170 -169 414q0 134 52 280t136 251q26 32 66 36q6 1 11 1q34 0 62 -22q32 -26 36 -67q1 -6 1 -11q0 -33 -22 -61q-64 -79 -104 -193q-40 -113 -40 -214v-3q0 -161 111 -271q141 -141 390 -141q314 0 439 174q89 122 90 332v5q0 208 -85 466q-5 16 -5 31
q0 22 11 44q18 37 57 50q16 5 31 5q23 0 45 -11q36 -18 49 -57q36 -108 58 -213q29 -136 35 -257q1 -31 1 -60q0 -275 -126 -451q-185 -256 -600 -256q-331 0 -530 199zM957 650q0 -52 -40 -94q-41 -41 -89 -41q-50 0 -107 40q-40 43 -40 95q0 46 43 90q44 45 93 45
q50 0 94 -41q46 -43 46 -94z" />
    <glyph glyph-name="uni0647" unicode="&#x647;" horiz-adv-x="990" arabic-form="isolated" 
d="M214 94q-120 104 -120 271q0 100 55 208q20 41 49 84q11 17 25 36l12 17l11 15q20 27 27 37q23 34 63 42q11 3 22 3q28 0 52 -17q34 -23 42 -63q2 -11 2 -21q0 -28 -16 -53q-10 -14 -33 -46l-9 -12l-9 -13l-20 -27q-22 -33 -37 -60q-38 -72 -38 -130q0 -82 59 -128
q52 -40 129 -40q35 0 74 10q47 12 82 34q71 46 71 123q0 124 -136 299q-61 79 -134 145q-65 59 -116 88q-36 20 -46 60q-4 14 -4 27q0 25 13 48q20 35 60 46q14 4 27 4q25 0 48 -13q159 -91 308 -283q75 -97 119 -190q59 -124 59 -231q0 -185 -162 -289q-118 -76 -263 -76
q-157 0 -266 95z" />
    <glyph glyph-name="uni0648" unicode="&#x648;" horiz-adv-x="1078" arabic-form="isolated" 
d="M132 -657q-28 22 -35 56q-3 12 -3 23q0 27 16 52q21 34 61 43q242 54 418 234q195 199 195 452q0 141 -73 284q-87 169 -212 169q-35 0 -67 -16q-24 -13 -45 -34q-75 -76 -75 -209v-10q2 -77 63 -128q76 -65 199 -65q40 0 85 7q8 1 16 1q31 0 57 -19q33 -24 39 -65
q1 -8 1 -16q0 -31 -19 -57q-24 -33 -65 -39q-55 -9 -107 -9q-71 0 -137 16q-115 27 -197 95q-129 108 -132 274v16q0 213 131 347q107 109 253 109q114 0 211 -66t165 -189q55 -98 83 -214q24 -98 24 -182q0 -325 -238 -578q-218 -231 -529 -301q-11 -2 -22 -2q-34 0 -61 21
z" />
    <glyph glyph-name="uni0649" unicode="&#x649;" horiz-adv-x="1793" arabic-form="isolated" 
d="M413 -625q-329 167 -344 541q-1 19 -1 38q0 139 45 296q39 136 108 274q19 37 57 50q16 5 31 5q23 0 45 -11q36 -18 49 -57q5 -16 5 -32q0 -22 -10 -43q-133 -267 -133 -484q0 -14 1 -28q11 -258 237 -373q124 -63 275 -63q87 0 182 21q262 58 393 230q17 22 29 41
q9 15 14 27q-21 7 -66 15q-17 2 -38 5l-18 3l-17 2l-30 4l-31 4q-34 5 -62 11q-69 13 -118 35q-157 69 -157 228v8q4 137 69 269q66 133 181 237q116 104 255 157q116 45 227 45q20 0 41 -2q41 -3 67 -35q24 -27 24 -62q0 -5 -1 -10q-3 -40 -34 -67q-28 -23 -64 -23h-8
q-13 1 -26 1q-77 0 -163 -34q-100 -41 -185 -117q-180 -162 -185 -364v-2q0 -31 39 -48q31 -14 85 -24q21 -4 50 -8l51 -7l48 -6l47 -8q51 -9 88 -22q91 -33 121 -105q13 -31 13 -66q0 -38 -16 -80q-21 -55 -73 -123q-176 -230 -507 -302q-108 -24 -217 -24q-209 0 -373 83z
" />
    <glyph glyph-name="uni064A" unicode="&#x64a;" horiz-adv-x="1793" arabic-form="isolated" 
d="M413 -625q-329 167 -344 541q-1 19 -1 38q0 139 45 296q39 136 108 274q19 37 57 50q16 5 31 5q23 0 45 -11q36 -18 49 -57q5 -16 5 -32q0 -22 -10 -43q-133 -267 -133 -484q0 -14 1 -28q11 -258 237 -373q124 -63 275 -63q87 0 182 21q262 58 393 230q17 22 29 41
q9 15 14 27q-21 7 -66 15q-17 2 -38 5l-18 3l-17 2l-30 4l-31 4q-34 5 -62 11q-69 13 -118 35q-157 69 -157 228v8q4 137 69 269q66 133 181 237q116 104 255 157q116 45 227 45q20 0 41 -2q41 -3 67 -35q24 -27 24 -62q0 -5 -1 -10q-3 -40 -34 -67q-28 -23 -64 -23h-8
q-13 1 -26 1q-77 0 -163 -34q-100 -41 -185 -117q-180 -162 -185 -364v-2q0 -31 39 -48q31 -14 85 -24q21 -4 50 -8l51 -7l48 -6l47 -8q51 -9 88 -22q91 -33 121 -105q13 -31 13 -66q0 -38 -16 -80q-21 -55 -73 -123q-176 -230 -507 -302q-108 -24 -217 -24q-209 0 -373 83z
M444 -1053q-18 36 -6 75t47 58q178 93 383 87q70 -2 137 -15q25 -5 47 -11q9 -3 17 -5l12 -4q37 -12 56 -49q18 -36 6 -75t-47 -58t-73 -6h-1l-3 1l-4 1q-5 2 -10 3q-16 4 -33 8q-50 10 -103 12q-161 7 -297 -65q-20 -11 -43 -11q-59 0 -85 54z" />
    <glyph glyph-name="uni066E.init" unicode="&#x66e;" horiz-adv-x="715" 
d="M-74 29q-29 29 -29 70t29 70t70 29q179 0 262 17q116 25 161 98q19 32 19 90q0 45 -11 106q-27 139 -100 292q-10 21 -10 44q0 16 5 32q14 38 50 56q21 10 42 10q17 0 34 -6q39 -13 56 -50q85 -175 116 -339q15 -78 15 -144q0 -117 -48 -195q-85 -140 -272 -184
q-107 -25 -319 -25q-41 0 -70 29z" />
    <glyph glyph-name="uni066E.medi" unicode="&#x66e;" horiz-adv-x="748" 
d="M738 198q41 0 70 -29t29 -70t-29 -70t-70 -29q-82 0 -150 28q-86 35 -145 114l-8 -9q-72 -80 -197 -110q-93 -23 -244 -23q-41 0 -70 29t-29 70t29 70t70 29q233 0 295 67q43 48 43 158q0 33 -4 70q-4 31 -8 69l-2 33l-3 32q-3 43 -5 63q-1 5 -1 11q0 33 23 61
q26 31 67 35q5 1 11 1q34 0 61 -23q32 -26 36 -67q2 -21 5 -65l3 -40l4 -41q5 -47 10 -84q14 -97 39 -157q51 -123 170 -123z" />
    <glyph glyph-name="uni066E.fina" unicode="&#x66e;" horiz-adv-x="2316" 
d="M449 38q-216 88 -297 254q-42 87 -42 187q0 89 33 189q25 76 66 148q35 61 71 103q27 31 68 33h8q36 0 64 -24q31 -26 34 -67v-8q0 -36 -24 -64q-23 -26 -48 -69q-32 -55 -51 -114q-19 -57 -22 -109q-1 -9 -1 -18q0 -57 22 -101q50 -104 209 -163q140 -52 303 -52
q410 0 641 120t348 394q14 34 47 50q21 10 43 10q12 0 25 -3q36 -9 57 -39q18 -25 18 -55q0 -5 -1 -11l-1 -10l-4 -46l-4 -47q-2 -32 -2 -60q0 -19 1 -35q7 -106 55 -159q68 -75 244 -75q41 0 70 -29t29 -70t-29 -70t-70 -29q-264 0 -391 140q-61 68 -87 167
q-105 -118 -248 -194q-277 -147 -741 -147q-213 0 -393 73z" />
    <glyph glyph-name="uni066F.init" unicode="&#x66f;" horiz-adv-x="932" 
d="M427 925q-43 -14 -79 -70q-36 -55 -49 -127q-4 -21 -4 -39q0 -29 9 -50q9 -25 31 -43q47 -38 140 -45q16 -1 31 -1q76 0 150 24q-1 27 -5 55q-23 163 -112 252q-48 47 -90 47q-11 0 -22 -3zM-84 29q-29 29 -29 70t29 70t70 29h67q43 1 79 2q98 5 175 18q213 37 295 142
q-50 -7 -98 -7q-58 0 -112 10q-110 21 -182 80q-112 92 -112 240q0 38 7 79q22 129 93 224q72 96 169 127q28 9 57 12q11 1 23 1q26 0 51 -5q96 -17 180 -100q138 -138 169 -369q7 -55 7 -105q0 -163 -76 -280q-115 -176 -392 -235q-93 -20 -206 -27q-78 -5 -194 -5
q-41 0 -70 29z" />
    <glyph glyph-name="uni066F.medi" unicode="&#x66f;" horiz-adv-x="1001" 
d="M361 633q-35 -64 -36 -133v-8q0 -63 31 -110q46 -70 133 -112q83 42 129 111q34 52 34 125v4q0 77 -35 143q-7 13 -16 25q-11 16 -24 28q-35 34 -75 34q-83 0 -141 -107zM898 1q-75 1 -136 6q-157 12 -272 50q-44 -15 -94 -26q-94 -20 -219 -27q-49 -3 -176 -4
q-41 0 -70 29t-29 70t29 70t70 29l103 1q78 2 139 8q-29 31 -53 67q-62 96 -62 217v15q3 116 59 221q54 99 137 155q84 56 178 56q89 0 164 -50q76 -50 125 -142q59 -110 59 -237v-8q-2 -131 -67 -229q-23 -34 -50 -64q65 -7 148 -9l125 -1q41 0 70 -29t29 -70t-29 -70
t-70 -29z" />
    <glyph glyph-name="uni066F.fina" unicode="&#x66f;" horiz-adv-x="1570" 
d="M975 635q-24 -12 -45 -34q-74 -76 -74 -208v-10q3 -86 59 -126q82 -59 302 -59h107q-14 157 -87 294q-85 160 -194 160q-35 0 -68 -17zM265 -447q-173 173 -173 423q0 294 172 507q26 32 66 36q7 1 13 1q33 0 60 -22q32 -26 36 -67q1 -6 1 -13q0 -32 -22 -59
q-128 -159 -128 -383v-3q0 -166 115 -280q140 -140 382 -140q238 0 379 143q115 116 149 304h-98q-240 0 -369 66q-183 94 -189 312v19q0 209 129 342q108 111 255 111q213 0 352 -234q112 -189 128 -418h49q41 0 70 -29t29 -70t-29 -70t-70 -29h-57q-39 -271 -208 -443
q-200 -202 -520 -202q-324 0 -522 198z" />
    <glyph glyph-name="uni0671" unicode="&#x671;" horiz-adv-x="711" arabic-form="isolated" 
d="M421 -50q-41 3 -67 32q-22 25 -22 56q0 4 1 10q21 177 21 411q0 376 -55 895q-1 5 -1 10q0 31 23 56q26 28 66 31q5 1 11 1q34 0 62 -21q31 -23 35 -60q57 -526 57 -912q0 -244 -23 -431q-4 -34 -32 -57q-28 -22 -66 -22zM470 1676q28 0 51 6q31 7 51 24q17 13 24 33
t1 36q-5 14 -19 21q-13 7 -36 6q-76 -3 -137 -77q-14 -17 -26 -38q46 -12 91 -11zM255 1527q-20 7 -29 26q-9 20 -2 40l13 33q-28 9 -55 12q-29 4 -62 -19q-10 -7 -20 -15q-3 -3 -5 -6l-2 -1v-1q-14 -16 -35 -18q-22 -2 -38 12t-18 35t12 38h1l1 1q1 2 3 3q5 6 10 11
q18 17 38 29q63 41 128 33q41 -5 84 -19q22 38 47 69q90 110 212 115q50 2 88 -19q47 -24 67 -73q18 -47 3 -99q-15 -53 -59 -88q-63 -52 -167 -53q-67 -1 -136 20l-13 -35q-12 -34 -48 -34q-9 0 -18 3z" />
    <glyph glyph-name="uni067E" unicode="&#x67e;" horiz-adv-x="2013" arabic-form="isolated" 
d="M505 37q-225 55 -334 191q-101 126 -101 270q0 16 1 33q13 163 150 317q27 31 68 34h6q37 0 66 -25q30 -27 33 -68v-6q0 -37 -25 -66q-101 -115 -101 -218q0 -12 1 -24q4 -40 25 -77q7 -14 17 -28l8 -10l3 -5l3 -4q79 -99 287 -134q73 -13 160 -17q32 -2 66 -2h51
q326 0 540 57q214 58 265 160q16 31 16 70q0 46 -22 103q-30 80 -101 176q-19 26 -19 57q0 8 1 16q6 41 39 65q26 19 57 19q8 0 16 -1q41 -6 65 -39q162 -220 162 -396q0 -84 -37 -159q-96 -189 -422 -269q-130 -32 -296 -46q-126 -11 -264 -11q-230 0 -384 37zM1039 -595
q10 1 19 1q48 0 83 -35q31 -31 34 -75q1 -6 1 -12q0 -37 -22 -67q-6 -8 -14 -15q-30 -29 -73 -35q-12 -2 -23 -2q-30 0 -57 13q-38 17 -60 54q-20 34 -20 71v7q3 53 48 80q28 17 61 17q12 0 23 -2zM1346 -265q18 -36 6 -75t-48 -58q-177 -93 -383 -87q-69 2 -137 15
q-24 5 -46 11q-9 3 -17 5l-12 4q-38 12 -56 49q-18 36 -6 75t47 58t73 6h1l3 -1l3 -1q6 -2 11 -3q16 -4 33 -8q50 -10 103 -12q160 -7 297 65q20 11 43 11q58 0 85 -54z" />
    <glyph glyph-name="uni0686" unicode="&#x686;" horiz-adv-x="1647" arabic-form="isolated" 
d="M729 -794q-239 5 -434 152q-219 164 -237 408q-2 28 -2 56q0 214 122 387q117 167 341 287q223 120 537 188q-171 75 -285 114q-154 51 -239 51q-151 0 -198 -163q-11 -39 -47 -59q-23 -13 -47 -13q-14 0 -28 4q-39 12 -59 47q-13 23 -13 48q0 14 4 28q43 148 143 227
t245 79q132 0 355 -81q86 -31 196 -78q43 -19 97 -42l47 -21l45 -21q118 -53 167 -73q31 -13 48 -43q13 -22 13 -48q0 -7 -1 -15q-5 -33 -29 -57q-25 -23 -58 -27q-83 -9 -165 -22q-105 -17 -203 -41q-254 -61 -432 -156q-358 -193 -358 -503q0 -19 1 -39q12 -158 163 -269
q142 -104 315 -107h16q148 0 294 52q174 63 271 179q26 31 67 35h8q36 0 64 -23q32 -26 35 -67q1 -5 1 -10q0 -35 -24 -62q-116 -138 -311 -220q-194 -82 -406 -82h-19zM907 -213q10 1 19 1q48 0 83 -35q31 -31 34 -75q1 -6 1 -12q0 -37 -22 -67q-6 -8 -14 -15
q-30 -29 -73 -35q-12 -2 -23 -2q-30 0 -57 13q-38 17 -60 54q-20 34 -20 71v7q3 53 48 80q28 17 61 17q12 0 23 -2zM1214 117q18 -36 6 -75t-48 -58q-177 -93 -383 -87q-69 2 -137 15q-24 5 -46 11q-9 3 -17 5l-12 4q-38 12 -56 49q-18 36 -6 75t47 58t73 6h1l3 -1l3 -1
q6 -2 11 -3q16 -4 33 -8q50 -10 103 -12q160 -7 297 65q20 11 43 11q58 0 85 -54z" />
    <glyph glyph-name="uni0698" unicode="&#x698;" horiz-adv-x="1032" arabic-form="isolated" 
d="M27 -671q-12 23 -12 46q0 15 5 30q12 39 48 58q269 143 390 361q148 266 148 738q0 41 29 70t70 29t70 -29t29 -70q0 -510 -164 -817q-152 -282 -479 -456q-22 -12 -47 -12q-59 0 -87 52zM626 1217q-10 -1 -19 -1q-48 0 -83 35q-31 31 -34 75q-1 6 -1 12q0 37 22 67
q6 8 14 15q30 29 73 35q12 2 23 2q30 0 57 -13q38 -17 60 -54q20 -34 20 -71v-7q-3 -53 -48 -80q-28 -17 -61 -17q-12 0 -23 2zM319 887q-18 36 -6 75t47 58q178 93 383 87q70 -2 137 -15q25 -5 47 -11q9 -3 17 -5l12 -4q37 -12 56 -49q18 -36 6 -75t-47 -58t-73 -6h-1l-3 1
l-4 1q-5 2 -10 3q-16 4 -33 8q-50 10 -103 12q-161 7 -297 -65q-20 -11 -43 -11q-59 0 -85 54z" />
    <glyph glyph-name="uni06A9" unicode="&#x6a9;" horiz-adv-x="2320" arabic-form="isolated" 
d="M137 264q-119 171 -26 424q14 38 51 56q37 17 76 3q38 -15 55 -52t3 -75q-57 -156 3 -243q53 -76 195 -120q188 -59 516 -59h79q51 1 95 3q118 5 208 20q250 42 288 162q42 132 -83 325q-109 169 -296 316q-32 25 -37 66t20 73t66 37t73 -20q226 -178 353 -386
q159 -260 92 -471q-68 -216 -386 -286q-104 -23 -239 -31q-92 -6 -233 -6q-689 0 -873 264zM1130 1225q-26 19 -36 49q-14 39 4 75q18 37 57 51q638 221 986 515q31 27 72 23q41 -3 67 -34q27 -32 23 -72q-3 -41 -34 -68q-236 -200 -517 -338q-197 -97 -533 -213
q-15 -6 -32 -6q-31 0 -57 18z" />
    <glyph glyph-name="uni06AF" unicode="&#x6af;" horiz-adv-x="2320" arabic-form="isolated" 
d="M137 264q-119 171 -26 424q14 38 51 56q37 17 76 3q38 -15 55 -52t3 -75q-57 -156 3 -243q53 -76 195 -120q188 -59 516 -59h79q51 1 95 3q118 5 208 20q250 42 288 162q42 132 -83 325q-109 169 -296 316q-32 25 -37 66t20 73t66 37t73 -20q226 -178 353 -386
q159 -260 92 -471q-68 -216 -386 -286q-104 -23 -239 -31q-92 -6 -233 -6q-689 0 -873 264zM1130 1225q-26 19 -36 49q-14 39 4 75q18 37 57 51q638 221 986 515q31 27 72 23q41 -3 67 -34q27 -32 23 -72q-3 -41 -34 -68q-236 -200 -517 -338q-197 -97 -533 -213
q-15 -6 -32 -6q-31 0 -57 18zM1220 1670q-4 11 -4 22q0 12 5 24q10 22 33 31q249 94 576 292q14 9 30 9q7 0 15 -2q24 -6 36 -27q9 -14 9 -30q0 -7 -2 -15q-6 -24 -27 -36q-336 -204 -594 -302q-11 -4 -22 -4q-40 0 -55 38z" />
    <glyph glyph-name="uni06BA" unicode="&#x6ba;" horiz-adv-x="1604" arabic-form="isolated" 
d="M256 -482q-169 170 -169 414q0 134 52 280t136 251q26 32 66 36q6 1 11 1q34 0 62 -22q32 -26 36 -67q1 -6 1 -11q0 -33 -22 -61q-64 -79 -104 -193q-40 -113 -40 -214v-3q0 -161 111 -271q141 -141 390 -141q314 0 439 174q89 122 90 332v5q0 208 -85 466q-5 16 -5 31
q0 22 11 44q18 37 57 50q16 5 31 5q23 0 45 -11q36 -18 49 -57q36 -108 58 -213q29 -136 35 -257q1 -31 1 -60q0 -275 -126 -451q-185 -256 -600 -256q-331 0 -530 199z" />
    <glyph glyph-name="uni06C0" unicode="&#x6c0;" horiz-adv-x="993" arabic-form="isolated" 
d="M214 94q-120 104 -120 271q0 100 55 208q20 41 49 84q11 17 25 36l12 17l11 15q20 27 27 37q23 34 63 42q11 3 22 3q28 0 52 -17q34 -23 42 -63q2 -11 2 -21q0 -28 -16 -53q-10 -14 -33 -46l-9 -12l-9 -13l-20 -27q-22 -33 -37 -60q-38 -72 -38 -130q0 -82 59 -128
q52 -40 129 -40q35 0 74 10q47 12 82 34q71 46 71 123q0 124 -136 299q-61 79 -134 145q-65 59 -116 88q-36 20 -46 60q-4 14 -4 27q0 25 13 48q20 35 60 46q14 4 27 4q25 0 48 -13q159 -91 308 -283q75 -97 119 -190q59 -124 59 -231q0 -185 -162 -289q-118 -76 -263 -76
q-157 0 -266 95zM271 1156q-20 0 -35 14q-14 14 -16 34q-1 21 13 37t35 18q50 3 111 27q68 28 93 61q8 10 10 18q1 6 0 13q-3 10 -31 18q-11 2 -26 5l-14 2l-13 2l-25 4l-24 5q-26 6 -45 14q-66 31 -64 100q3 100 87 175q52 47 124 73t138 20q21 -1 35 -18q14 -16 12 -37
t-18 -35t-37 -12q-45 3 -97 -15q-52 -19 -89 -52q-21 -19 -34 -41q-17 -29 -18 -60v-2q6 -5 30 -10l21 -4l10 -2l9 -1l24 -4l23 -4q26 -5 45 -13q36 -15 56 -41q16 -20 21 -46q13 -60 -28 -114q-41 -55 -132 -92q-77 -32 -147 -37h-4z" />
    <glyph glyph-name="uni06C1" unicode="&#x6c1;" horiz-adv-x="983" arabic-form="isolated" 
d="M214 94q-120 104 -120 271q0 100 55 208q20 41 49 84q11 17 25 36l12 17l11 15q20 27 27 37q23 34 63 42q11 3 22 3q28 0 52 -17q34 -23 42 -63q2 -11 2 -21q0 -28 -16 -53q-10 -14 -33 -46l-9 -12l-9 -13l-20 -27q-22 -33 -37 -60q-38 -72 -38 -130q0 -82 59 -128
q52 -40 129 -40q35 0 74 10q47 12 82 34q71 46 71 123q0 124 -136 299q-61 79 -134 145q-65 59 -116 88q-36 20 -46 60q-4 14 -4 27q0 25 13 48q20 35 60 46q14 4 27 4q25 0 48 -13q159 -91 308 -283q75 -97 119 -190q59 -124 59 -231q0 -185 -162 -289q-118 -76 -263 -76
q-157 0 -266 95z" />
    <glyph glyph-name="uni06C2.fina" unicode="&#x6c2;" horiz-adv-x="1347" 
d="M235 -3q-27 20 -36 54q-41 165 2 336t153 281q167 165 388 107q120 -32 209 -136q34 -40 69 -98q14 -23 30 -52l27 -51q71 -133 114 -178q60 -63 148 -63q41 0 70 -28q29 -29 29 -70t-29 -70t-70 -29q-167 0 -282 115q-45 44 -87 111q-17 27 -35 60l-16 30l-16 29
q-59 110 -92 153q-54 68 -119 86q-112 29 -199 -57q-73 -72 -102 -193t0 -235q10 -40 -11 -75t-61 -45q-12 -3 -24 -3q-33 0 -60 21zM248 827q-11 18 -5 39q6 20 24 31l157 90q-17 6 -31 15q-48 29 -74 83q-26 53 -21 111q6 54 37 101t80 75q94 53 204 22q20 -6 31 -25
q10 -18 4 -39q-6 -20 -24 -30q-19 -11 -39 -5q-69 20 -125 -13q-59 -33 -65 -96q-7 -65 45 -96q23 -14 55 -16q12 0 25 1q10 1 20 3q27 6 60 20l30 13l30 14q19 9 38 3q20 -7 30 -25q9 -18 4 -38q-6 -20 -24 -31l-396 -226q-12 -7 -25 -7q-30 0 -45 26z" />
    <glyph glyph-name="uni06C3.fina" unicode="&#x6c3;" horiz-adv-x="1347" 
d="M235 -3q-27 20 -36 54q-41 165 2 336t153 281q167 165 388 107q120 -32 209 -136q34 -40 69 -98q14 -23 30 -52l27 -51q71 -133 114 -178q60 -63 148 -63q41 0 70 -28q29 -29 29 -70t-29 -70t-70 -29q-167 0 -282 115q-45 44 -87 111q-17 27 -35 60l-16 30l-16 29
q-59 110 -92 153q-54 68 -119 86q-112 29 -199 -57q-73 -72 -102 -193t0 -235q10 -40 -11 -75t-61 -45q-12 -3 -24 -3q-33 0 -60 21zM234 917q-18 36 -6 75t47 58q178 93 383 87q70 -2 137 -15q25 -5 47 -11q9 -3 17 -5l12 -4q37 -12 56 -49q18 -36 6 -75t-47 -58t-73 -6h-1
l-3 1l-4 1q-5 2 -10 3q-16 4 -33 8q-50 10 -103 12q-161 7 -297 -65q-20 -11 -43 -11q-59 0 -85 54z" />
    <glyph glyph-name="uni06CC" unicode="&#x6cc;" horiz-adv-x="1793" arabic-form="isolated" 
d="M413 -625q-329 167 -344 541q-1 19 -1 38q0 139 45 296q39 136 108 274q19 37 57 50q16 5 31 5q23 0 45 -11q36 -18 49 -57q5 -16 5 -32q0 -22 -10 -43q-133 -267 -133 -484q0 -14 1 -28q11 -258 237 -373q124 -63 275 -63q87 0 182 21q262 58 393 230q17 22 29 41
q9 15 14 27q-21 7 -66 15q-17 2 -38 5l-18 3l-17 2l-30 4l-31 4q-34 5 -62 11q-69 13 -118 35q-157 69 -157 228v8q4 137 69 269q66 133 181 237q116 104 255 157q116 45 227 45q20 0 41 -2q41 -3 67 -35q24 -27 24 -62q0 -5 -1 -10q-3 -40 -34 -67q-28 -23 -64 -23h-8
q-13 1 -26 1q-77 0 -163 -34q-100 -41 -185 -117q-180 -162 -185 -364v-2q0 -31 39 -48q31 -14 85 -24q21 -4 50 -8l51 -7l48 -6l47 -8q51 -9 88 -22q91 -33 121 -105q13 -31 13 -66q0 -38 -16 -80q-21 -55 -73 -123q-176 -230 -507 -302q-108 -24 -217 -24q-209 0 -373 83z
" />
    <glyph glyph-name="uni06D2" unicode="&#x6d2;" horiz-adv-x="1688" arabic-form="isolated" 
d="M1106 -473q-485 0 -669 16q-151 13 -234 42q-83 30 -121 84q-22 31 -28 67q-9 48 10 101q61 172 276 266q214 94 544 94h62q25 1 37 1h30q41 0 70 -29t29 -70t-29 -70t-70 -29h-129q-276 0 -448 -71q-145 -59 -183 -151q9 -5 23 -9q18 -6 42 -11q62 -13 159 -20
q175 -13 629 -13h476q40 0 69 -29t29 -70t-29 -70t-69 -29h-476z" />
    <glyph glyph-name="uni06D3" unicode="&#x6d3;" horiz-adv-x="1688" arabic-form="isolated" 
d="M1106 -473q-485 0 -669 16q-151 13 -234 42q-83 30 -121 84q-22 31 -28 67q-9 48 10 101q61 172 276 266q214 94 544 94h62q25 1 37 1h30q41 0 70 -29t29 -70t-29 -70t-70 -29h-129q-276 0 -448 -71q-145 -59 -183 -151q9 -5 23 -9q18 -6 42 -11q62 -13 159 -20
q175 -13 629 -13h476q40 0 69 -29t29 -70t-29 -70t-69 -29h-476zM107 292q-11 18 -5 39q6 20 24 31l157 90q-17 6 -31 15q-48 29 -74 83q-26 53 -21 111q6 54 37 101t80 75q94 53 204 22q20 -6 31 -25q10 -18 4 -39q-6 -20 -24 -30q-19 -11 -39 -5q-69 20 -125 -13
q-59 -33 -65 -96q-7 -65 45 -96q23 -14 55 -16q12 0 25 1q10 1 20 3q27 6 60 20l30 13l30 14q19 9 38 3q20 -7 30 -25q9 -18 4 -38q-6 -20 -24 -31l-396 -226q-12 -7 -25 -7q-30 0 -45 26z" />
    <glyph glyph-name="uniFB51" unicode="&#x671;" horiz-adv-x="675" arabic-form="final" 
d="M630 0q-29 1 -53 4q-54 6 -104 27q-150 60 -191 233q-18 79 -18 407v191q-1 108 -3 191q-6 171 -24 290q-1 8 -1 16q0 32 19 58q25 33 65 39q8 1 16 1q32 0 58 -19q33 -25 39 -65q19 -130 25 -309q3 -86 3 -197v-256q1 -76 2 -129q2 -133 12 -173q17 -70 68 -93
q30 -18 125 -18q41 0 70 -29t29 -70t-29 -70t-70 -29h-38zM470 1676q28 0 51 6q31 7 51 24q17 13 24 33t1 36q-5 14 -19 21q-13 7 -36 6q-76 -3 -137 -77q-14 -17 -26 -38q46 -12 91 -11zM255 1527q-20 7 -29 26q-9 20 -2 40l13 33q-28 9 -55 12q-29 4 -62 -19
q-10 -7 -20 -15q-3 -3 -5 -6l-2 -1v-1q-14 -16 -35 -18q-22 -2 -38 12t-18 35t12 38h1l1 1q1 2 3 3q5 6 10 11q18 17 38 29q63 41 128 33q41 -5 84 -19q22 38 47 69q90 110 212 115q50 2 88 -19q47 -24 67 -73q18 -47 3 -99q-15 -53 -59 -88q-63 -52 -167 -53
q-67 -1 -136 20l-13 -35q-12 -34 -48 -34q-9 0 -18 3z" />
    <glyph glyph-name="uniFB57" unicode="&#x67e;" horiz-adv-x="2316" arabic-form="final" 
d="M449 38q-216 88 -297 254q-42 87 -42 187q0 89 33 189q25 76 66 148q35 61 71 103q27 31 68 33h8q36 0 64 -24q31 -26 34 -67v-8q0 -36 -24 -64q-23 -26 -48 -69q-32 -55 -51 -114q-19 -57 -22 -109q-1 -9 -1 -18q0 -57 22 -101q50 -104 209 -163q140 -52 303 -52
q410 0 641 120t348 394q14 34 47 50q21 10 43 10q12 0 25 -3q36 -9 57 -39q18 -25 18 -55q0 -5 -1 -11l-1 -10l-4 -46l-4 -47q-2 -32 -2 -60q0 -19 1 -35q7 -106 55 -159q68 -75 244 -75q41 0 70 -29t29 -70t-29 -70t-70 -29q-264 0 -391 140q-61 68 -87 167
q-105 -118 -248 -194q-277 -147 -741 -147q-213 0 -393 73zM1048 -595q10 1 19 1q48 0 83 -35q31 -31 34 -75q1 -6 1 -12q0 -37 -22 -67q-6 -8 -14 -15q-30 -29 -73 -35q-12 -2 -23 -2q-30 0 -57 13q-38 17 -60 54q-20 34 -20 71v7q3 53 48 80q28 17 61 17q12 0 23 -2z
M1355 -265q18 -36 6 -75t-48 -58q-177 -93 -383 -87q-69 2 -137 15q-24 5 -46 11q-9 3 -17 5l-12 4q-38 12 -56 49q-18 36 -6 75t47 58t73 6h1l3 -1l3 -1q6 -2 11 -3q16 -4 33 -8q50 -10 103 -12q160 -7 297 65q20 11 43 11q58 0 85 -54z" />
    <glyph glyph-name="uniFB58" unicode="&#x67e;" horiz-adv-x="843" arabic-form="initial" 
d="M-75 29q-29 29 -29 70t29 70t70 29q230 0 313 17q146 25 191 98q19 32 19 90q0 45 -11 106q-27 139 -100 292q-10 21 -10 44q0 16 5 32q14 38 50 56q21 10 42 10q17 0 34 -6q39 -13 56 -50q85 -175 116 -339q15 -78 15 -144q0 -117 -48 -195q-85 -140 -302 -184
q-107 -25 -370 -25q-41 0 -70 29zM426 -595q10 1 19 1q48 0 83 -35q31 -31 34 -75q1 -6 1 -12q0 -37 -22 -67q-6 -8 -14 -15q-30 -29 -73 -35q-12 -2 -23 -2q-30 0 -57 13q-38 17 -60 54q-20 34 -20 71v7q3 53 48 80q28 17 61 17q12 0 23 -2zM733 -265q18 -36 6 -75t-48 -58
q-177 -93 -383 -87q-69 2 -137 15q-24 5 -46 11q-9 3 -17 5l-12 4q-38 12 -56 49q-18 36 -6 75t47 58t73 6h1l3 -1l3 -1q6 -2 11 -3q16 -4 33 -8q50 -10 103 -12q160 -7 297 65q20 11 43 11q58 0 85 -54z" />
    <glyph glyph-name="uniFB59" unicode="&#x67e;" horiz-adv-x="852" arabic-form="medial" 
d="M849 198q41 0 70 -29t29 -70t-29 -70t-70 -29q-82 0 -150 28q-86 35 -145 114l-8 -9q-72 -80 -197 -110q-93 -23 -354 -23q-41 0 -70 29t-29 70t29 70t70 29q343 0 405 67q43 48 43 158q0 33 -4 70q-4 31 -8 69l-2 33l-3 32q-3 43 -5 63q-1 5 -1 11q0 33 23 61
q26 31 67 35q5 1 11 1q34 0 61 -23q32 -26 36 -67q2 -21 5 -65l3 -40l4 -41q5 -47 10 -84q14 -97 39 -157q51 -123 170 -123zM426 -595q10 1 19 1q48 0 83 -35q31 -31 34 -75q1 -6 1 -12q0 -37 -22 -67q-6 -8 -14 -15q-30 -29 -73 -35q-12 -2 -23 -2q-30 0 -57 13
q-38 17 -60 54q-20 34 -20 71v7q3 53 48 80q28 17 61 17q12 0 23 -2zM733 -265q18 -36 6 -75t-48 -58q-177 -93 -383 -87q-69 2 -137 15q-24 5 -46 11q-9 3 -17 5l-12 4q-38 12 -56 49q-18 36 -6 75t47 58t73 6h1l3 -1l3 -1q6 -2 11 -3q16 -4 33 -8q50 -10 103 -12
q160 -7 297 65q20 11 43 11q58 0 85 -54z" />
    <glyph glyph-name="uniFB7B" unicode="&#x686;" horiz-adv-x="1702" arabic-form="final" 
d="M1694 198q41 0 70 -29t29 -70t-29 -70t-70 -29q-275 0 -417 135q-128 120 -153 346q-267 -62 -452 -161q-358 -193 -358 -503q0 -19 1 -39q12 -158 163 -269q142 -104 315 -107h16q148 0 294 52q174 63 271 179q26 31 67 35h8q36 0 64 -23q32 -26 35 -67q1 -5 1 -10
q0 -35 -24 -62q-116 -138 -311 -220q-194 -82 -406 -82h-19q-239 5 -434 152q-219 164 -237 408q-2 28 -2 56q0 214 122 387q117 167 341 287q223 120 537 188q-171 75 -285 114q-154 51 -239 51q-151 0 -198 -163q-11 -39 -46 -59q-23 -13 -48 -13q-14 0 -28 4
q-39 12 -59 47q-13 23 -13 48q0 14 4 28q43 148 143 227t245 79q132 0 355 -81q86 -31 196 -78q43 -19 97 -42l47 -21l45 -21q119 -53 167 -73q31 -13 48 -43q13 -22 13 -48q0 -7 -1 -15q-5 -33 -29 -57q-25 -23 -58 -27q-77 -8 -153 -20q16 -186 116 -260q83 -61 259 -61z
M911 -263q10 1 19 1q48 0 83 -35q31 -31 34 -75q1 -6 1 -12q0 -37 -22 -67q-6 -8 -14 -15q-30 -29 -73 -35q-12 -2 -23 -2q-30 0 -57 13q-38 17 -60 54q-20 34 -20 71v7q3 53 48 80q28 17 61 17q12 0 23 -2zM1218 67q18 -36 6 -75t-48 -58q-177 -93 -383 -87q-69 2 -137 15
q-24 5 -46 11q-9 3 -17 5l-12 4q-38 12 -56 49q-18 36 -6 75t47 58t73 6h1l3 -1l3 -1q6 -2 11 -3q16 -4 33 -8q50 -10 103 -12q160 -7 297 65q20 11 43 11q58 0 85 -54z" />
    <glyph glyph-name="uniFB7C" unicode="&#x686;" horiz-adv-x="1619" arabic-form="initial" 
d="M-64 29q-29 29 -29 70t29 70t70 29q331 0 653 84q380 99 618 289q-195 56 -339 91q-183 45 -291 57q-38 4 -63 4q-10 -1 -18 -1q-6 -1 -10 -2q-87 -18 -118 -58q-28 -35 -58 -154q-10 -40 -45 -61q-24 -14 -50 -14q-12 0 -25 3q-40 10 -61 45q-14 24 -14 50q0 12 3 25
q40 158 93 227q75 96 234 131q25 5 61 5q223 0 883 -196q28 -8 39 -12q52 -15 67 -68q4 -15 4 -30q0 -34 -25 -63q-258 -285 -735 -431q-388 -119 -803 -119q-41 0 -70 29zM850 -595q10 1 19 1q48 0 83 -35q31 -31 34 -75q1 -6 1 -12q0 -37 -22 -67q-6 -8 -14 -15
q-30 -29 -73 -35q-12 -2 -23 -2q-30 0 -57 13q-38 17 -60 54q-20 34 -20 71v7q3 53 48 80q28 17 61 17q12 0 23 -2zM1157 -265q18 -36 6 -75t-48 -58q-177 -93 -383 -87q-69 2 -137 15q-24 5 -46 11q-9 3 -17 5l-12 4q-38 12 -56 49q-18 36 -6 75t47 58t73 6h1l3 -1l3 -1
q6 -2 11 -3q16 -4 33 -8q50 -10 103 -12q160 -7 297 65q20 11 43 11q58 0 85 -54z" />
    <glyph glyph-name="uniFB7D" unicode="&#x686;" horiz-adv-x="1701" arabic-form="medial" 
d="M1708 199q40 0 69 -29t29 -70t-29 -70t-69 -29q-208 0 -358 66q-149 66 -227 190q-149 -74 -322 -129q-402 -128 -802 -128q-41 0 -70 29t-29 70t29 70t70 29q317 0 649 91q372 102 615 284q-190 55 -332 89q-183 45 -291 57q-38 4 -63 4q-10 -1 -18 -1q-6 -1 -10 -2
q-87 -18 -118 -58q-28 -35 -58 -154q-10 -40 -45 -61q-24 -14 -50 -14q-12 0 -25 3q-40 10 -61 45q-14 24 -14 50q0 12 3 25q40 158 93 227q75 96 234 131q25 5 61 5q223 0 883 -196q28 -8 39 -12q54 -16 68 -69q4 -14 4 -28q0 -37 -29 -66q-101 -104 -239 -193
q59 -87 184 -126q97 -30 229 -30zM782 -593q10 1 19 1q48 0 83 -35q31 -31 34 -75q1 -6 1 -12q0 -37 -22 -67q-6 -8 -14 -15q-30 -29 -73 -35q-12 -2 -23 -2q-30 0 -57 13q-38 17 -60 54q-20 34 -20 71v7q3 53 48 80q28 17 61 17q12 0 23 -2zM1089 -263q18 -36 6 -75
t-48 -58q-177 -93 -383 -87q-69 2 -137 15q-24 5 -46 11q-9 3 -17 5l-12 4q-38 12 -56 49q-18 36 -6 75t47 58t73 6h1l3 -1l3 -1q6 -2 11 -3q16 -4 33 -8q50 -10 103 -12q160 -7 297 65q20 11 43 11q58 0 85 -54z" />
    <glyph glyph-name="uniFB8B" unicode="&#x698;" horiz-adv-x="985" arabic-form="final" 
d="M21 -691q-17 25 -17 54q0 10 2 20q8 41 42 63q7 5 24 16l15 10l17 10q19 13 36 25q44 31 83 64q104 88 177 196q177 262 177 632q0 64 -5 131q-1 5 -1 10q0 34 24 61q26 31 67 35h8q35 0 64 -23q31 -26 35 -67q20 -225 97 -305q28 -28 64 -38q13 -3 28 -5h24q40 0 69 -29
t29 -70t-29 -70t-69 -29q-142 0 -238 85q-50 -239 -179 -430q-88 -128 -210 -232q-45 -38 -97 -75q-20 -14 -42 -28l-19 -13l-17 -11q-16 -10 -22 -14q-25 -17 -55 -17q-53 0 -82 44zM584 1227q-10 -1 -19 -1q-48 0 -83 35q-31 31 -34 75q-1 6 -1 12q0 37 22 67q6 8 14 15
q30 29 73 35q12 2 23 2q30 0 57 -13q38 -17 60 -54q20 -34 20 -71v-7q-3 -53 -48 -80q-28 -17 -61 -17q-12 0 -23 2zM277 897q-18 36 -6 75t47 58q178 93 383 87q70 -2 137 -15q25 -5 47 -11q9 -3 17 -5l12 -4q37 -12 56 -49q18 -36 6 -75t-47 -58t-73 -6h-1l-3 1l-4 1
q-5 2 -10 3q-16 4 -33 8q-50 10 -103 12q-161 7 -297 -65q-20 -11 -43 -11q-59 0 -85 54z" />
    <glyph glyph-name="uniFB8F" unicode="&#x6a9;" horiz-adv-x="2274" arabic-form="final" 
d="M1208 1214q-31 0 -57 18t-36 49q-14 38 4 75t57 50q608 211 1033 571q31 27 72 23q41 -3 67 -34q27 -32 23 -72q-3 -41 -34 -68q-453 -383 -1097 -606q-16 -6 -32 -6zM2273 198q41 0 70 -29t29 -70t-29 -70t-70 -29q-277 0 -521 307q-8 -17 -19 -32q-104 -158 -367 -225
q-96 -25 -209 -36q-82 -7 -165 -7q-689 0 -873 263q-119 172 -26 425q14 38 51 55t76 3q38 -14 55 -51t3 -76q-57 -156 3 -243q53 -75 195 -120q188 -59 516 -59q210 0 366 49q156 48 210 131q53 79 1 203q-48 86 -103 197q-22 43 -48 97l-23 49l-23 47q-40 84 -59 122
q-18 37 -5 76q14 39 51 57q36 18 75 4q39 -13 57 -50q19 -40 59 -124l17 -35l17 -35q19 -40 35 -72q40 -82 74 -147q88 -167 167 -280q209 -295 413 -295z" />
    <glyph glyph-name="uniFB90" unicode="&#x6a9;" horiz-adv-x="1147" arabic-form="initial" 
d="M0 0q-41 0 -70 29t-29 70t29 70t70 29q257 0 374 30q166 44 225 170q34 72 -12 178q-18 40 -47 85q-23 34 -51 69q-75 91 -180 176q-91 75 -168 116q-36 19 -48 58t7 75t58 48t76 -7q93 -49 199 -135q121 -99 209 -206q138 -170 164 -324q19 -117 -28 -216
q-98 -211 -355 -278q-94 -24 -218 -32q-48 -3 -106 -4l-51 -1h-48zM-40 1229q-26 18 -37 48q-13 39 5 76q17 36 56 50q639 221 986 515q31 27 72 23q41 -3 68 -34q26 -31 23 -72q-4 -41 -35 -67q-236 -200 -517 -339q-197 -97 -532 -213q-16 -5 -32 -5q-32 0 -57 18z" />
    <glyph glyph-name="uniFB91" unicode="&#x6a9;" horiz-adv-x="1196" arabic-form="medial" 
d="M1196 200q37 -2 66 -31t29 -70t-29 -70t-70 -29q-268 -6 -494 267q-12 -28 -29 -53q-73 -111 -232 -165q-147 -49 -437 -49q-44 0 -73 29t-29 70q0 40 29 69t72 30q423 -1 505 125q58 86 -18 262l-4 12q-62 114 -185 364l-53 109q-19 37 -5 76q13 38 49 57q37 18 76 5
q39 -14 57 -50l54 -110q213 -434 328 -593q190 -263 393 -255zM130 1207q-31 0 -57 18t-36 49q-14 38 4 75t57 50q608 211 1033 571q31 27 72 23q41 -3 68 -34q26 -32 23 -72q-4 -41 -35 -68q-453 -383 -1097 -606q-15 -6 -32 -6z" />
    <glyph glyph-name="uniFB93" unicode="&#x6af;" horiz-adv-x="2274" arabic-form="final" 
d="M1208 1214q-31 0 -57 18t-36 49q-14 38 4 75t57 50q608 211 1033 571q31 27 72 23q41 -3 67 -34q27 -32 23 -72q-3 -41 -34 -68q-453 -383 -1097 -606q-16 -6 -32 -6zM2273 198q41 0 70 -29t29 -70t-29 -70t-70 -29q-277 0 -521 307q-8 -17 -19 -32q-104 -158 -367 -225
q-96 -25 -209 -36q-82 -7 -165 -7q-689 0 -873 263q-119 172 -26 425q14 38 51 55t76 3q38 -14 55 -51t3 -76q-57 -156 3 -243q53 -75 195 -120q188 -59 516 -59q210 0 366 49q156 48 210 131q53 79 1 203q-48 86 -103 197q-22 43 -48 97l-23 49l-23 47q-40 84 -59 122
q-18 37 -5 76q14 39 51 57q36 18 75 4q39 -13 57 -50q19 -40 59 -124l17 -35l17 -35q19 -40 35 -72q40 -82 74 -147q88 -167 167 -280q209 -295 413 -295zM1228 1691q-4 11 -4 22q0 12 5 24q10 22 33 31q249 94 576 292q14 9 30 9q7 0 15 -2q24 -6 36 -27q9 -14 9 -30
q0 -7 -2 -15q-6 -24 -27 -36q-336 -204 -594 -302q-11 -4 -22 -4q-40 0 -55 38z" />
    <glyph glyph-name="uniFB94" unicode="&#x6af;" horiz-adv-x="1147" arabic-form="initial" 
d="M0 0q-41 0 -70 29t-29 70t29 70t70 29q257 0 374 30q166 44 225 170q34 72 -12 178q-18 40 -47 85q-23 34 -51 69q-75 91 -180 176q-91 75 -168 116q-36 19 -48 58t7 75t58 48t76 -7q93 -49 199 -135q121 -99 209 -206q138 -170 164 -324q19 -117 -28 -216
q-98 -211 -355 -278q-94 -24 -218 -32q-48 -3 -106 -4l-51 -1h-48zM-40 1229q-26 18 -37 48q-13 39 5 76q17 36 56 50q639 221 986 515q31 27 72 23q41 -3 68 -34q26 -31 23 -72q-4 -41 -35 -67q-236 -200 -517 -339q-197 -97 -532 -213q-16 -5 -32 -5q-32 0 -57 18z
M40 1667q-4 11 -4 22q0 12 5 24q10 22 33 31q249 94 576 292q14 9 30 9q7 0 15 -2q24 -6 36 -27q9 -14 9 -30q0 -7 -2 -15q-6 -24 -27 -36q-336 -204 -594 -302q-11 -4 -22 -4q-40 0 -55 38z" />
    <glyph glyph-name="uniFB95" unicode="&#x6af;" horiz-adv-x="1196" arabic-form="medial" 
d="M1196 200q37 -2 66 -31t29 -70t-29 -70t-70 -29q-268 -6 -494 267q-12 -28 -29 -53q-73 -111 -232 -165q-147 -49 -437 -49q-44 0 -73 29t-29 70q0 40 29 69t72 30q423 -1 505 125q58 86 -18 262l-4 12q-62 114 -185 364l-53 109q-19 37 -5 76q13 38 49 57q37 18 76 5
q39 -14 57 -50l54 -110q213 -434 328 -593q190 -263 393 -255zM130 1207q-31 0 -57 18t-36 49q-14 38 4 75t57 50q608 211 1033 571q31 27 72 23q41 -3 68 -34q26 -32 23 -72q-4 -41 -35 -68q-453 -383 -1097 -606q-15 -6 -32 -6zM186 1681q-4 11 -4 22q0 12 5 24
q10 22 33 31q249 94 576 292q14 9 30 9q7 0 15 -2q24 -6 36 -27q9 -14 9 -30q0 -7 -2 -15q-6 -24 -27 -36q-336 -204 -594 -302q-11 -4 -22 -4q-40 0 -55 38z" />
    <glyph glyph-name="uniFB9F" unicode="&#x6ba;" horiz-adv-x="1728" arabic-form="final" 
d="M1729 198q41 0 70 -29t29 -70t-29 -70t-70 -29q-161 0 -267 72v-7q1 -23 1 -45q0 -258 -118 -431q-89 -132 -240 -202q-155 -71 -369 -71q-331 0 -530 199q-169 170 -169 414q0 134 52 280t136 251q26 32 66 36q6 1 11 1q34 0 62 -22q32 -26 36 -67q1 -6 1 -11
q0 -33 -22 -61q-64 -79 -104 -193q-40 -113 -40 -214v-3q0 -161 111 -271q141 -141 390 -141q320 0 446 186q84 123 84 322q0 17 -1 35q-8 212 -102 448q-7 19 -7 38q0 14 4 29q20 64 89 67h8q62 0 88 -57q113 -251 205 -329q64 -55 179 -55z" />
    <glyph glyph-name="uniFBA5" unicode="&#x6c0;" horiz-adv-x="1157" arabic-form="final" 
d="M722 236q-37 79 -59 191q-9 44 -17 99l-6 49l-6 48q-13 105 -21 146q-6 28 -13 45q-147 -69 -270 -228q-62 -80 -87 -150q-22 -59 -14 -96q9 -44 80 -64q27 -7 63 -11q28 -3 59 -3q41 -1 70 -30q28 -30 28 -70q-1 -41 -30 -70q-29 -28 -69 -28h-1q-164 2 -262 58
q-108 62 -132 177q-22 104 32 230q21 49 53 100q24 39 54 78q156 201 349 290q54 24 103 21q38 -2 70 -20q66 -37 96 -134q19 -61 38 -217q30 -249 78 -341q56 -108 180 -108q41 0 70 -29t29 -70t-29 -70t-70 -29q-255 0 -366 236zM425 1128q-20 0 -35 14q-14 14 -16 34
q-1 21 13 37t35 18q50 3 111 27q68 28 93 61q8 10 10 18q1 6 0 13q-3 10 -31 18q-11 2 -26 5l-14 2l-13 2l-25 4l-24 5q-26 6 -45 14q-66 31 -64 100q3 100 87 175q52 47 124 73t138 20q21 -1 35 -18q14 -16 12 -37t-18 -35t-37 -12q-45 3 -97 -15q-52 -19 -89 -52
q-21 -19 -34 -41q-17 -29 -18 -60v-2q6 -5 30 -10l21 -4l10 -2l9 -1l24 -4l23 -4q26 -5 45 -13q36 -15 56 -41q16 -20 21 -46q13 -60 -28 -114q-41 -55 -132 -92q-77 -32 -147 -37h-4z" />
    <glyph glyph-name="uniFBA7" unicode="&#x6c1;" horiz-adv-x="1347" arabic-form="final" 
d="M235 -3q-27 20 -36 54q-41 165 2 336t153 281q167 165 388 107q120 -32 209 -136q34 -40 69 -98q14 -23 30 -52l27 -51q71 -133 114 -178q60 -63 148 -63q41 0 70 -28q29 -29 29 -70t-29 -70t-70 -29q-167 0 -282 115q-45 44 -87 111q-17 27 -35 60l-16 30l-16 29
q-59 110 -92 153q-54 68 -119 86q-112 29 -199 -57q-73 -72 -102 -193t0 -235q10 -40 -11 -75t-61 -45q-12 -3 -24 -3q-33 0 -60 21z" />
    <glyph glyph-name="uniFBAC" unicode="&#x6be;" horiz-adv-x="1522" arabic-form="initial" 
d="M470 697q-80 -72 -95 -165q-3 -19 -3 -38q0 -72 45 -135q43 -60 125 -107q161 52 207 159q34 79 34 146q0 51 -20 95q-36 79 -117 96q-18 4 -37 4q-77 0 -139 -55zM909 159q76 0 143 17q181 45 200 184q2 14 2 27q0 78 -58 157q-68 93 -210 183q-28 17 -57 34l14 -28
q38 -84 38 -177q0 -106 -50 -222q-42 -98 -129 -167q55 -8 107 -8zM636 1q-60 17 -115 41q-114 -26 -266 -36q-104 -6 -266 -6q-41 0 -70 29t-29 70t29 70q29 28 70 28q182 0 297 10q-16 18 -30 37q-82 116 -82 248q0 33 5 66q24 166 160 286q79 71 181 95q-34 12 -68 22
q-26 8 -52 15q-39 11 -59 47q-13 23 -13 48q0 13 4 27q11 40 47 60q22 13 46 13q14 0 29 -5q55 -15 114 -34q81 -27 158 -57q211 -83 366 -181q173 -110 264 -234q96 -131 96 -270q0 -28 -4 -56q-18 -130 -109 -222q-91 -91 -239 -128q-89 -22 -192 -22q-138 0 -272 39z" />
    <glyph glyph-name="uniFBAD" unicode="&#x6be;" horiz-adv-x="1056" arabic-form="medial" 
d="M500 690q-94 -53 -151 -204q-50 -134 -50 -278q60 8 108 21q174 49 214 192q10 37 10 79q0 37 -8 78q-18 87 -57 118l-3 3l-5 3q-6 2 -14 2q-18 0 -44 -14zM648 -604q-176 65 -337 272q-125 160 -178 332h-152q-41 1 -70 30t-29 69q0 41 29 70t70 29h121v19q0 139 42 279
q80 267 260 366q72 40 143 40h7q74 -3 135 -51q94 -74 126 -228q14 -64 14 -124q0 -68 -18 -130q-69 -251 -351 -330q-56 -16 -123 -25q45 -116 130 -225q35 -44 73 -82q8 125 76 236q72 120 189 188q117 67 251 67q41 0 70 -29t29 -70q0 -40 -29 -69t-70 -30h-4
q-80 0 -150 -42q-72 -42 -117 -117q-44 -73 -48 -154v-16q0 -73 33 -136q13 -25 13 -48q0 -33 -26 -63q-30 -34 -75 -34q-17 0 -34 6z" />
    <glyph glyph-name="uniFBAF" unicode="&#x6d2;" horiz-adv-x="1240" arabic-form="final" 
d="M414 -457q-151 13 -234 42q-83 30 -121 84q-22 31 -29 67q-8 48 11 101q61 172 275 266q215 94 545 94h183l33 1h160q41 0 70 -29t29 -70t-29 -70t-70 -29h-376q-277 0 -448 -71q-145 -59 -183 -151q9 -5 23 -9q18 -6 42 -11q61 -13 158 -20q175 -13 630 -13q40 0 69 -29
t29 -70t-29 -70t-69 -29q-485 0 -669 16z" />
    <glyph glyph-name="uniFBB1" unicode="&#x6d3;" horiz-adv-x="1240" arabic-form="final" 
d="M414 -457q-151 13 -234 42q-83 30 -121 84q-22 31 -29 67q-8 48 11 101q61 172 275 266q215 94 545 94h183l33 1h160q41 0 70 -29t29 -70t-29 -70t-70 -29h-376q-277 0 -448 -71q-145 -59 -183 -151q9 -5 23 -9q18 -6 42 -11q61 -13 158 -20q175 -13 630 -13q40 0 69 -29
t29 -70t-29 -70t-69 -29q-485 0 -669 16zM174 268q-11 18 -5 39q6 20 24 31l157 90q-17 6 -31 15q-48 29 -74 83q-26 53 -21 111q6 54 37 101t80 75q94 53 204 22q20 -6 31 -25q10 -18 4 -39q-6 -20 -24 -30q-19 -11 -39 -5q-69 20 -125 -13q-59 -33 -65 -96q-7 -65 45 -96
q23 -14 55 -16q12 0 25 1q10 1 20 3q27 6 60 20l30 13l30 14q19 9 38 3q20 -7 30 -25q9 -18 4 -38q-6 -20 -24 -31l-396 -226q-12 -7 -25 -7q-30 0 -45 26z" />
    <glyph glyph-name="uniFBE8" unicode="&#x649;" horiz-adv-x="723" arabic-form="initial" 
d="M-74 29q-29 29 -29 70t29 70t70 29q179 0 262 17q116 25 161 98q19 32 19 90q0 45 -11 106q-27 139 -100 292q-10 21 -10 44q0 16 5 32q14 38 50 56q21 10 42 10q17 0 34 -6q39 -13 56 -50q85 -175 116 -339q15 -78 15 -144q0 -117 -48 -195q-85 -140 -272 -184
q-107 -25 -319 -25q-41 0 -70 29z" />
    <glyph glyph-name="uniFBE9" unicode="&#x649;" horiz-adv-x="748" arabic-form="medial" 
d="M738 198q41 0 70 -29t29 -70t-29 -70t-70 -29q-82 0 -150 28q-86 35 -145 114l-8 -9q-72 -80 -197 -110q-93 -23 -244 -23q-41 0 -70 29t-29 70t29 70t70 29q233 0 295 67q43 48 43 158q0 33 -4 70q-4 31 -8 69l-2 33l-3 32q-3 43 -5 63q-1 5 -1 11q0 33 23 61
q26 31 67 35q5 1 11 1q34 0 61 -23q32 -26 36 -67q2 -21 5 -65l3 -40l4 -41q5 -47 10 -84q14 -97 39 -157q51 -123 170 -123z" />
    <glyph glyph-name="uniFBFD" unicode="&#x6cc;" horiz-adv-x="1715" arabic-form="final" 
d="M501 -613q-176 57 -281 167q-143 148 -143 370q0 15 1 30q4 101 39 249q14 59 34 132l19 65l18 64q17 58 25 87q11 39 47 59q23 13 48 13q13 0 27 -4q40 -11 60 -47q13 -23 13 -48q0 -13 -4 -27q-8 -28 -26 -88l-8 -29l-9 -29l-17 -59q-19 -69 -32 -122
q-33 -139 -37 -224v-19q0 -145 87 -236q76 -79 212 -120q114 -34 233 -34q233 0 416 88q70 34 111 74q42 40 42 73q0 3 -2 7q-2 5 -7 11q-12 16 -35 34q-29 22 -77 51l-44 25l-46 25l-45 24l-45 26q-50 29 -84 54q-37 27 -57 48q-31 35 -34 75q-1 6 -1 12q0 9 2 18
q2 10 6 20q5 10 11 19q8 12 19 22q28 24 72 28q10 1 22 1q19 0 43 -2q41 -4 160 -23l26 -4l26 -4q30 -5 56 -8q65 -10 120 -17q144 -17 254 -17q41 0 70 -29q29 -28 29 -69t-29 -70t-70 -29q-172 -13 -438 64q153 -69 176 -85l6 -4l7 -6q10 -8 18 -16q23 -21 40 -44
q49 -64 49 -137q0 -95 -69 -179q-68 -84 -196 -146q-224 -108 -502 -108q-157 0 -306 48z" />
    <glyph glyph-name="uniFBFE" unicode="&#x6cc;" horiz-adv-x="843" arabic-form="initial" 
d="M-75 29q-29 29 -29 70t29 70t70 29q230 0 313 17q146 25 191 98q19 32 19 90q0 45 -11 106q-27 139 -100 292q-10 21 -10 44q0 16 5 32q14 38 50 56q21 10 42 10q17 0 34 -6q39 -13 56 -50q85 -175 116 -339q15 -78 15 -144q0 -117 -48 -195q-85 -140 -302 -184
q-107 -25 -370 -25q-41 0 -70 29zM11 -397q-18 36 -6 75t47 58q178 93 383 87q70 -2 137 -15q25 -5 47 -11q9 -3 17 -5l12 -4q37 -12 56 -49q18 -36 6 -75t-47 -58t-73 -6h-1l-3 1l-4 1q-5 2 -10 3q-16 4 -33 8q-50 10 -103 12q-161 7 -297 -65q-20 -11 -43 -11
q-59 0 -85 54z" />
    <glyph glyph-name="uniFBFF" unicode="&#x6cc;" horiz-adv-x="852" arabic-form="medial" 
d="M849 198q41 0 70 -29t29 -70t-29 -70t-70 -29q-82 0 -150 28q-86 35 -145 114l-8 -9q-72 -80 -197 -110q-93 -23 -354 -23q-41 0 -70 29t-29 70t29 70t70 29q343 0 405 67q43 48 43 158q0 33 -4 70q-4 31 -8 69l-2 33l-3 32q-3 43 -5 63q-1 5 -1 11q0 33 23 61
q26 31 67 35q5 1 11 1q34 0 61 -23q32 -26 36 -67q2 -21 5 -65l3 -40l4 -41q5 -47 10 -84q14 -97 39 -157q51 -123 170 -123zM11 -397q-18 36 -6 75t47 58q178 93 383 87q70 -2 137 -15q25 -5 47 -11q9 -3 17 -5l12 -4q37 -12 56 -49q18 -36 6 -75t-47 -58t-73 -6h-1l-3 1
l-4 1q-5 2 -10 3q-16 4 -33 8q-50 10 -103 12q-161 7 -297 -65q-20 -11 -43 -11q-59 0 -85 54z" />
    <glyph glyph-name="uniFC5E" unicode="&#xfc5e;" arabic-form="isolated" 
d="M292 1908q8 -55 -9 -104q-16 -50 -54 -81q-45 -38 -106 -38q-31 0 -58 11q-33 13 -59 39q-20 -24 -45 -40q-43 -27 -92 -27q-38 0 -70 16q-75 39 -87 130q-9 67 26 139q9 19 29 26t39 -2q20 -9 27 -29t-3 -40q-9 -18 -13 -36q-6 -24 -3 -44q5 -38 32 -52q28 -14 60 6
t46 65q13 38 11 98q-1 21 13 37q15 15 36 16q22 1 37 -14q16 -14 16 -36q2 -55 -6 -97l3 -10q5 -36 39 -49q35 -13 63 10q36 30 27 91q-7 47 -52 119q-11 18 -6 38q5 21 23 32q18 12 38 7q21 -5 32 -23q57 -90 66 -158zM98 2507q-16 -13 -25 -32q-10 -22 -6 -46
q13 -71 120 -107q52 85 37 148q-8 34 -43 49q-15 7 -31 7q-28 0 -52 -19zM-165 2042q-20 23 -10 51l5 16l7 16q36 96 17 127q-9 15 -19 21q-4 2 -7 3h-5q-35 4 -79 -44q-14 -16 -36 -17q-21 -1 -36 14q-16 14 -17 35q-1 22 14 37q78 86 164 78q28 -3 53 -17q32 -19 55 -55
q39 -63 14 -153q93 34 159 87l-12 5q-116 57 -136 164q-9 50 9 98q19 47 60 80q88 69 188 25q81 -36 101 -119q21 -88 -33 -196l10 -1q21 -3 33 -20q13 -17 10 -38t-20 -34t-38 -10q-31 5 -59 10q-72 -77 -187 -128q-43 -19 -89 -33q-34 -11 -67 -18l-11 -1q-23 0 -38 17z
" />
    <glyph glyph-name="uniFC5F" unicode="&#xfc5f;" arabic-form="isolated" 
d="M292 1908q8 -55 -9 -104q-16 -50 -54 -81q-45 -38 -106 -38q-31 0 -58 11q-33 13 -59 39q-20 -24 -45 -40q-43 -27 -92 -27q-38 0 -70 16q-75 39 -87 130q-9 67 26 139q9 19 29 26t39 -2q20 -9 27 -29t-3 -40q-9 -18 -13 -36q-6 -24 -3 -44q5 -38 32 -52q28 -14 60 6
t46 65q13 38 11 98q-1 21 13 37q15 15 36 16q22 1 37 -14q16 -14 16 -36q2 -55 -6 -97l3 -10q5 -36 39 -49q35 -13 63 10q36 30 27 91q-7 47 -52 119q-11 18 -6 38q5 21 23 32q18 12 38 7q21 -5 32 -23q57 -90 66 -158zM-258 1174q-7 20 2 39q9 20 29 27l433 153q20 8 39 -2
q19 -9 26 -29q8 -20 -2 -39q-9 -19 -29 -26l-432 -154q-9 -3 -17 -3q-37 0 -49 34zM-258 1430q-7 20 2 40q9 19 29 26l433 154q20 7 39 -2q19 -10 26 -30q8 -20 -2 -39q-9 -19 -29 -26l-432 -154q-9 -3 -17 -3q-37 0 -49 34z" />
    <glyph glyph-name="uniFC60" unicode="&#xfc60;" arabic-form="isolated" 
d="M292 1908q8 -55 -9 -104q-16 -50 -54 -81q-45 -38 -106 -38q-31 0 -58 11q-33 13 -59 39q-20 -24 -45 -40q-43 -27 -92 -27q-38 0 -70 16q-75 39 -87 130q-9 67 26 139q9 19 29 26t39 -2q20 -9 27 -29t-3 -40q-9 -18 -13 -36q-6 -24 -3 -44q5 -38 32 -52q28 -14 60 6
t46 65q13 38 11 98q-1 21 13 37q15 15 36 16q22 1 37 -14q16 -14 16 -36q2 -55 -6 -97l3 -10q5 -36 39 -49q35 -13 63 10q36 30 27 91q-7 47 -52 119q-11 18 -6 38q5 21 23 32q18 12 38 7q21 -5 32 -23q57 -90 66 -158zM-256 2145q-7 20 2 40q9 19 29 26l433 154q20 7 39 -2
q19 -10 26 -30q8 -20 -2 -39q-9 -19 -29 -26l-432 -154q-9 -3 -17 -3q-37 0 -49 34z" />
    <glyph glyph-name="uniFC61" unicode="&#xfc61;" arabic-form="isolated" 
d="M292 1908q8 -55 -9 -104q-16 -50 -54 -81q-45 -38 -106 -38q-31 0 -58 11q-33 13 -59 39q-20 -24 -45 -40q-43 -27 -92 -27q-38 0 -70 16q-75 39 -87 130q-9 67 26 139q9 19 29 26t39 -2q20 -9 27 -29t-3 -40q-9 -18 -13 -36q-6 -24 -3 -44q5 -38 32 -52q28 -14 60 6
t46 65q13 38 11 98q-1 21 13 37q15 15 36 16q22 1 37 -14q16 -14 16 -36q2 -55 -6 -97l3 -10q5 -36 39 -49q35 -13 63 10q36 30 27 91q-7 47 -52 119q-11 18 -6 38q5 21 23 32q18 12 38 7q21 -5 32 -23q57 -90 66 -158zM29 2563l-10 -5l-9 -4q-27 -15 -44 -41
q-17 -25 -15 -48q5 -58 136 -102q39 77 30 139q-6 37 -33 56q-12 9 -29 9q-12 0 -26 -4zM-269 2109q-6 20 5 39q11 18 32 23q172 45 250 108q-160 64 -169 177q-5 53 26 105q30 51 85 82q102 58 184 -1q62 -45 74 -124q13 -84 -31 -183l12 -2q21 -5 32 -23q12 -18 7 -38
q-5 -21 -23 -33q-18 -11 -38 -6l-11 2l-12 3q-13 3 -25 6q-58 -66 -155 -111q-72 -33 -181 -61q-6 -2 -13 -2q-39 0 -49 39z" />
    <glyph glyph-name="uniFC62" unicode="&#xfc62;" arabic-form="isolated" 
d="M292 1908q8 -55 -9 -104q-16 -50 -54 -81q-45 -38 -106 -38q-31 0 -58 11q-33 13 -59 39q-20 -24 -45 -40q-43 -27 -92 -27q-38 0 -70 16q-75 39 -87 130q-9 67 26 139q9 19 29 26t39 -2q20 -9 27 -29t-3 -40q-9 -18 -13 -36q-6 -24 -3 -44q5 -38 32 -52q28 -14 60 6
t46 65q13 38 11 98q-1 21 13 37q15 15 36 16q22 1 37 -14q16 -14 16 -36q2 -55 -6 -97l3 -10q5 -36 39 -49q35 -13 63 10q36 30 27 91q-7 47 -52 119q-11 18 -6 38q5 21 23 32q18 12 38 7q21 -5 32 -23q57 -90 66 -158zM-264 1386q-7 20 2 39q9 20 29 27l433 153q20 8 39 -2
q19 -9 26 -29q8 -20 -2 -39q-9 -19 -29 -26l-432 -154q-9 -3 -17 -3q-37 0 -49 34z" />
    <glyph glyph-name="uniFC63" unicode="&#xfc63;" arabic-form="isolated" 
d="M292 1908q8 -55 -9 -104q-16 -50 -54 -81q-45 -38 -106 -38q-31 0 -58 11q-33 13 -59 39q-20 -24 -45 -40q-43 -27 -92 -27q-38 0 -70 16q-75 39 -87 130q-9 67 26 139q9 19 29 26t39 -2q20 -9 27 -29t-3 -40q-9 -18 -13 -36q-6 -24 -3 -44q5 -38 32 -52q28 -14 60 6
t46 65q13 38 11 98q-1 21 13 37q15 15 36 16q22 1 37 -14q16 -14 16 -36q2 -55 -6 -97l3 -10q5 -36 39 -49q35 -13 63 10q36 30 27 91q-7 47 -52 119q-11 18 -6 38q5 21 23 32q18 12 38 7q21 -5 32 -23q57 -90 66 -158zM-24 2133q-20 5 -32 23q-11 18 -7 39q43 190 5 382
q-4 21 8 38q12 18 33 22t39 -8q17 -12 21 -33q42 -212 -5 -424q-9 -40 -50 -40z" />
    <glyph glyph-name="uniFE70" unicode="&#xfe70;" arabic-form="isolated" 
d="M-260 1640q-7 20 2 39q9 20 29 27l433 153q20 8 39 -2q19 -9 26 -29q8 -20 -2 -39q-9 -19 -29 -26l-432 -154q-9 -3 -17 -3q-37 0 -49 34zM-260 1896q-7 20 2 40q9 19 29 26l433 154q20 7 39 -2q19 -10 26 -30q8 -20 -2 -39q-9 -19 -29 -26l-432 -154q-9 -3 -17 -3
q-37 0 -49 34z" />
    <glyph glyph-name="uniFE72" unicode="&#xfe72;" arabic-form="isolated" 
d="M98 1968q-16 -13 -25 -32q-10 -22 -6 -46q13 -71 120 -107q52 85 37 148q-8 34 -43 49q-15 7 -31 7q-28 0 -52 -19zM-165 1503q-20 23 -10 51l5 16l7 16q36 96 17 127q-9 15 -19 21q-4 2 -7 3h-5q-35 4 -79 -44q-14 -16 -36 -17q-21 -1 -36 14q-16 14 -17 35q-1 22 14 37
q78 86 164 78q28 -3 53 -17q32 -19 55 -55q39 -63 14 -153q93 34 159 87l-12 5q-116 57 -136 164q-9 50 9 98q19 47 60 80q88 69 188 25q81 -36 101 -119q21 -88 -33 -196l10 -1q21 -3 33 -20q13 -17 10 -38t-20 -34t-38 -10q-31 5 -59 10q-72 -77 -187 -128
q-43 -19 -89 -33q-34 -11 -67 -18l-11 -1q-23 0 -38 17z" />
    <glyph glyph-name="uniFE74" unicode="&#xfe74;" arabic-form="isolated" 
d="M-267 -763q-7 20 2 39q9 20 29 27l433 153q20 8 39 -2q19 -9 26 -29q8 -20 -2 -39q-9 -19 -29 -26l-432 -154q-9 -3 -17 -3q-37 0 -49 34zM-267 -507q-7 20 2 40q9 19 29 26l433 154q20 7 39 -2q19 -10 26 -30q8 -20 -2 -39q-9 -19 -29 -26l-432 -154q-9 -3 -17 -3
q-37 0 -49 34z" />
    <glyph glyph-name="uniFE76" unicode="&#xfe76;" arabic-form="isolated" 
d="M-260 1633q-7 20 2 40q9 19 29 26l433 154q20 7 39 -2q19 -10 26 -30q8 -20 -2 -39q-9 -19 -29 -26l-432 -154q-9 -3 -17 -3q-37 0 -49 34z" />
    <glyph glyph-name="uniFE78" unicode="&#xfe78;" arabic-form="isolated" 
d="M29 2016l-10 -5l-9 -4q-27 -15 -44 -41q-17 -25 -15 -48q5 -58 136 -102q39 77 30 139q-6 37 -33 56q-12 9 -29 9q-12 0 -26 -4zM-269 1562q-6 20 5 39q11 18 32 23q172 45 250 108q-160 64 -169 177q-5 53 26 105q30 51 85 82q102 58 184 -1q62 -45 74 -124
q13 -84 -31 -183l12 -2q21 -5 32 -23q12 -18 7 -38q-5 -21 -23 -33q-18 -11 -38 -6l-11 2l-12 3q-13 3 -25 6q-58 -66 -155 -111q-72 -33 -181 -61q-6 -2 -13 -2q-39 0 -49 39z" />
    <glyph glyph-name="uniFE7A" unicode="&#xfe7a;" arabic-form="isolated" 
d="M-263 -517q-7 20 2 39q9 20 29 27l433 153q20 8 39 -2q19 -9 26 -29q8 -20 -2 -39q-9 -19 -29 -26l-432 -154q-9 -3 -17 -3q-37 0 -49 34z" />
    <glyph glyph-name="uniFE7C" unicode="&#xfe7c;" arabic-form="isolated" 
d="M292 1908q8 -55 -9 -104q-16 -50 -54 -81q-45 -38 -106 -38q-31 0 -58 11q-33 13 -59 39q-20 -24 -45 -40q-43 -27 -92 -27q-38 0 -70 16q-75 39 -87 130q-9 67 26 139q9 19 29 26t39 -2q20 -9 27 -29t-3 -40q-9 -18 -13 -36q-6 -24 -3 -44q5 -38 32 -52q28 -14 60 6
t46 65q13 38 11 98q-1 21 13 37q15 15 36 16q22 1 37 -14q16 -14 16 -36q2 -55 -6 -97l3 -10q5 -36 39 -49q35 -13 63 10q36 30 27 91q-7 47 -52 119q-11 18 -6 38q5 21 23 32q18 12 38 7q21 -5 32 -23q57 -90 66 -158z" />
    <glyph glyph-name="uniFE7E" unicode="&#xfe7e;" arabic-form="isolated" 
d="M13 1782q35 -1 57 21q17 17 26 46q8 24 8 49q0 47 -41 83q-6 6 -12 10q-9 6 -18 10q-24 11 -49 8q-23 -2 -42 -14q-14 -10 -24 -24q-30 -42 -17 -95q10 -43 40 -69q30 -25 71 -25h1zM12 1679q-77 0 -135 48t-76 126q-23 98 33 177q51 72 140 82q88 9 158 -54
q75 -67 75 -160q0 -104 -65 -168q-52 -51 -128 -51h-2z" />
    <glyph glyph-name="uniFE82" unicode="&#x622;" horiz-adv-x="750" arabic-form="final" 
d="M705 0q-29 1 -53 4q-54 6 -104 27q-150 60 -191 233q-18 79 -18 407v191q-1 108 -3 191q-6 171 -24 290q-1 8 -1 16q0 32 19 58q25 33 65 39q8 1 16 1q32 0 58 -19q33 -25 39 -65q19 -130 25 -309q3 -86 3 -197v-256q1 -76 2 -129q2 -133 12 -173q17 -70 68 -93
q30 -18 125 -18q41 0 70 -29t29 -70t-29 -70t-70 -29h-38zM15 1534q-27 18 -33 50q-7 33 11 60l10 14l10 15q12 18 24 32q29 36 61 60q85 64 198 44q34 -6 79 -19l41 -12l41 -14l49 -16q27 -8 48 -14q52 -14 85 -16q115 -6 194 104q19 27 52 32q32 5 59 -14q26 -19 31 -52
q6 -32 -14 -58q-130 -181 -330 -170q-47 3 -110 19q-25 7 -57 17l-57 18q-99 33 -138 39q-43 8 -72 -11q-28 -19 -72 -86q-23 -35 -66 -35q-24 0 -44 13z" />
    <glyph glyph-name="uniFE84" unicode="&#x623;" horiz-adv-x="640" arabic-form="final" 
d="M595 0q-29 1 -53 4q-54 6 -104 27q-150 60 -191 233q-18 79 -18 407v191q-1 108 -3 191q-6 171 -24 290q-1 8 -1 16q0 32 19 58q25 33 65 39q8 1 16 1q32 0 58 -19q33 -25 39 -65q19 -130 25 -309q3 -86 3 -197v-256q1 -76 2 -129q2 -133 12 -173q17 -70 68 -93
q30 -18 125 -18q41 0 70 -29t29 -70t-29 -70t-70 -29h-38zM33 1481q-11 18 -5 39q6 20 24 31l157 90q-17 6 -31 15q-48 29 -74 83q-26 53 -21 111q6 54 37 101t80 75q94 53 204 22q20 -6 31 -25q10 -18 4 -39q-6 -20 -24 -30q-19 -11 -39 -5q-69 20 -125 -13
q-59 -33 -65 -96q-7 -65 45 -96q23 -14 55 -16q12 0 25 1q10 1 20 3q27 6 60 20l30 13l30 14q19 9 38 3q20 -7 30 -25q9 -18 4 -38q-6 -20 -24 -31l-396 -226q-12 -7 -25 -7q-30 0 -45 26z" />
    <glyph glyph-name="uniFE86" unicode="&#x624;" horiz-adv-x="1043" arabic-form="final" 
d="M429 637q-24 -13 -45 -34q-75 -76 -75 -209v-10q2 -89 70 -132q85 -53 260 -53h142v1q0 141 -73 284q-87 169 -212 169q-35 0 -67 -16zM129 -660q-28 22 -35 56q-3 12 -3 23q0 27 16 52q21 34 61 43q189 42 346 169q169 136 233 318h-108q-233 0 -365 84
q-158 100 -162 294v16q0 213 131 347q107 109 253 109q114 0 211 -66t165 -189q55 -98 83 -214q24 -98 24 -182v-2h65q41 0 70 -29t29 -70t-29 -69q-29 -29 -70 -30h-90q-54 -208 -213 -378q-218 -231 -529 -301q-11 -2 -22 -2q-34 0 -61 21zM200 926q-11 18 -5 39
q6 20 24 31l157 90q-17 6 -31 15q-48 29 -74 83q-26 53 -21 111q6 54 37 101t80 75q94 53 204 22q20 -6 31 -25q10 -18 4 -39q-6 -20 -24 -30q-19 -11 -39 -5q-69 20 -125 -13q-59 -33 -65 -96q-7 -65 45 -96q23 -14 55 -16q12 0 25 1q10 1 20 3q27 6 60 20l30 13l30 14
q19 9 38 3q20 -7 30 -25q9 -18 4 -38q-6 -20 -24 -31l-396 -226q-12 -7 -25 -7q-30 0 -45 26z" />
    <glyph glyph-name="uniFE88" unicode="&#x625;" horiz-adv-x="640" arabic-form="final" 
d="M595 0q-29 1 -53 4q-54 6 -104 27q-150 60 -191 233q-18 79 -18 407v191q-1 108 -3 191q-6 171 -24 290q-1 8 -1 16q0 32 19 58q25 33 65 39q8 1 16 1q32 0 58 -19q33 -25 39 -65q19 -130 25 -309q3 -86 3 -197v-256q1 -76 2 -129q2 -133 12 -173q17 -70 68 -93
q30 -18 125 -18q41 0 70 -29t29 -70t-29 -70t-70 -29h-38zM98 -689q-11 18 -5 39q6 20 24 31l157 90q-17 6 -31 15q-48 29 -74 83q-26 53 -21 111q6 54 37 101t80 75q94 53 204 22q20 -6 31 -25q10 -18 4 -39q-6 -20 -24 -30q-19 -11 -39 -5q-69 20 -125 -13
q-59 -33 -65 -96q-7 -65 45 -96q23 -14 55 -16q12 0 25 1q10 1 20 3q27 6 60 20l30 13l30 14q19 9 38 3q20 -7 30 -25q9 -18 4 -38q-6 -20 -24 -31l-396 -226q-12 -7 -25 -7q-30 0 -45 26z" />
    <glyph glyph-name="uniFE8A" unicode="&#x626;" horiz-adv-x="1715" arabic-form="final" 
d="M501 -613q-176 57 -281 167q-143 148 -143 370q0 15 1 30q4 101 39 249q14 59 34 132l19 65l18 64q17 58 25 87q11 39 47 59q23 13 48 13q13 0 27 -4q40 -11 60 -47q13 -23 13 -48q0 -13 -4 -27q-8 -28 -26 -88l-8 -29l-9 -29l-17 -59q-19 -69 -32 -122
q-33 -139 -37 -224v-19q0 -145 87 -236q76 -79 212 -120q114 -34 233 -34q233 0 416 88q70 34 111 74q42 40 42 73q0 3 -2 7q-2 5 -7 11q-12 16 -35 34q-29 22 -77 51l-44 25l-46 25l-45 24l-45 26q-50 29 -84 54q-37 27 -57 48q-31 35 -34 75q-1 6 -1 12q0 9 2 18
q2 10 6 20q5 10 11 19q8 12 19 22q28 24 72 28q10 1 22 1q19 0 43 -2q41 -4 160 -23l26 -4l26 -4q30 -5 56 -8q65 -10 120 -17q144 -17 254 -17q41 0 70 -29q29 -28 29 -69t-29 -70t-70 -29q-172 -13 -438 64q153 -69 176 -85l6 -4l7 -6q10 -8 18 -16q23 -21 40 -44
q49 -64 49 -137q0 -95 -69 -179q-68 -84 -196 -146q-224 -108 -502 -108q-157 0 -306 48zM384 775q-11 18 -5 39q6 20 24 31l157 90q-17 6 -31 15q-48 29 -74 83q-26 53 -21 111q6 54 37 101t80 75q94 53 204 22q20 -6 31 -25q10 -18 4 -39q-6 -20 -24 -30q-19 -11 -39 -5
q-69 20 -125 -13q-59 -33 -65 -96q-7 -65 45 -96q23 -14 55 -16q12 0 25 1q10 1 20 3q27 6 60 20l30 13l30 14q19 9 38 3q20 -7 30 -25q9 -18 4 -38q-6 -20 -24 -31l-396 -226q-12 -7 -25 -7q-30 0 -45 26z" />
    <glyph glyph-name="uniFE8B" unicode="&#x626;" horiz-adv-x="838" arabic-form="initial" 
d="M-75 29q-29 29 -29 70t29 70t70 29q230 0 313 17q146 25 191 98q19 32 19 90q0 45 -11 106q-27 139 -100 292q-10 21 -10 44q0 16 5 32q14 38 50 56q21 10 42 10q17 0 34 -6q39 -13 56 -50q85 -175 116 -339q15 -78 15 -144q0 -117 -48 -195q-85 -140 -302 -184
q-107 -25 -370 -25q-41 0 -70 29zM163 1008q-11 18 -5 39q6 20 24 31l157 90q-17 6 -31 15q-48 29 -74 83q-26 53 -21 111q6 54 37 101t80 75q94 53 204 22q20 -6 31 -25q10 -18 4 -39q-6 -20 -24 -30q-19 -11 -39 -5q-69 20 -125 -13q-59 -33 -65 -96q-7 -65 45 -96
q23 -14 55 -16q12 0 25 1q10 1 20 3q27 6 60 20l30 13l30 14q19 9 38 3q20 -7 30 -25q9 -18 4 -38q-6 -20 -24 -31l-396 -226q-12 -7 -25 -7q-30 0 -45 26z" />
    <glyph glyph-name="uniFE8C" unicode="&#x626;" horiz-adv-x="852" arabic-form="medial" 
d="M849 198q41 0 70 -29t29 -70t-29 -70t-70 -29q-82 0 -150 28q-86 35 -145 114l-8 -9q-72 -80 -197 -110q-93 -23 -354 -23q-41 0 -70 29t-29 70t29 70t70 29q343 0 405 67q43 48 43 158q0 33 -4 70q-4 31 -8 69l-2 33l-3 32q-3 43 -5 63q-1 5 -1 11q0 33 23 61
q26 31 67 35q5 1 11 1q34 0 61 -23q32 -26 36 -67q2 -21 5 -65l3 -40l4 -41q5 -47 10 -84q14 -97 39 -157q51 -123 170 -123zM133 837q-11 18 -5 39q6 20 24 31l157 90q-17 6 -31 15q-48 29 -74 83q-26 53 -21 111q6 54 37 101t80 75q94 53 204 22q20 -6 31 -25
q10 -18 4 -39q-6 -20 -24 -30q-19 -11 -39 -5q-69 20 -125 -13q-59 -33 -65 -96q-7 -65 45 -96q23 -14 55 -16q12 0 25 1q10 1 20 3q27 6 60 20l30 13l30 14q19 9 38 3q20 -7 30 -25q9 -18 4 -38q-6 -20 -24 -31l-396 -226q-12 -7 -25 -7q-30 0 -45 26z" />
    <glyph glyph-name="uniFE8E" unicode="&#x627;" horiz-adv-x="624" arabic-form="final" 
d="M586 0q-29 1 -53 4q-54 6 -104 27q-150 60 -191 233q-18 79 -18 447v231q-1 108 -3 191q-6 211 -24 330q-1 8 -1 16q0 32 19 58q25 33 65 39q8 1 16 1q32 0 58 -19q33 -25 39 -65q19 -130 25 -349q3 -86 3 -197v-336q1 -76 2 -129q2 -133 12 -173q17 -70 68 -93
q30 -18 125 -18q41 0 70 -29t29 -70t-29 -70t-70 -29h-38z" />
    <glyph glyph-name="uniFE90" unicode="&#x628;" horiz-adv-x="2316" arabic-form="final" 
d="M449 38q-216 88 -297 254q-42 87 -42 187q0 89 33 189q25 76 66 148q35 61 71 103q27 31 68 33h8q36 0 64 -24q31 -26 34 -67v-8q0 -36 -24 -64q-23 -26 -48 -69q-32 -55 -51 -114q-19 -57 -22 -109q-1 -9 -1 -18q0 -57 22 -101q50 -104 209 -163q140 -52 303 -52
q410 0 641 120t348 394q14 34 47 50q21 10 43 10q12 0 25 -3q36 -9 57 -39q18 -25 18 -55q0 -5 -1 -11l-1 -10l-4 -46l-4 -47q-2 -32 -2 -60q0 -19 1 -35q7 -106 55 -159q68 -75 244 -75q41 0 70 -29t29 -70t-29 -70t-70 -29q-264 0 -391 140q-61 68 -87 167
q-105 -118 -248 -194q-277 -147 -741 -147q-213 0 -393 73zM1051 -233q10 1 19 1q48 0 83 -35q30 -30 34 -75q1 -6 1 -12q0 -37 -23 -67q-5 -8 -13 -15q-31 -29 -73 -35q-12 -2 -23 -2q-30 0 -57 13q-38 18 -60 54q-20 34 -20 71v7q3 53 48 80q28 17 61 17q12 0 23 -2z" />
    <glyph glyph-name="uniFE91" unicode="&#x628;" horiz-adv-x="715" arabic-form="initial" 
d="M-74 29q-29 29 -29 70t29 70t70 29q179 0 262 17q116 25 161 98q19 32 19 90q0 45 -11 106q-27 139 -100 292q-10 21 -10 44q0 16 5 32q14 38 50 56q21 10 42 10q17 0 34 -6q39 -13 56 -50q85 -175 116 -339q15 -78 15 -144q0 -117 -48 -195q-85 -140 -272 -184
q-107 -25 -319 -25q-41 0 -70 29zM296 -233q10 1 19 1q48 0 83 -35q30 -30 34 -75q1 -6 1 -12q0 -37 -23 -67q-5 -8 -13 -15q-31 -29 -73 -35q-12 -2 -23 -2q-30 0 -57 13q-38 18 -60 54q-20 34 -20 71v7q3 53 48 80q28 17 61 17q12 0 23 -2z" />
    <glyph glyph-name="uniFE92" unicode="&#x628;" horiz-adv-x="748" arabic-form="medial" 
d="M738 198q41 0 70 -29t29 -70t-29 -70t-70 -29q-82 0 -150 28q-86 35 -145 114l-8 -9q-72 -80 -197 -110q-93 -23 -244 -23q-41 0 -70 29t-29 70t29 70t70 29q233 0 295 67q43 48 43 158q0 33 -4 70q-4 31 -8 69l-2 33l-3 32q-3 43 -5 63q-1 5 -1 11q0 33 23 61
q26 31 67 35q5 1 11 1q34 0 61 -23q32 -26 36 -67q2 -21 5 -65l3 -40l4 -41q5 -47 10 -84q14 -97 39 -157q51 -123 170 -123zM329 -233q10 1 19 1q48 0 83 -35q30 -30 34 -75q1 -6 1 -12q0 -37 -23 -67q-5 -8 -13 -15q-31 -29 -73 -35q-12 -2 -23 -2q-30 0 -57 13
q-38 18 -60 54q-20 34 -20 71v7q3 53 48 80q28 17 61 17q12 0 23 -2z" />
    <glyph glyph-name="uniFE94" unicode="&#x629;" horiz-adv-x="1157" arabic-form="final" 
d="M722 236q-37 79 -59 191q-9 44 -17 99l-6 49l-6 48q-13 105 -21 146q-6 28 -13 45q-147 -69 -270 -228q-62 -80 -87 -150q-22 -59 -14 -96q9 -44 80 -64q27 -7 63 -11q28 -3 59 -3q41 -1 70 -30q28 -30 28 -70q-1 -41 -30 -70q-29 -28 -69 -28h-1q-164 2 -262 58
q-108 62 -132 177q-22 104 32 230q21 49 53 100q24 39 54 78q156 201 349 290q54 24 103 21q38 -2 70 -20q66 -37 96 -134q19 -61 38 -217q30 -249 78 -341q56 -108 180 -108q41 0 70 -29t29 -70t-29 -70t-70 -29q-255 0 -366 236zM240 1263q-18 36 -6 75t47 58
q178 93 383 87q70 -2 137 -15q25 -5 47 -11q9 -3 17 -5l12 -4q37 -12 56 -49q18 -36 6 -75t-47 -58t-73 -6h-1l-3 1l-4 1q-5 2 -10 3q-16 4 -33 8q-50 10 -103 12q-161 7 -297 -65q-20 -11 -43 -11q-59 0 -85 54z" />
    <glyph glyph-name="uniFE96" unicode="&#x62a;" horiz-adv-x="2316" arabic-form="final" 
d="M449 38q-216 88 -297 254q-42 87 -42 187q0 89 33 189q25 76 66 148q35 61 71 103q27 31 68 33h8q36 0 64 -24q31 -26 34 -67v-8q0 -36 -24 -64q-23 -26 -48 -69q-32 -55 -51 -114q-19 -57 -22 -109q-1 -9 -1 -18q0 -57 22 -101q50 -104 209 -163q140 -52 303 -52
q410 0 641 120t348 394q14 34 47 50q21 10 43 10q12 0 25 -3q36 -9 57 -39q18 -25 18 -55q0 -5 -1 -11l-1 -10l-4 -46l-4 -47q-2 -32 -2 -60q0 -19 1 -35q7 -106 55 -159q68 -75 244 -75q41 0 70 -29t29 -70t-29 -70t-70 -29q-264 0 -391 140q-61 68 -87 167
q-105 -118 -248 -194q-277 -147 -741 -147q-213 0 -393 73zM752 902q-18 36 -6 75t47 58q178 93 383 87q70 -2 137 -15q25 -5 47 -11q9 -3 17 -5l12 -4q37 -12 56 -49q18 -36 6 -75t-47 -58t-73 -6h-1l-3 1l-4 1q-5 2 -10 3q-16 4 -33 8q-50 10 -103 12q-161 7 -297 -65
q-20 -11 -43 -11q-59 0 -85 54z" />
    <glyph glyph-name="uniFE97" unicode="&#x62a;" horiz-adv-x="843" arabic-form="initial" 
d="M-75 29q-29 29 -29 70t29 70t70 29q230 0 313 17q146 25 191 98q19 32 19 90q0 45 -11 106q-27 139 -100 292q-10 21 -10 44q0 16 5 32q14 38 50 56q21 10 42 10q17 0 34 -6q39 -13 56 -50q85 -175 116 -339q15 -78 15 -144q0 -117 -48 -195q-85 -140 -302 -184
q-107 -25 -370 -25q-41 0 -70 29zM87 1184q-18 36 -6 75t47 58q178 93 383 87q70 -2 137 -15q25 -5 47 -11q9 -3 17 -5l12 -4q37 -12 56 -49q18 -36 6 -75t-47 -58t-73 -6h-1l-3 1l-4 1q-5 2 -10 3q-16 4 -33 8q-50 10 -103 12q-161 7 -297 -65q-20 -11 -43 -11
q-59 0 -85 54z" />
    <glyph glyph-name="uniFE98" unicode="&#x62a;" horiz-adv-x="852" arabic-form="medial" 
d="M849 198q41 0 70 -29t29 -70t-29 -70t-70 -29q-82 0 -150 28q-86 35 -145 114l-8 -9q-72 -80 -197 -110q-93 -23 -354 -23q-41 0 -70 29t-29 70t29 70t70 29q343 0 405 67q43 48 43 158q0 33 -4 70q-4 31 -8 69l-2 33l-3 32q-3 43 -5 63q-1 5 -1 11q0 33 23 61
q26 31 67 35q5 1 11 1q34 0 61 -23q32 -26 36 -67q2 -21 5 -65l3 -40l4 -41q5 -47 10 -84q14 -97 39 -157q51 -123 170 -123zM7 1008q-18 36 -6 75t47 58q178 93 383 87q70 -2 137 -15q25 -5 47 -11q9 -3 17 -5l12 -4q37 -12 56 -49q18 -36 6 -75t-47 -58t-73 -6h-1l-3 1
l-4 1q-5 2 -10 3q-16 4 -33 8q-50 10 -103 12q-161 7 -297 -65q-20 -11 -43 -11q-59 0 -85 54z" />
    <glyph glyph-name="uniFE9A" unicode="&#x62b;" horiz-adv-x="2316" arabic-form="final" 
d="M449 38q-216 88 -297 254q-42 87 -42 187q0 89 33 189q25 76 66 148q35 61 71 103q27 31 68 33h8q36 0 64 -24q31 -26 34 -67v-8q0 -36 -24 -64q-23 -26 -48 -69q-32 -55 -51 -114q-19 -57 -22 -109q-1 -9 -1 -18q0 -57 22 -101q50 -104 209 -163q140 -52 303 -52
q410 0 641 120t348 394q14 34 47 50q21 10 43 10q12 0 25 -3q36 -9 57 -39q18 -25 18 -55q0 -5 -1 -11l-1 -10l-4 -46l-4 -47q-2 -32 -2 -60q0 -19 1 -35q7 -106 55 -159q68 -75 244 -75q41 0 70 -29t29 -70t-29 -70t-70 -29q-264 0 -391 140q-61 68 -87 167
q-105 -118 -248 -194q-277 -147 -741 -147q-213 0 -393 73zM1048 1197q-10 -1 -19 -1q-48 0 -83 35q-31 31 -34 75q-1 6 -1 12q0 37 22 67q6 8 14 15q30 29 73 35q12 2 23 2q30 0 57 -13q38 -17 60 -54q20 -34 20 -71v-7q-3 -53 -48 -80q-28 -17 -61 -17q-12 0 -23 2z
M741 867q-18 36 -6 75t47 58q178 93 383 87q70 -2 137 -15q25 -5 47 -11q9 -3 17 -5l12 -4q37 -12 56 -49q18 -36 6 -75t-47 -58t-73 -6h-1l-3 1l-4 1q-5 2 -10 3q-16 4 -33 8q-50 10 -103 12q-161 7 -297 -65q-20 -11 -43 -11q-59 0 -85 54z" />
    <glyph glyph-name="uniFE9B" unicode="&#x62b;" horiz-adv-x="843" arabic-form="initial" 
d="M-75 29q-29 29 -29 70t29 70t70 29q230 0 313 17q146 25 191 98q19 32 19 90q0 45 -11 106q-27 139 -100 292q-10 21 -10 44q0 16 5 32q14 38 50 56q21 10 42 10q17 0 34 -6q39 -13 56 -50q85 -175 116 -339q15 -78 15 -144q0 -117 -48 -195q-85 -140 -302 -184
q-107 -25 -370 -25q-41 0 -70 29zM356 1497q-10 -1 -19 -1q-48 0 -83 35q-31 31 -34 75q-1 6 -1 12q0 37 22 67q6 8 14 15q30 29 73 35q12 2 23 2q30 0 57 -13q38 -17 60 -54q20 -34 20 -71v-7q-3 -53 -48 -80q-28 -17 -61 -17q-12 0 -23 2zM49 1167q-18 36 -6 75t47 58
q178 93 383 87q70 -2 137 -15q25 -5 47 -11q9 -3 17 -5l12 -4q37 -12 56 -49q18 -36 6 -75t-47 -58t-73 -6h-1l-3 1l-4 1q-5 2 -10 3q-16 4 -33 8q-50 10 -103 12q-161 7 -297 -65q-20 -11 -43 -11q-59 0 -85 54z" />
    <glyph glyph-name="uniFE9C" unicode="&#x62b;" horiz-adv-x="852" arabic-form="medial" 
d="M849 198q41 0 70 -29t29 -70t-29 -70t-70 -29q-82 0 -150 28q-86 35 -145 114l-8 -9q-72 -80 -197 -110q-93 -23 -354 -23q-41 0 -70 29t-29 70t29 70t70 29q343 0 405 67q43 48 43 158q0 33 -4 70q-4 31 -8 69l-2 33l-3 32q-3 43 -5 63q-1 5 -1 11q0 33 23 61
q26 31 67 35q5 1 11 1q34 0 61 -23q32 -26 36 -67q2 -21 5 -65l3 -40l4 -41q5 -47 10 -84q14 -97 39 -157q51 -123 170 -123zM336 1317q-10 -1 -19 -1q-48 0 -83 35q-31 31 -34 75q-1 6 -1 12q0 37 22 67q6 8 14 15q30 29 73 35q12 2 23 2q30 0 57 -13q38 -17 60 -54
q20 -34 20 -71v-7q-3 -53 -48 -80q-28 -17 -61 -17q-12 0 -23 2zM29 987q-18 36 -6 75t47 58q178 93 383 87q70 -2 137 -15q25 -5 47 -11q9 -3 17 -5l12 -4q37 -12 56 -49q18 -36 6 -75t-47 -58t-73 -6h-1l-3 1l-4 1q-5 2 -10 3q-16 4 -33 8q-50 10 -103 12q-161 7 -297 -65
q-20 -11 -43 -11q-59 0 -85 54z" />
    <glyph glyph-name="uniFE9E" unicode="&#x62c;" horiz-adv-x="1702" arabic-form="final" 
d="M1694 198q41 0 70 -29t29 -70t-29 -70t-70 -29q-275 0 -417 135q-128 120 -153 346q-267 -62 -452 -161q-358 -193 -358 -503q0 -19 1 -39q12 -158 163 -269q142 -104 315 -107h16q148 0 294 52q174 63 271 179q26 31 67 35h8q36 0 64 -23q32 -26 35 -67q1 -5 1 -10
q0 -35 -24 -62q-116 -138 -311 -220q-194 -82 -406 -82h-19q-239 5 -434 152q-219 164 -237 408q-2 28 -2 56q0 214 122 387q117 167 341 287q223 120 537 188q-171 75 -285 114q-154 51 -239 51q-151 0 -198 -163q-11 -39 -46 -59q-23 -13 -48 -13q-14 0 -28 4
q-39 12 -59 47q-13 23 -13 48q0 14 4 28q43 148 143 227t245 79q132 0 355 -81q86 -31 196 -78q43 -19 97 -42l47 -21l45 -21q119 -53 167 -73q31 -13 48 -43q13 -22 13 -48q0 -7 -1 -15q-5 -33 -29 -57q-25 -23 -58 -27q-77 -8 -153 -20q16 -186 116 -260q83 -61 259 -61z
M1069 -111q0 -52 -40 -94q-41 -41 -89 -41q-50 0 -107 40q-40 43 -40 95q0 46 43 90q44 45 93 45q50 0 94 -41q46 -43 46 -94z" />
    <glyph glyph-name="uniFE9F" unicode="&#x62c;" horiz-adv-x="1619" arabic-form="initial" 
d="M-64 29q-29 29 -29 70t29 70t70 29q331 0 653 84q380 99 618 289q-195 56 -339 91q-183 45 -291 57q-38 4 -63 4q-10 -1 -18 -1q-6 -1 -10 -2q-87 -18 -118 -58q-28 -35 -58 -154q-10 -40 -45 -61q-24 -14 -50 -14q-12 0 -25 3q-40 10 -61 45q-14 24 -14 50q0 12 3 25
q40 158 93 227q75 96 234 131q25 5 61 5q223 0 883 -196q28 -8 39 -12q52 -15 67 -68q4 -15 4 -30q0 -34 -25 -63q-258 -285 -735 -431q-388 -119 -803 -119q-41 0 -70 29zM798 -231q10 1 19 1q48 0 83 -35q30 -30 34 -75q1 -6 1 -12q0 -37 -23 -67q-5 -8 -13 -15
q-31 -29 -73 -35q-12 -2 -23 -2q-30 0 -57 13q-38 18 -60 54q-20 34 -20 71v7q3 53 48 80q28 17 61 17q12 0 23 -2z" />
    <glyph glyph-name="uniFEA0" unicode="&#x62c;" horiz-adv-x="1701" arabic-form="medial" 
d="M1708 199q40 0 69 -29t29 -70t-29 -70t-69 -29q-208 0 -358 66q-149 66 -227 190q-149 -74 -322 -129q-402 -128 -802 -128q-41 0 -70 29t-29 70t29 70t70 29q317 0 649 91q372 102 615 284q-190 55 -332 89q-183 45 -291 57q-38 4 -63 4q-10 -1 -18 -1q-6 -1 -10 -2
q-87 -18 -118 -58q-28 -35 -58 -154q-10 -40 -45 -61q-24 -14 -50 -14q-12 0 -25 3q-40 10 -61 45q-14 24 -14 50q0 12 3 25q40 158 93 227q75 96 234 131q25 5 61 5q223 0 883 -196q28 -8 39 -12q54 -16 68 -69q4 -14 4 -28q0 -37 -29 -66q-101 -104 -239 -193
q59 -87 184 -126q97 -30 229 -30zM798 -233q10 1 19 1q48 0 83 -35q30 -30 34 -75q1 -6 1 -12q0 -37 -23 -67q-5 -8 -13 -15q-31 -29 -73 -35q-12 -2 -23 -2q-30 0 -57 13q-38 18 -60 54q-20 34 -20 71v7q3 53 48 80q28 17 61 17q12 0 23 -2z" />
    <glyph glyph-name="uniFEA2" unicode="&#x62d;" horiz-adv-x="1702" arabic-form="final" 
d="M1694 198q41 0 70 -29t29 -70t-29 -70t-70 -29q-275 0 -417 135q-128 120 -153 346q-267 -62 -452 -161q-358 -193 -358 -503q0 -19 1 -39q12 -158 163 -269q142 -104 315 -107h16q148 0 294 52q174 63 271 179q26 31 67 35h8q36 0 64 -23q32 -26 35 -67q1 -5 1 -10
q0 -35 -24 -62q-116 -138 -311 -220q-194 -82 -406 -82h-19q-239 5 -434 152q-219 164 -237 408q-2 28 -2 56q0 214 122 387q117 167 341 287q223 120 537 188q-171 75 -285 114q-154 51 -239 51q-151 0 -198 -163q-11 -39 -46 -59q-23 -13 -48 -13q-14 0 -28 4
q-39 12 -59 47q-13 23 -13 48q0 14 4 28q43 148 143 227t245 79q132 0 355 -81q86 -31 196 -78q43 -19 97 -42l47 -21l45 -21q119 -53 167 -73q31 -13 48 -43q13 -22 13 -48q0 -7 -1 -15q-5 -33 -29 -57q-25 -23 -58 -27q-77 -8 -153 -20q16 -186 116 -260q83 -61 259 -61z
" />
    <glyph glyph-name="uniFEA3" unicode="&#x62d;" horiz-adv-x="1619" arabic-form="initial" 
d="M-64 29q-29 29 -29 70t29 70t70 29q331 0 653 84q380 99 618 289q-195 56 -339 91q-183 45 -291 57q-38 4 -63 4q-10 -1 -18 -1q-6 -1 -10 -2q-87 -18 -118 -58q-28 -35 -58 -154q-10 -40 -45 -61q-24 -14 -50 -14q-12 0 -25 3q-40 10 -61 45q-14 24 -14 50q0 12 3 25
q40 158 93 227q75 96 234 131q25 5 61 5q223 0 883 -196q28 -8 39 -12q52 -15 67 -68q4 -15 4 -30q0 -34 -25 -63q-258 -285 -735 -431q-388 -119 -803 -119q-41 0 -70 29z" />
    <glyph glyph-name="uniFEA4" unicode="&#x62d;" horiz-adv-x="1701" arabic-form="medial" 
d="M1708 199q40 0 69 -29t29 -70t-29 -70t-69 -29q-208 0 -358 66q-149 66 -227 190q-149 -74 -322 -129q-402 -128 -802 -128q-41 0 -70 29t-29 70t29 70t70 29q317 0 649 91q372 102 615 284q-190 55 -332 89q-183 45 -291 57q-38 4 -63 4q-10 -1 -18 -1q-6 -1 -10 -2
q-87 -18 -118 -58q-28 -35 -58 -154q-10 -40 -45 -61q-24 -14 -50 -14q-12 0 -25 3q-40 10 -61 45q-14 24 -14 50q0 12 3 25q40 158 93 227q75 96 234 131q25 5 61 5q223 0 883 -196q28 -8 39 -12q54 -16 68 -69q4 -14 4 -28q0 -37 -29 -66q-101 -104 -239 -193
q59 -87 184 -126q97 -30 229 -30z" />
    <glyph glyph-name="uniFEA6" unicode="&#x62e;" horiz-adv-x="1702" arabic-form="final" 
d="M1694 198q41 0 70 -29t29 -70t-29 -70t-70 -29q-275 0 -417 135q-128 120 -153 346q-267 -62 -452 -161q-358 -193 -358 -503q0 -19 1 -39q12 -158 163 -269q142 -104 315 -107h16q148 0 294 52q174 63 271 179q26 31 67 35h8q36 0 64 -23q32 -26 35 -67q1 -5 1 -10
q0 -35 -24 -62q-116 -138 -311 -220q-194 -82 -406 -82h-19q-239 5 -434 152q-219 164 -237 408q-2 28 -2 56q0 214 122 387q117 167 341 287q223 120 537 188q-171 75 -285 114q-154 51 -239 51q-151 0 -198 -163q-11 -39 -46 -59q-23 -13 -48 -13q-14 0 -28 4
q-39 12 -59 47q-13 23 -13 48q0 14 4 28q43 148 143 227t245 79q132 0 355 -81q86 -31 196 -78q43 -19 97 -42l47 -21l45 -21q119 -53 167 -73q31 -13 48 -43q13 -22 13 -48q0 -7 -1 -15q-5 -33 -29 -57q-25 -23 -58 -27q-77 -8 -153 -20q16 -186 116 -260q83 -61 259 -61z
M778 1393q0 -52 -40 -94q-41 -41 -89 -41q-50 0 -107 40q-40 43 -40 95q0 46 43 90q44 45 93 45q50 0 94 -41q46 -43 46 -94z" />
    <glyph glyph-name="uniFEA7" unicode="&#x62e;" horiz-adv-x="1619" arabic-form="initial" 
d="M-64 29q-29 29 -29 70t29 70t70 29q331 0 653 84q380 99 618 289q-195 56 -339 91q-183 45 -291 57q-38 4 -63 4q-10 -1 -18 -1q-6 -1 -10 -2q-87 -18 -118 -58q-28 -35 -58 -154q-10 -40 -45 -61q-24 -14 -50 -14q-12 0 -25 3q-40 10 -61 45q-14 24 -14 50q0 12 3 25
q40 158 93 227q75 96 234 131q25 5 61 5q223 0 883 -196q28 -8 39 -12q52 -15 67 -68q4 -15 4 -30q0 -34 -25 -63q-258 -285 -735 -431q-388 -119 -803 -119q-41 0 -70 29zM764 1268q0 -52 -40 -94q-41 -41 -89 -41q-50 0 -107 40q-40 43 -40 95q0 46 43 90q44 45 93 45
q50 0 94 -41q46 -43 46 -94z" />
    <glyph glyph-name="uniFEA8" unicode="&#x62e;" horiz-adv-x="1701" arabic-form="medial" 
d="M1708 199q40 0 69 -29t29 -70t-29 -70t-69 -29q-208 0 -358 66q-149 66 -227 190q-149 -74 -322 -129q-402 -128 -802 -128q-41 0 -70 29t-29 70t29 70t70 29q317 0 649 91q372 102 615 284q-190 55 -332 89q-183 45 -291 57q-38 4 -63 4q-10 -1 -18 -1q-6 -1 -10 -2
q-87 -18 -118 -58q-28 -35 -58 -154q-10 -40 -45 -61q-24 -14 -50 -14q-12 0 -25 3q-40 10 -61 45q-14 24 -14 50q0 12 3 25q40 158 93 227q75 96 234 131q25 5 61 5q223 0 883 -196q28 -8 39 -12q54 -16 68 -69q4 -14 4 -28q0 -37 -29 -66q-101 -104 -239 -193
q59 -87 184 -126q97 -30 229 -30zM684 1272q0 -52 -40 -94q-41 -41 -89 -41q-50 0 -107 40q-40 43 -40 95q0 46 43 90q44 45 93 45q50 0 94 -41q46 -43 46 -94z" />
    <glyph glyph-name="uniFEAA" unicode="&#x62f;" horiz-adv-x="1262" arabic-form="final" 
d="M1254 198q41 0 70 -29t29 -70t-29 -70t-70 -29q-87 0 -168 45q-91 51 -156 150q-30 -37 -68 -69q-117 -96 -278 -119q-44 -7 -90 -7q-130 0 -259 50q-38 15 -54 52q-17 38 -2 76t52 55q38 16 76 1q130 -50 254 -31q103 17 175 76q104 85 85 192q-38 182 -81 386
q-14 65 -26 124q-4 19 -7 34q-1 6 -2 10l-1 2v1q-8 40 14 75q23 34 63 42t74 -14t43 -63v-3l1 -4l1 -5q2 -7 3 -15l5 -20q12 -60 25 -124q43 -205 82 -387q33 -159 108 -243q61 -69 131 -69z" />
    <glyph glyph-name="uniFEAC" unicode="&#x630;" horiz-adv-x="1262" arabic-form="final" 
d="M1254 198q41 0 70 -29t29 -70t-29 -70t-70 -29q-87 0 -168 45q-91 51 -156 150q-30 -37 -68 -69q-117 -96 -278 -119q-44 -7 -90 -7q-130 0 -259 50q-38 15 -54 52q-17 38 -2 76t52 55q38 16 76 1q130 -50 254 -31q103 17 175 76q104 85 85 192q-38 182 -81 386
q-14 65 -26 124q-4 19 -7 34q-1 6 -2 10l-1 2v1q-8 40 14 75q23 34 63 42t74 -14t43 -63v-3l1 -4l1 -5q2 -7 3 -15l5 -20q12 -60 25 -124q43 -205 82 -387q33 -159 108 -243q61 -69 131 -69zM896 1500q0 -52 -40 -94q-41 -41 -89 -41q-50 0 -107 40q-40 43 -40 95
q0 46 43 90q44 45 93 45q50 0 94 -41q46 -43 46 -94z" />
    <glyph glyph-name="uniFEAE" unicode="&#x631;" horiz-adv-x="994" arabic-form="final" 
d="M30 -691q-17 25 -17 54q0 10 2 20q8 41 42 63q7 5 24 16l15 10l17 10q19 13 36 25q44 31 83 64q104 88 177 196q177 262 177 632q0 64 -5 131q-1 5 -1 10q0 34 24 61q26 31 67 35h8q35 0 64 -23q31 -26 35 -67q20 -225 97 -305q28 -28 64 -38q13 -3 28 -5h24q40 0 69 -29
t29 -70t-29 -70t-69 -29q-142 0 -238 85q-50 -239 -179 -430q-88 -128 -210 -232q-45 -38 -97 -75q-20 -14 -42 -28l-19 -13l-17 -11q-16 -10 -22 -14q-25 -17 -55 -17q-53 0 -82 44z" />
    <glyph glyph-name="uniFEB0" unicode="&#x632;" horiz-adv-x="994" arabic-form="final" 
d="M21 -691q-17 25 -17 54q0 10 2 20q8 41 42 63q7 5 24 16l15 10l17 10q19 13 36 25q44 31 83 64q104 88 177 196q177 262 177 632q0 64 -5 131q-1 5 -1 10q0 34 24 61q26 31 67 35h8q35 0 64 -23q31 -26 35 -67q20 -225 97 -305q28 -28 64 -38q13 -3 28 -5h24q40 0 69 -29
t29 -70t-29 -70t-69 -29q-142 0 -238 85q-50 -239 -179 -430q-88 -128 -210 -232q-45 -38 -97 -75q-20 -14 -42 -28l-19 -13l-17 -11q-16 -10 -22 -14q-25 -17 -55 -17q-53 0 -82 44zM806 1064q0 -52 -40 -94q-41 -41 -89 -41q-50 0 -107 40q-40 43 -40 95q0 46 43 90
q44 45 93 45q50 0 94 -41q46 -43 46 -94z" />
    <glyph glyph-name="uniFEB2" unicode="&#x633;" horiz-adv-x="2889" arabic-form="final" 
d="M520 -613q-144 57 -243 160q-168 174 -168 427q0 15 1 31q8 236 197 531q22 34 62 43q12 3 23 3q27 0 51 -16q35 -22 44 -62q2 -11 2 -21q0 -28 -16 -53q-159 -250 -166 -432v-21q0 -176 113 -293q149 -155 408 -155q39 0 80 5q56 8 106 25q138 47 214 159q85 124 85 309
q0 213 -112 507q-7 18 -7 36q0 19 8 38q16 37 53 52q19 9 39 9q17 0 35 -7q37 -15 54 -51l23 -52l22 -52q66 -157 109 -216q58 -81 138 -93q19 -2 35 -2q58 0 93 29q37 32 61 101q31 91 34 239q1 41 31 70q29 27 68 27h3q40 -1 68 -30t28 -69v-39q0 -231 71 -305
q26 -26 67 -26q50 0 84 37q46 51 66 161q12 65 12 131q0 34 -3 69q-1 6 -1 13q0 32 22 59q25 32 65 36q7 1 13 1q32 0 59 -21q32 -25 38 -65q36 -267 148 -364q40 -34 87 -45q18 -5 37 -6q7 -1 15 -1h13q41 0 70 -29t29 -70t-29 -69q-29 -29 -70 -29q-230 0 -362 191
q-27 -55 -63 -95q-92 -102 -230 -102q-124 0 -208 86q-22 23 -41 52q-24 -33 -54 -59q-90 -76 -216 -76q-33 0 -68 5q-75 10 -138 48v-38q-3 -240 -118 -407q-97 -142 -261 -213q-140 -62 -302 -62q-164 0 -308 56z" />
    <glyph glyph-name="uniFEB3" unicode="&#x633;" horiz-adv-x="1658" arabic-form="initial" 
d="M380 73q-22 26 -36 58q-142 -131 -342 -131q-41 0 -70 28q-29 29 -29 70t29 70t70 29q159 0 255 133q36 49 61 115q19 49 30 102q4 20 6 32q7 40 40 64q26 19 55 19q9 0 18 -2q41 -7 65 -40q18 -26 18 -57q0 -8 -1 -16q-4 -23 -9 -45l-3 -17l-3 -16l-4 -17q-4 -21 -7 -39
q-7 -46 -10 -82q-2 -22 -2 -41q0 -66 22 -92q21 -25 84 -25q26 0 56 18q22 13 45 36q58 60 98 155t45 185q0 18 1 35q0 41 29 69q29 29 69 29q41 0 70 -29q28 -28 29 -68v-14q0 -14 -1 -29v-26l-1 -23q-1 -22 -1 -42q0 -120 25 -192q31 -90 121 -90q65 0 102 20q13 7 23 16
q3 3 6 7l2 3l2 2q18 26 23 71q2 18 2 38q0 46 -11 106q-12 67 -37 148q-19 58 -47 133q-7 18 -7 35q0 20 9 40q16 38 55 52q18 7 35 7q20 0 40 -9q38 -16 52 -55q82 -213 102 -357q7 -51 7 -97q0 -136 -60 -224q-39 -56 -101 -90q-82 -44 -197 -44q-92 0 -167 46
q-75 45 -117 125q-28 -39 -59 -71q-112 -114 -242 -114q-157 0 -237 98z" />
    <glyph glyph-name="uniFEB4" unicode="&#x633;" horiz-adv-x="1889" arabic-form="medial" 
d="M427 94q-30 37 -49 88l-17 -18q-154 -163 -350 -163q-41 0 -70 29t-29 70t29 70t70 29q115 0 213 108t147 289q10 39 45 59q24 14 50 14q12 0 24 -3q39 -10 60 -44q16 -25 16 -52q0 -11 -3 -22q-19 -82 -19 -159q0 -19 1 -38q5 -94 36 -134q16 -19 44 -19q84 0 163 100
q90 114 130 313q8 40 42 62q25 18 55 18q9 0 18 -2q40 -8 63 -41q18 -26 18 -57q0 -8 -1 -16q-11 -68 -11 -130q0 -37 4 -72q12 -93 49 -137q14 -16 31 -25q26 -12 61 -12q49 0 82 35q47 51 68 160q12 67 12 136q0 31 -2 62v8q0 34 23 62q25 31 64 36q6 1 11 1q33 0 60 -21
q32 -23 38 -63q38 -230 93 -315q65 -100 206 -100q41 0 70 -29t29 -70t-29 -70t-70 -29q-244 0 -368 185q-26 -50 -60 -87q-91 -99 -227 -99q-151 0 -242 107q-30 36 -51 81q-14 -18 -29 -35q-133 -154 -300 -154q-123 0 -198 94z" />
    <glyph glyph-name="uniFEB6" unicode="&#x634;" horiz-adv-x="2889" arabic-form="final" 
d="M520 -613q-144 57 -243 160q-168 174 -168 427q0 15 1 31q8 236 197 531q22 34 62 43q12 3 23 3q27 0 51 -16q35 -22 44 -62q2 -11 2 -21q0 -28 -16 -53q-159 -250 -166 -432v-21q0 -176 113 -293q149 -155 408 -155q39 0 80 5q56 8 106 25q138 47 214 159q85 124 85 309
q0 213 -112 507q-7 18 -7 36q0 19 8 38q16 37 53 52q19 9 39 9q17 0 35 -7q37 -15 54 -51l23 -52l22 -52q66 -157 109 -216q58 -81 138 -93q19 -2 35 -2q58 0 93 29q37 32 61 101q31 91 34 239q1 41 31 70q29 27 68 27h3q40 -1 68 -30t28 -69v-39q0 -231 71 -305
q26 -26 67 -26q50 0 84 37q46 51 66 161q12 65 12 131q0 34 -3 69q-1 6 -1 13q0 32 22 59q25 32 65 36q7 1 13 1q32 0 59 -21q32 -25 38 -65q36 -267 148 -364q40 -34 87 -45q18 -5 37 -6q7 -1 15 -1h13q41 0 70 -29t29 -70t-29 -69q-29 -29 -70 -29q-230 0 -362 191
q-27 -55 -63 -95q-92 -102 -230 -102q-124 0 -208 86q-22 23 -41 52q-24 -33 -54 -59q-90 -76 -216 -76q-33 0 -68 5q-75 10 -138 48v-38q-3 -240 -118 -407q-97 -142 -261 -213q-140 -62 -302 -62q-164 0 -308 56zM1930 1312q-10 -1 -19 -1q-48 0 -83 35q-31 31 -34 75
q-1 6 -1 12q0 37 22 67q6 8 14 15q30 29 73 35q12 2 23 2q30 0 57 -13q38 -17 60 -54q20 -34 20 -71v-7q-3 -53 -48 -80q-28 -17 -61 -17q-12 0 -23 2zM1623 982q-18 36 -6 75t47 58q178 93 383 87q70 -2 137 -15q25 -5 47 -11q9 -3 17 -5l12 -4q37 -12 56 -49q18 -36 6 -75
t-47 -58t-73 -6h-1l-3 1l-4 1q-5 2 -10 3q-16 4 -33 8q-50 10 -103 12q-161 7 -297 -65q-20 -11 -43 -11q-59 0 -85 54z" />
    <glyph glyph-name="uniFEB7" unicode="&#x634;" horiz-adv-x="1658" arabic-form="initial" 
d="M380 73q-22 26 -36 58q-142 -131 -342 -131q-41 0 -70 28q-29 29 -29 70t29 70t70 29q159 0 255 133q36 49 61 115q19 49 30 102q4 20 6 32q7 40 40 64q26 19 55 19q9 0 18 -2q41 -7 65 -40q18 -26 18 -57q0 -8 -1 -16q-4 -23 -9 -45l-3 -17l-3 -16l-4 -17q-4 -21 -7 -39
q-7 -46 -10 -82q-2 -22 -2 -41q0 -66 22 -92q21 -25 84 -25q26 0 56 18q22 13 45 36q58 60 98 155t45 185q0 18 1 35q0 41 29 69q29 29 69 29q41 0 70 -29q28 -28 29 -68v-14q0 -14 -1 -29v-26l-1 -23q-1 -22 -1 -42q0 -120 25 -192q31 -90 121 -90q65 0 102 20q13 7 23 16
q3 3 6 7l2 3l2 2q18 26 23 71q2 18 2 38q0 46 -11 106q-12 67 -37 148q-19 58 -47 133q-7 18 -7 35q0 20 9 40q16 38 55 52q18 7 35 7q20 0 40 -9q38 -16 52 -55q82 -213 102 -357q7 -51 7 -97q0 -136 -60 -224q-39 -56 -101 -90q-82 -44 -197 -44q-92 0 -167 46
q-75 45 -117 125q-28 -39 -59 -71q-112 -114 -242 -114q-157 0 -237 98zM856 1405q-10 -1 -19 -1q-48 0 -83 35q-31 31 -34 75q-1 6 -1 12q0 37 22 67q6 8 14 15q30 29 73 35q12 2 23 2q30 0 57 -13q38 -17 60 -54q20 -34 20 -71v-7q-3 -53 -48 -80q-28 -17 -61 -17
q-12 0 -23 2zM549 1075q-18 36 -6 75t47 58q178 93 383 87q70 -2 137 -15q25 -5 47 -11q9 -3 17 -5l12 -4q37 -12 56 -49q18 -36 6 -75t-47 -58t-73 -6h-1l-3 1l-4 1q-5 2 -10 3q-16 4 -33 8q-50 10 -103 12q-161 7 -297 -65q-20 -11 -43 -11q-59 0 -85 54z" />
    <glyph glyph-name="uniFEB8" unicode="&#x634;" horiz-adv-x="1889" arabic-form="medial" 
d="M427 94q-30 37 -49 88l-17 -18q-154 -163 -350 -163q-41 0 -70 29t-29 70t29 70t70 29q115 0 213 108t147 289q10 39 45 59q24 14 50 14q12 0 24 -3q39 -10 60 -44q16 -25 16 -52q0 -11 -3 -22q-19 -82 -19 -159q0 -19 1 -38q5 -94 36 -134q16 -19 44 -19q84 0 163 100
q90 114 130 313q8 40 42 62q25 18 55 18q9 0 18 -2q40 -8 63 -41q18 -26 18 -57q0 -8 -1 -16q-11 -68 -11 -130q0 -37 4 -72q12 -93 49 -137q14 -16 31 -25q26 -12 61 -12q49 0 82 35q47 51 68 160q12 67 12 136q0 31 -2 62v8q0 34 23 62q25 31 64 36q6 1 11 1q33 0 60 -21
q32 -23 38 -63q38 -230 93 -315q65 -100 206 -100q41 0 70 -29t29 -70t-29 -70t-70 -29q-244 0 -368 185q-26 -50 -60 -87q-91 -99 -227 -99q-151 0 -242 107q-30 36 -51 81q-14 -18 -29 -35q-133 -154 -300 -154q-123 0 -198 94zM936 1312q-10 -1 -19 -1q-48 0 -83 35
q-31 31 -34 75q-1 6 -1 12q0 37 22 67q6 8 14 15q30 29 73 35q12 2 23 2q30 0 57 -13q38 -17 60 -54q20 -34 20 -71v-7q-3 -53 -48 -80q-28 -17 -61 -17q-12 0 -23 2zM629 982q-18 36 -6 75t47 58q178 93 383 87q70 -2 137 -15q25 -5 47 -11q9 -3 17 -5l12 -4q37 -12 56 -49
q18 -36 6 -75t-47 -58t-73 -6h-1l-3 1l-4 1q-5 2 -10 3q-16 4 -33 8q-50 10 -103 12q-161 7 -297 -65q-20 -11 -43 -11q-59 0 -85 54z" />
    <glyph glyph-name="uniFEBA" unicode="&#x635;" horiz-adv-x="2868" arabic-form="final" 
d="M1985 191q32 -1 62 -1q314 0 433 114q63 60 64 160q0 71 -44 129q-43 59 -114 84q-48 17 -101 17q-44 0 -91 -12q-40 -10 -81 -29q-32 -14 -62 -33q-185 -115 -296 -323q-11 -22 -19 -39q-5 -14 -8 -24q15 -6 47 -14l56 -12h2l40 -8q53 -7 112 -9zM350 -564
q-140 77 -221 219q-89 158 -89 356q0 31 2 63q16 232 140 439q21 36 60 46q13 3 25 3q26 0 50 -14q35 -21 45 -61q3 -13 3 -25q0 -26 -14 -50q-97 -163 -111 -345q-2 -29 -2 -56q0 -147 63 -258q111 -195 370 -195q140 0 265 50q148 61 227 177q84 124 84 303q0 189 -94 439
l-18 46q-6 17 -6 34q0 21 9 41q17 37 55 51q18 7 35 7q20 0 40 -9q37 -16 52 -53l17 -45q76 -181 211 -279q12 31 32 69q136 256 367 399q170 105 333 105q87 0 172 -30q131 -46 210 -156t79 -241v-3q-1 -155 -89 -264h122l93 -1q41 0 70 -28q29 -29 29 -70t-29 -70
q-28 -30 -69 -30h-199q-227 0 -359 -7q-137 -7 -227 -7q-131 2 -236 18q-218 28 -379 131l-27 18q3 -40 3 -78q-4 -233 -118 -401q-110 -164 -309 -246q-92 -38 -192 -55q-77 -13 -154 -13q-181 0 -321 76z" />
    <glyph glyph-name="uniFEBB" unicode="&#x635;" horiz-adv-x="1920" arabic-form="initial" 
d="M983 166q40 -4 85 -5h78q58 0 128 13q87 16 160 48q197 85 228 255q2 9 2 19q0 19 -7 42q-11 38 -39 70q-31 36 -79 56q-54 24 -125 24q-10 0 -21 -1q-190 -9 -376 -180q-134 -123 -225 -301q81 -30 191 -40zM553 -163q-39 11 -59 47q-13 23 -13 47q0 14 4 28
q25 87 55 167q-21 18 -40 38q-25 27 -45 56q-10 -15 -20 -28q-144 -193 -435 -193q-41 0 -70 29t-29 70t29 70t70 29q192 0 276 113q69 92 80 265q1 28 3 58q2 40 32 67q28 25 65 25h5q40 -1 68 -30q27 -29 27 -69q0 -29 -2 -57q0 -156 73 -250q105 194 256 333
q239 221 501 232q17 1 34 1q221 0 349 -147q55 -63 79 -143q16 -51 16 -100q0 -27 -5 -53q-47 -255 -310 -386q-188 -93 -401 -93h-47q-23 0 -44 1q-55 1 -104 7q-133 13 -238 54q-20 -58 -38 -120q-9 -32 -36 -52q-26 -20 -59 -20q-13 0 -27 4z" />
    <glyph glyph-name="uniFEBC" unicode="&#x635;" horiz-adv-x="1962" arabic-form="medial" 
d="M1395 677q-148 -12 -309 -119q-153 -102 -214 -216q-5 -11 -10 -21q-6 -15 -9 -28q-5 -17 -5 -30q0 -15 6 -25q22 -39 128 -54q43 -6 97 -8q39 0 90 1q62 12 127 31q51 15 96 33q58 24 103 53q115 76 130 178q2 16 2 32q0 64 -44 113q-57 61 -162 61zM557 87
q-79 60 -130 147l-8 -13q-140 -221 -421 -221q-41 0 -70 29t-29 70t29 70t70 29q131 0 208 73q111 105 130 371q3 40 33 67q29 25 67 25h3q40 -2 68 -32q26 -28 26 -66v-22q0 -234 118 -347q1 81 47 168q85 160 280 289q203 135 402 150q24 2 46 2q186 0 301 -125
q99 -105 99 -244q0 -31 -5 -64q-22 -146 -138 -245h276q41 0 70 -29q28 -29 28 -70t-28 -70q-29 -29 -70 -29h-57q-291 0 -667 -18q-8 0 -28 -1l-18 -1q-109 -19 -209 -19q-260 0 -423 126z" />
    <glyph glyph-name="uniFEBE" unicode="&#x636;" horiz-adv-x="2868" arabic-form="final" 
d="M1985 191q32 -1 62 -1q314 0 433 114q63 60 64 160q0 71 -44 129q-43 59 -114 84q-48 17 -101 17q-44 0 -91 -12q-40 -10 -81 -29q-32 -14 -62 -33q-185 -115 -296 -323q-11 -22 -19 -39q-5 -14 -8 -24q15 -6 47 -14l56 -12h2l40 -8q53 -7 112 -9zM350 -564
q-140 77 -221 219q-89 158 -89 356q0 31 2 63q16 232 140 439q21 36 60 46q13 3 25 3q26 0 50 -14q35 -21 45 -61q3 -13 3 -25q0 -26 -14 -50q-97 -163 -111 -345q-2 -29 -2 -56q0 -147 63 -258q111 -195 370 -195q140 0 265 50q148 61 227 177q84 124 84 303q0 189 -94 439
l-18 46q-6 17 -6 34q0 21 9 41q17 37 55 51q18 7 35 7q20 0 40 -9q37 -16 52 -53l17 -45q76 -181 211 -279q12 31 32 69q136 256 367 399q170 105 333 105q87 0 172 -30q131 -46 210 -156t79 -241v-3q-1 -155 -89 -264h122l93 -1q41 0 70 -28q29 -29 29 -70t-29 -70
q-28 -30 -69 -30h-199q-227 0 -359 -7q-137 -7 -227 -7q-131 2 -236 18q-218 28 -379 131l-27 18q3 -40 3 -78q-4 -233 -118 -401q-110 -164 -309 -246q-92 -38 -192 -55q-77 -13 -154 -13q-181 0 -321 76zM2401 1260q0 -52 -40 -94q-41 -41 -89 -41q-50 0 -107 40
q-40 43 -40 95q0 46 43 90q44 45 93 45q50 0 94 -41q46 -43 46 -94z" />
    <glyph glyph-name="uniFEBF" unicode="&#x636;" horiz-adv-x="1920" arabic-form="initial" 
d="M983 166q40 -4 85 -5h78q58 0 128 13q87 16 160 48q197 85 228 255q2 9 2 19q0 19 -7 42q-11 38 -39 70q-31 36 -79 56q-54 24 -125 24q-10 0 -21 -1q-190 -9 -376 -180q-134 -123 -225 -301q81 -30 191 -40zM553 -163q-39 11 -59 47q-13 23 -13 47q0 14 4 28
q25 87 55 167q-21 18 -40 38q-25 27 -45 56q-10 -15 -20 -28q-144 -193 -435 -193q-41 0 -70 29t-29 70t29 70t70 29q192 0 276 113q69 92 80 265q1 28 3 58q2 40 32 67q28 25 65 25h5q40 -1 68 -30q27 -29 27 -69q0 -29 -2 -57q0 -156 73 -250q105 194 256 333
q239 221 501 232q17 1 34 1q221 0 349 -147q55 -63 79 -143q16 -51 16 -100q0 -27 -5 -53q-47 -255 -310 -386q-188 -93 -401 -93h-47q-23 0 -44 1q-55 1 -104 7q-133 13 -238 54q-20 -58 -38 -120q-9 -32 -36 -52q-26 -20 -59 -20q-13 0 -27 4zM1550 1260q0 -52 -40 -94
q-41 -41 -89 -41q-50 0 -107 40q-40 43 -40 95q0 46 43 90q44 45 93 45q50 0 94 -41q46 -43 46 -94z" />
    <glyph glyph-name="uniFEC0" unicode="&#x636;" horiz-adv-x="1962" arabic-form="medial" 
d="M1395 677q-148 -12 -309 -119q-153 -102 -214 -216q-5 -11 -10 -21q-6 -15 -9 -28q-5 -17 -5 -30q0 -15 6 -25q22 -39 128 -54q43 -6 97 -8q39 0 90 1q62 12 127 31q51 15 96 33q58 24 103 53q115 76 130 178q2 16 2 32q0 64 -44 113q-57 61 -162 61zM557 87
q-79 60 -130 147l-8 -13q-140 -221 -421 -221q-41 0 -70 29t-29 70t29 70t70 29q131 0 208 73q111 105 130 371q3 40 33 67q29 25 67 25h3q40 -2 68 -32q26 -28 26 -66v-22q0 -234 118 -347q1 81 47 168q85 160 280 289q203 135 402 150q24 2 46 2q186 0 301 -125
q99 -105 99 -244q0 -31 -5 -64q-22 -146 -138 -245h276q41 0 70 -29q28 -29 28 -70t-28 -70q-29 -29 -70 -29h-57q-291 0 -667 -18q-8 0 -28 -1l-18 -1q-109 -19 -209 -19q-260 0 -423 126zM1536 1260q0 -52 -40 -94q-41 -41 -89 -41q-50 0 -107 40q-40 43 -40 95
q0 46 43 90q44 45 93 45q50 0 94 -41q46 -43 46 -94z" />
    <glyph glyph-name="uniFEC2" unicode="&#x637;" horiz-adv-x="1867" arabic-form="final" 
d="M1500 554q2 16 2 31q0 65 -45 113q-57 62 -161 62l-26 -1q-139 -11 -301 -131q-155 -116 -228 -252q-25 -47 -32 -84q-2 -11 -2 -21q0 -17 6 -27q14 -23 63 -39q190 4 412 47q106 21 197 104q99 89 115 198zM1865 198q41 0 70 -29t29 -70t-29 -70q-29 -28 -70 -28
q-358 0 -771 -12q-8 -1 -28 -1l-23 -1l-24 -1q-29 -1 -54 -1q-85 0 -152 10q-33 5 -62 12h-12q-362 0 -663 138q-37 17 -52 55q-6 18 -6 35q0 21 9 41q17 37 56 51q18 7 35 7q20 0 40 -9q168 -77 357 -105q-5 26 -5 53q0 90 57 196l13 23q16 145 16 308q0 317 -59 703
q-2 9 -2 18q0 30 20 56q24 33 64 39q8 1 16 1q32 0 58 -19q33 -25 39 -65q63 -412 63 -729q0 -32 -1 -63q232 197 461 215q22 2 44 2q186 0 303 -125q99 -106 99 -246q0 -30 -5 -62q-26 -174 -171 -309l-23 -21q199 3 363 3z" />
    <glyph glyph-name="uniFEC3" unicode="&#x637;" horiz-adv-x="1576" arabic-form="initial" 
d="M853 239q285 61 387 181q36 41 49 90q4 17 6 36q0 7 1 15v13q0 87 -50 137t-138 50q-120 0 -256 -100q-103 -75 -207 -203q-93 -112 -182 -257q245 7 390 38zM1384 852q109 -108 109 -278q0 -239 -219 -384q-142 -93 -379 -144q-189 -41 -543 -45q-28 -54 -52 -106
q-27 -57 -90 -57q-22 0 -41 9q-38 18 -52 56q-6 17 -6 33q0 22 10 43l10 21h-132q-41 0 -70 29q-29 28 -29 69t29 70t70 29h234q43 77 88 149q0 10 2 20q37 198 37 442q0 305 -58 683q-1 8 -1 16q0 32 19 58q24 33 65 39q8 1 16 1q31 0 57 -19q33 -24 39 -65
q65 -424 65 -725q0 -72 -4 -136q275 298 550 298q168 0 276 -106z" />
    <glyph glyph-name="uniFEC4" unicode="&#x637;" horiz-adv-x="1583" arabic-form="medial" 
d="M1257 554q2 16 2 31q0 65 -45 113q-57 62 -161 62l-26 -1q-140 -11 -301 -131q-156 -116 -228 -252q-26 -47 -32 -84q-2 -11 -2 -21q0 -17 6 -27q15 -27 78 -43q191 11 397 51q106 21 197 104q99 89 115 198zM1590 198q41 0 70 -29t29 -70t-29 -70q-29 -28 -70 -28
q-327 0 -740 -12q-8 -1 -28 -1l-22 -1l-24 -1q-29 -1 -55 -1q-84 0 -152 10q-20 3 -38 7q-78 -4 -201 -4q-71 0 -156 1h-44l-45 1q-51 1 -93 1q-41 0 -70 28q-29 29 -29 70t29 70t70 29h95l90 -2q68 -1 100 -1q-11 37 -11 76q0 91 57 198l13 23q16 146 16 311q0 315 -59 700
q-1 8 -1 16q0 32 19 58q25 33 65 39q8 1 16 1q32 0 58 -19q33 -25 39 -65q62 -407 62 -721q0 -36 -1 -71q233 197 462 215q22 2 44 2q186 0 303 -125q98 -105 98 -244q0 -31 -5 -64q-25 -174 -170 -309l-22 -20q175 2 330 2z" />
    <glyph glyph-name="uniFEC6" unicode="&#x638;" horiz-adv-x="1867" arabic-form="final" 
d="M1500 554q2 16 2 31q0 65 -45 113q-57 62 -161 62l-26 -1q-139 -11 -301 -131q-155 -116 -228 -252q-25 -47 -32 -84q-2 -11 -2 -21q0 -17 6 -27q14 -23 63 -39q190 4 412 47q106 21 197 104q99 89 115 198zM1865 198q41 0 70 -29t29 -70t-29 -70q-29 -28 -70 -28
q-358 0 -771 -12q-8 -1 -28 -1l-23 -1l-24 -1q-29 -1 -54 -1q-85 0 -152 10q-33 5 -62 12h-12q-362 0 -663 138q-37 17 -52 55q-6 18 -6 35q0 21 9 41q17 37 56 51q18 7 35 7q20 0 40 -9q168 -77 357 -105q-5 26 -5 53q0 90 57 196l13 23q16 145 16 308q0 317 -59 703
q-2 9 -2 18q0 30 20 56q24 33 64 39q8 1 16 1q32 0 58 -19q33 -25 39 -65q63 -412 63 -729q0 -32 -1 -63q232 197 461 215q22 2 44 2q186 0 303 -125q99 -106 99 -246q0 -30 -5 -62q-26 -174 -171 -309l-23 -21q199 3 363 3zM1438 1408q0 -52 -40 -94q-41 -41 -89 -41
q-50 0 -107 40q-40 43 -40 95q0 46 43 90q44 45 93 45q50 0 94 -41q46 -43 46 -94z" />
    <glyph glyph-name="uniFEC7" unicode="&#x638;" horiz-adv-x="1576" arabic-form="initial" 
d="M853 239q285 61 387 181q36 41 49 90q4 17 6 36q0 7 1 15v13q0 87 -50 137t-138 50q-120 0 -256 -100q-103 -75 -207 -203q-93 -112 -182 -257q245 7 390 38zM1384 852q109 -108 109 -278q0 -239 -219 -384q-142 -93 -379 -144q-189 -41 -543 -45q-28 -54 -52 -106
q-27 -57 -90 -57q-22 0 -41 9q-38 18 -52 56q-6 17 -6 33q0 22 10 43l10 21h-132q-41 0 -70 29q-29 28 -29 69t29 70t70 29h234q43 77 88 149q0 10 2 20q37 198 37 442q0 305 -58 683q-1 8 -1 16q0 32 19 58q24 33 65 39q8 1 16 1q31 0 57 -19q33 -24 39 -65
q65 -424 65 -725q0 -72 -4 -136q275 298 550 298q168 0 276 -106zM1225 1408q0 -52 -40 -94q-41 -41 -89 -41q-50 0 -107 40q-40 43 -40 95q0 46 43 90q44 45 93 45q50 0 94 -41q46 -43 46 -94z" />
    <glyph glyph-name="uniFEC8" unicode="&#x638;" horiz-adv-x="1583" arabic-form="medial" 
d="M1257 554q2 16 2 31q0 65 -45 113q-57 62 -161 62l-26 -1q-140 -11 -301 -131q-156 -116 -228 -252q-26 -47 -32 -84q-2 -11 -2 -21q0 -17 6 -27q15 -27 78 -43q191 11 397 51q106 21 197 104q99 89 115 198zM1590 198q41 0 70 -29t29 -70t-29 -70q-29 -28 -70 -28
q-327 0 -740 -12q-8 -1 -28 -1l-22 -1l-24 -1q-29 -1 -55 -1q-84 0 -152 10q-20 3 -38 7q-78 -4 -201 -4q-71 0 -156 1h-44l-45 1q-51 1 -93 1q-41 0 -70 28q-29 29 -29 70t29 70t70 29h95l90 -2q68 -1 100 -1q-11 37 -11 76q0 91 57 198l13 23q16 146 16 311q0 315 -59 700
q-1 8 -1 16q0 32 19 58q25 33 65 39q8 1 16 1q32 0 58 -19q33 -25 39 -65q62 -407 62 -721q0 -36 -1 -71q233 197 462 215q22 2 44 2q186 0 303 -125q98 -105 98 -244q0 -31 -5 -64q-25 -174 -170 -309l-22 -20q175 2 330 2zM1195 1408q0 -52 -40 -94q-41 -41 -89 -41
q-50 0 -107 40q-40 43 -40 95q0 46 43 90q44 45 93 45q50 0 94 -41q46 -43 46 -94z" />
    <glyph glyph-name="uniFECA" unicode="&#x639;" horiz-adv-x="1357" arabic-form="final" 
d="M740 494h1l50 23q187 83 298 193q16 16 24 34q5 11 5 21q0 3 -1 6q-3 9 -14 17q-8 6 -20 10q-50 17 -124 17q-28 0 -59 -2q-39 -3 -84 -10q-16 -3 -33 -6l-14 -2l-11 -3q-125 -24 -237 -76q109 -124 219 -222zM404 -690q-187 110 -262 310q-38 100 -38 197q0 111 49 217
q101 218 393 369q-132 126 -256 280q-22 28 -22 62q0 8 1 17q8 44 45 67q180 112 405 157q116 23 205 27q17 1 34 1q108 0 190 -29q134 -47 161 -171q6 -26 6 -52q0 -38 -13 -76q-22 -65 -74 -117q-69 -67 -163 -128q-71 -46 -152 -86q115 -85 185 -114q104 -43 257 -43
q41 0 70 -29t29 -70t-29 -70t-70 -29q-198 0 -341 61q-87 38 -229 143l-31 23l-46 35q-295 -139 -375 -311q-31 -67 -31 -136q0 -66 28 -135q54 -129 174 -200q122 -71 275 -71q27 0 55 2q186 14 371 125q24 14 50 14q12 0 25 -3q40 -10 61 -46q14 -24 14 -50q0 -12 -3 -25
q-11 -39 -46 -60q-260 -155 -525 -155q-208 0 -377 99z" />
    <glyph glyph-name="uniFECB" unicode="&#x639;" horiz-adv-x="1138" arabic-form="initial" 
d="M-63 29q-29 29 -29 70t29 70t70 29q167 0 260 1q-17 18 -32 38q-87 116 -87 257v13q4 142 95 255q90 113 234 156q73 22 146 22q75 0 149 -24q100 -32 208 -114q33 -25 38 -66q1 -8 1 -15q0 -31 -20 -58q-24 -32 -65 -38q-8 -1 -16 -1q-31 0 -57 20q-92 70 -169 90
q-34 8 -69 8q-44 0 -90 -13q-82 -25 -134 -87q-51 -63 -53 -140v-9q0 -75 46 -136q49 -65 132 -94q65 -22 149 -22q36 0 76 4q52 6 116 20l57 13l56 13q13 3 25 3q25 0 49 -14q35 -21 45 -60q3 -13 3 -26q0 -25 -13 -48q-20 -35 -59 -46q-236 -65 -486 -86
q-176 -14 -535 -14q-41 0 -70 29z" />
    <glyph glyph-name="uniFECC" unicode="&#x639;" horiz-adv-x="1169" arabic-form="medial" 
d="M620 358q133 89 212 198q43 60 43 101q0 14 -5 26q-17 39 -104 50q-46 6 -92 6q-174 0 -346 -82q145 -195 292 -299zM617 127q-30 -15 -61 -29q-222 -98 -558 -98q-41 0 -70 29t-29 70t29 70t70 29q262 0 427 60q-159 134 -325 377q-17 25 -17 55q0 11 2 22q10 42 46 64
q270 160 543 160q58 0 116 -7q114 -14 187 -71q27 -23 48 -50q15 -22 26 -46q21 -48 21 -102q0 -26 -5 -53q-16 -85 -75 -167q-71 -99 -177 -184q156 -58 348 -58q41 0 70 -29t29 -70t-29 -70t-70 -29q-307 0 -546 127z" />
    <glyph glyph-name="uniFECE" unicode="&#x63a;" horiz-adv-x="1357" arabic-form="final" 
d="M740 494h1l50 23q187 83 298 193q16 16 24 34q5 11 5 21q0 3 -1 6q-3 9 -14 17q-8 6 -20 10q-50 17 -124 17q-28 0 -59 -2q-39 -3 -84 -10q-16 -3 -33 -6l-14 -2l-11 -3q-125 -24 -237 -76q109 -124 219 -222zM404 -690q-187 110 -262 310q-38 100 -38 197q0 111 49 217
q101 218 393 369q-132 126 -256 280q-22 28 -22 62q0 8 1 17q8 44 45 67q180 112 405 157q116 23 205 27q17 1 34 1q108 0 190 -29q134 -47 161 -171q6 -26 6 -52q0 -38 -13 -76q-22 -65 -74 -117q-69 -67 -163 -128q-71 -46 -152 -86q115 -85 185 -114q104 -43 257 -43
q41 0 70 -29t29 -70t-29 -70t-70 -29q-198 0 -341 61q-87 38 -229 143l-31 23l-46 35q-295 -139 -375 -311q-31 -67 -31 -136q0 -66 28 -135q54 -129 174 -200q122 -71 275 -71q27 0 55 2q186 14 371 125q24 14 50 14q12 0 25 -3q40 -10 61 -46q14 -24 14 -50q0 -12 -3 -25
q-11 -39 -46 -60q-260 -155 -525 -155q-208 0 -377 99zM968 1405q0 -52 -40 -94q-41 -41 -89 -41q-50 0 -107 40q-40 43 -40 95q0 46 43 90q44 45 93 45q50 0 94 -41q46 -43 46 -94z" />
    <glyph glyph-name="uniFECF" unicode="&#x63a;" horiz-adv-x="1138" arabic-form="initial" 
d="M-63 29q-29 29 -29 70t29 70t70 29q167 0 260 1q-17 18 -32 38q-87 116 -87 257v13q4 142 95 255q90 113 234 156q73 22 146 22q75 0 149 -24q100 -32 208 -114q33 -25 38 -66q1 -8 1 -15q0 -31 -20 -58q-24 -32 -65 -38q-8 -1 -16 -1q-31 0 -57 20q-92 70 -169 90
q-34 8 -69 8q-44 0 -90 -13q-82 -25 -134 -87q-51 -63 -53 -140v-9q0 -75 46 -136q49 -65 132 -94q65 -22 149 -22q36 0 76 4q52 6 116 20l57 13l56 13q13 3 25 3q25 0 49 -14q35 -21 45 -60q3 -13 3 -26q0 -25 -13 -48q-20 -35 -59 -46q-236 -65 -486 -86
q-176 -14 -535 -14q-41 0 -70 29zM729 1315q0 -52 -40 -94q-41 -41 -89 -41q-50 0 -107 40q-40 43 -40 95q0 46 43 90q44 45 93 45q50 0 94 -41q46 -43 46 -94z" />
    <glyph glyph-name="uniFED0" unicode="&#x63a;" horiz-adv-x="1169" arabic-form="medial" 
d="M620 358q133 89 212 198q43 60 43 101q0 14 -5 26q-17 39 -104 50q-46 6 -92 6q-174 0 -346 -82q145 -195 292 -299zM617 127q-30 -15 -61 -29q-222 -98 -558 -98q-41 0 -70 29t-29 70t29 70t70 29q262 0 427 60q-159 134 -325 377q-17 25 -17 55q0 11 2 22q10 42 46 64
q270 160 543 160q58 0 116 -7q114 -14 187 -71q27 -23 48 -50q15 -22 26 -46q21 -48 21 -102q0 -26 -5 -53q-16 -85 -75 -167q-71 -99 -177 -184q156 -58 348 -58q41 0 70 -29t29 -70t-29 -70t-70 -29q-307 0 -546 127zM756 1314q0 -52 -40 -94q-41 -41 -89 -41
q-50 0 -107 40q-40 43 -40 95q0 46 43 90q44 45 93 45q50 0 94 -41q46 -43 46 -94z" />
    <glyph glyph-name="uniFED2" unicode="&#x641;" horiz-adv-x="2106" arabic-form="final" 
d="M1501 668q-62 -80 -62 -179q0 -143 154 -214q150 78 166 225q2 19 2 36q0 96 -60 163q-37 41 -81 41q-64 0 -119 -72zM953 -20q-82 0 -164 7q-112 10 -209 33q-265 62 -381 207q-101 127 -101 271q0 16 1 33q13 163 150 317q27 31 68 33h8q36 0 64 -24q30 -27 33 -68v-6
q0 -37 -25 -66q-101 -115 -101 -218q0 -12 1 -24q4 -40 25 -78q7 -13 17 -27l8 -11l6 -8q70 -88 255 -134q155 -39 339 -39h6q246 0 401 25q-112 115 -112 286q0 166 102 300q115 149 276 149q132 0 228 -107q60 -67 89 -162q22 -70 22 -141q0 -24 -3 -49
q-17 -155 -120 -266q123 -16 289 -16q41 0 70 -29q29 -28 29 -69t-29 -70t-70 -29q-147 0 -255 10q-152 14 -266 50l-7 2q-39 -15 -82 -27q-129 -35 -301 -48q-65 -4 -139 -6q-29 0 -61 -1h-61zM1764 1353q0 -52 -40 -94q-41 -41 -89 -41q-50 0 -107 40q-40 43 -40 95
q0 46 43 90q44 45 93 45q50 0 94 -41q46 -43 46 -94z" />
    <glyph glyph-name="uniFED3" unicode="&#x641;" horiz-adv-x="932" arabic-form="initial" 
d="M427 925q-43 -14 -79 -70q-36 -55 -49 -127q-4 -21 -4 -39q0 -29 9 -50q9 -25 31 -43q47 -38 140 -45q16 -1 31 -1q76 0 150 24q-1 27 -5 55q-23 163 -112 252q-48 47 -90 47q-11 0 -22 -3zM-84 29q-29 29 -29 70t29 70t70 29h67q43 1 79 2q98 5 175 18q213 37 295 142
q-50 -7 -98 -7q-58 0 -112 10q-110 21 -182 80q-112 92 -112 240q0 38 7 79q22 129 93 224q72 96 169 127q28 9 57 12q11 1 23 1q26 0 51 -5q96 -17 180 -100q138 -138 169 -369q7 -55 7 -105q0 -163 -76 -280q-115 -176 -392 -235q-93 -20 -206 -27q-78 -5 -194 -5
q-41 0 -70 29zM557 1483q0 -52 -40 -94q-41 -41 -89 -41q-50 0 -107 40q-40 43 -40 95q0 46 43 90q44 45 93 45q50 0 94 -41q46 -43 46 -94z" />
    <glyph glyph-name="uniFED4" unicode="&#x641;" horiz-adv-x="1001" arabic-form="medial" 
d="M361 633q-35 -64 -36 -133v-8q0 -63 31 -110q46 -70 133 -112q83 42 129 111q34 52 34 125v4q0 77 -35 143q-7 13 -16 25q-11 16 -24 28q-35 34 -75 34q-83 0 -141 -107zM898 1q-75 1 -136 6q-157 12 -272 50q-44 -15 -94 -26q-94 -20 -219 -27q-49 -3 -176 -4
q-41 0 -70 29t-29 70t29 70t70 29l103 1q78 2 139 8q-29 31 -53 67q-62 96 -62 217v15q3 116 59 221q54 99 137 155q84 56 178 56q89 0 164 -50q76 -50 125 -142q59 -110 59 -237v-8q-2 -131 -67 -229q-23 -34 -50 -64q65 -7 148 -9l125 -1q41 0 70 -29t29 -70t-29 -70
t-70 -29zM630 1333q0 -52 -40 -94q-41 -41 -89 -41q-50 0 -107 40q-40 43 -40 95q0 46 43 90q44 45 93 45q50 0 94 -41q46 -43 46 -94z" />
    <glyph glyph-name="uniFED6" unicode="&#x642;" horiz-adv-x="1570" arabic-form="final" 
d="M975 635q-24 -12 -45 -34q-74 -76 -74 -208v-10q3 -86 59 -126q82 -59 302 -59h107q-14 157 -87 294q-85 160 -194 160q-35 0 -68 -17zM265 -447q-173 173 -173 423q0 294 172 507q26 32 66 36q7 1 13 1q33 0 60 -22q32 -26 36 -67q1 -6 1 -13q0 -32 -22 -59
q-128 -159 -128 -383v-3q0 -166 115 -280q140 -140 382 -140q238 0 379 143q115 116 149 304h-98q-240 0 -369 66q-183 94 -189 312v19q0 209 129 342q108 111 255 111q213 0 352 -234q112 -189 128 -418h49q41 0 70 -29t29 -70t-29 -70t-70 -29h-57q-39 -271 -208 -443
q-200 -202 -520 -202q-324 0 -522 198zM680 1132q-18 36 -6 75t47 58q178 93 383 87q70 -2 137 -15q25 -5 47 -11q9 -3 17 -5l12 -4q37 -12 56 -49q18 -36 6 -75t-47 -58t-73 -6h-1l-3 1l-4 1q-5 2 -10 3q-16 4 -33 8q-50 10 -103 12q-161 7 -297 -65q-20 -11 -43 -11
q-59 0 -85 54z" />
    <glyph glyph-name="uniFED7" unicode="&#x642;" horiz-adv-x="932" arabic-form="initial" 
d="M427 925q-43 -14 -79 -70q-36 -55 -49 -127q-4 -21 -4 -39q0 -29 9 -50q9 -25 31 -43q47 -38 140 -45q16 -1 31 -1q76 0 150 24q-1 27 -5 55q-23 163 -112 252q-48 47 -90 47q-11 0 -22 -3zM-84 29q-29 29 -29 70t29 70t70 29h67q43 1 79 2q98 5 175 18q213 37 295 142
q-50 -7 -98 -7q-58 0 -112 10q-110 21 -182 80q-112 92 -112 240q0 38 7 79q22 129 93 224q72 96 169 127q28 9 57 12q11 1 23 1q26 0 51 -5q96 -17 180 -100q138 -138 169 -369q7 -55 7 -105q0 -163 -76 -280q-115 -176 -392 -235q-93 -20 -206 -27q-78 -5 -194 -5
q-41 0 -70 29zM63 1372q-18 36 -6 75t47 58q178 93 383 87q70 -2 137 -15q25 -5 47 -11q9 -3 17 -5l12 -4q37 -12 56 -49q18 -36 6 -75t-47 -58t-73 -6h-1l-3 1l-4 1q-5 2 -10 3q-16 4 -33 8q-50 10 -103 12q-161 7 -297 -65q-20 -11 -43 -11q-59 0 -85 54z" />
    <glyph glyph-name="uniFED8" unicode="&#x642;" horiz-adv-x="1001" arabic-form="medial" 
d="M361 633q-35 -64 -36 -133v-8q0 -63 31 -110q46 -70 133 -112q83 42 129 111q34 52 34 125v4q0 77 -35 143q-7 13 -16 25q-11 16 -24 28q-35 34 -75 34q-83 0 -141 -107zM898 1q-75 1 -136 6q-157 12 -272 50q-44 -15 -94 -26q-94 -20 -219 -27q-49 -3 -176 -4
q-41 0 -70 29t-29 70t29 70t70 29l103 1q78 2 139 8q-29 31 -53 67q-62 96 -62 217v15q3 116 59 221q54 99 137 155q84 56 178 56q89 0 164 -50q76 -50 125 -142q59 -110 59 -237v-8q-2 -131 -67 -229q-23 -34 -50 -64q65 -7 148 -9l125 -1q41 0 70 -29t29 -70t-29 -70
t-70 -29zM135 1204q-18 36 -6 75t47 58q178 93 383 87q70 -2 137 -15q25 -5 47 -11q9 -3 17 -5l12 -4q37 -12 56 -49q18 -36 6 -75t-47 -58t-73 -6h-1l-3 1l-4 1q-5 2 -10 3q-16 4 -33 8q-50 10 -103 12q-161 7 -297 -65q-20 -11 -43 -11q-59 0 -85 54z" />
    <glyph glyph-name="uniFEDA" unicode="&#x643;" horiz-adv-x="2076" arabic-form="final" 
d="M735 535q-11 19 -5 39q5 21 24 31l157 90q-17 7 -32 16q-47 29 -73 82q-26 54 -21 111q5 54 37 101q31 47 80 75q94 54 204 22q20 -5 30 -24q11 -19 5 -39q-6 -21 -25 -31q-18 -10 -39 -4q-68 19 -125 -13q-58 -34 -65 -96q-6 -65 46 -97q23 -14 54 -15q13 -1 26 1
q10 1 20 3q27 5 60 19l30 13l30 15q18 9 38 2q20 -6 30 -24q9 -19 3 -39q-5 -20 -23 -30l-396 -227q-12 -7 -26 -7q-29 0 -44 26zM2071 198q41 0 70 -29t29 -70t-29 -70t-70 -29q-174 0 -275 102q-45 46 -73 109q-33 -35 -73 -64q-198 -145 -621 -145q-689 0 -873 263
q-119 172 -26 425q14 38 51 55t76 3q38 -14 55 -51t3 -76q-57 -156 3 -243q53 -75 195 -120q188 -59 516 -59q379 0 522 121q120 101 120 339v25v62q0 102 1 201q2 314 5 473l1 48q1 40 30 69q28 28 69 28h2q40 -1 69 -30q28 -30 28 -71l-1 -48q-10 -544 -3 -815v-94
q0 -23 1 -41q1 -47 7 -84q13 -97 56 -140q44 -44 135 -44z" />
    <glyph glyph-name="uniFEDB" unicode="&#x643;" horiz-adv-x="1147" arabic-form="initial" 
d="M0 0q-41 0 -70 29t-29 70t29 70t70 29q257 0 374 30q166 44 225 170q34 72 -12 178q-18 40 -47 85q-23 34 -51 69q-75 91 -180 176q-91 75 -168 116q-36 19 -48 58t7 75t58 48t76 -7q93 -49 199 -135q121 -99 209 -206q138 -170 164 -324q19 -117 -28 -216
q-98 -211 -355 -278q-94 -24 -218 -32q-48 -3 -106 -4l-51 -1h-48zM-40 1229q-26 18 -37 48q-13 39 5 76q17 36 56 50q639 221 986 515q31 27 72 23q41 -3 68 -34q26 -31 23 -72q-4 -41 -35 -67q-236 -200 -517 -339q-197 -97 -532 -213q-16 -5 -32 -5q-32 0 -57 18z" />
    <glyph glyph-name="uniFEDC" unicode="&#x643;" horiz-adv-x="1196" arabic-form="medial" 
d="M1196 200q37 -2 66 -31t29 -70t-29 -70t-70 -29q-268 -6 -494 267q-12 -28 -29 -53q-73 -111 -232 -165q-147 -49 -437 -49q-44 0 -73 29t-29 70q0 40 29 69t72 30q423 -1 505 125q58 86 -18 262l-4 12q-62 114 -185 364l-53 109q-19 37 -5 76q13 38 49 57q37 18 76 5
q39 -14 57 -50l54 -110q213 -434 328 -593q190 -263 393 -255zM130 1207q-31 0 -57 18t-36 49q-14 38 4 75t57 50q608 211 1033 571q31 27 72 23q41 -3 68 -34q26 -32 23 -72q-4 -41 -35 -68q-453 -383 -1097 -606q-15 -6 -32 -6z" />
    <glyph glyph-name="uniFEDE" unicode="&#x644;" horiz-adv-x="1532" arabic-form="final" 
d="M1538 197q41 0 70 -29q29 -28 29 -69t-29 -70t-70 -29q-119 0 -204 39q-1 -84 -10 -154q-36 -264 -212 -401q-169 -131 -417 -140h-28q-239 0 -395 123q-211 167 -215 465v13q0 117 33 247q27 105 73 211q16 38 54 53q18 7 37 7t38 -8q38 -16 53 -54q7 -18 7 -37t-8 -39
q-31 -73 -52 -146q-30 -101 -36 -191q-2 -23 -2 -45q0 -210 140 -321q103 -80 270 -80h24q184 6 303 98q116 90 139 287q6 54 6 120q0 30 -1 62q-2 42 -6 94l-3 46l-4 46q-8 88 -10 130q-13 219 -45 660q-10 138 -21 283q-3 46 -6 87q-1 13 -2 24v8l-1 1v8q0 36 24 64
q27 31 68 34h8q35 0 63 -24q31 -26 35 -67v-9l2 -24q3 -42 6 -87q11 -145 21 -283q32 -442 45 -663q11 -140 72 -195q50 -45 157 -45z" />
    <glyph glyph-name="uniFEDF" unicode="&#x644;" horiz-adv-x="569" arabic-form="initial" 
d="M-71 29q-29 29 -29 70t29 70t70 29q35 0 68 3q42 5 76 15q88 26 116 86q2 6 5 14q4 11 7 24q9 35 15 86q11 89 11 214q0 73 -4 158q-15 359 -74 665q-2 11 -2 21q0 29 17 54q23 33 63 41q10 2 20 2q29 0 54 -17q34 -23 42 -63q62 -321 77 -695q4 -91 4 -170
q0 -296 -56 -417q-49 -106 -162 -162q-113 -57 -277 -57q-41 0 -70 29z" />
    <glyph glyph-name="uniFEE0" unicode="&#x644;" horiz-adv-x="674" arabic-form="medial" 
d="M678 198q41 0 70 -29q28 -29 28 -70t-28 -70q-29 -29 -70 -29q-174 0 -275 102q-13 13 -25 28q-10 -13 -20 -24q-68 -70 -174 -93q-41 -9 -94 -11l-48 -2h-46q-41 1 -70 30t-29 70t29 70t70 29q95 0 136 6q56 10 84 39q25 26 41 77q21 66 24 169v55q1 19 1 31q0 13 -1 20
q-3 113 -3 273q0 228 6 551l1 48q0 41 30 69q28 28 67 28h3q41 -1 70 -30q27 -29 27 -68v-3l-1 -48q-6 -302 -6 -520q0 -175 4 -295q1 -30 1 -58t-1 -55q1 -83 12 -136q16 -74 52 -110q43 -44 135 -44z" />
    <glyph glyph-name="uniFEE2" unicode="&#x645;" horiz-adv-x="1275" arabic-form="final" 
d="M794 213l44 -5q40 4 68 21q31 19 45 78q9 36 9 76q0 27 -4 56q-10 76 -43 134t-71 69q-8 2 -16 2q-31 0 -78 -27q-66 -38 -123 -107q-54 -65 -76 -130q-12 -34 -12 -59q0 -17 6 -29v-1l1 -1q2 -3 5 -6q10 -9 27 -18l3 -1q30 -13 59 -23q62 -18 156 -29zM164 -808
q-28 24 -34 60q-15 92 -28 192q-18 139 -30 276q-17 211 -17 402q0 146 10 280q4 59 58 83q22 10 42 10q30 0 58 -22q56 -42 123 -85q5 22 12 45q33 104 114 202q85 103 187 159q88 49 168 49q35 0 69 -10q110 -32 181 -149q58 -95 75 -219q6 -44 6 -85q0 -101 -35 -183h96
q40 1 57 1q41 0 70 -29t29 -70t-29 -70t-70 -29h-122q-196 0 -319 10h-21q-105 0 -235 44q-47 14 -84 32q-117 50 -241 127q-1 -44 -1 -89q0 -226 25 -482q11 -110 26 -218q6 -42 12 -81q4 -31 9 -59q2 -9 2 -18q0 -30 -19 -56q-24 -33 -64 -40q-8 -1 -17 -1q-35 0 -63 23z
" />
    <glyph glyph-name="uniFEE3" unicode="&#x645;" horiz-adv-x="1165" arabic-form="initial" 
d="M470 347q7 -6 13 -13q119 -153 236 -159h6q58 0 108 51t50 156v8q0 36 -12 78q-13 50 -38 89q-52 82 -140 82q-53 0 -95 -53q-34 -42 -94 -168l-16 -35zM708 -22q-104 5 -206 72q-75 48 -141 122l-21 -24q-137 -148 -345 -148q-41 0 -70 29t-29 70t29 70t70 29
q119 0 196 81q57 60 135 224l27 57q16 31 29 55q34 61 67 102q100 120 244 120q197 0 307 -174q78 -123 81 -270v-10q0 -187 -107 -296q-108 -110 -247 -110z" />
    <glyph glyph-name="uniFEE4" unicode="&#x645;" horiz-adv-x="1214" arabic-form="medial" 
d="M810 237q50 51 50 145v7q0 40 -10 82q-13 50 -35 88q-47 79 -133 79q-52 0 -93 -52q-32 -42 -90 -167l-17 -38l-18 -39l8 -9q113 -144 221 -150h8q57 0 109 54zM1217 199q40 0 68 -27q29 -29 30 -69v-3q0 -39 -27 -68q-29 -29 -70 -30h-7q-148 0 -244 102l-5 6l-11 -12
q-111 -113 -251 -113l-18 1q-172 9 -328 180q-138 -166 -358 -166q-41 0 -70 29t-29 69q0 41 29 70t70 29q119 0 194 81q55 59 130 223l26 57q15 31 28 55q32 61 65 102q99 121 243 121q199 0 303 -177q70 -117 73 -263q2 -34 8 -63q8 -37 24 -64q39 -70 122 -70h5z" />
    <glyph glyph-name="uniFEE6" unicode="&#x646;" horiz-adv-x="1728" arabic-form="final" 
d="M1729 198q41 0 70 -29t29 -70t-29 -70t-70 -29q-161 0 -267 72v-7q1 -23 1 -45q0 -258 -118 -431q-89 -132 -240 -202q-155 -71 -369 -71q-331 0 -530 199q-169 170 -169 414q0 134 52 280t136 251q26 32 66 36q6 1 11 1q34 0 62 -22q32 -26 36 -67q1 -6 1 -11
q0 -33 -22 -61q-64 -79 -104 -193q-40 -113 -40 -214v-3q0 -161 111 -271q141 -141 390 -141q320 0 446 186q84 123 84 322q0 17 -1 35q-8 212 -102 448q-7 19 -7 38q0 14 4 29q20 64 89 67h8q62 0 88 -57q113 -251 205 -329q64 -55 179 -55zM905 650q0 -52 -40 -94
q-41 -41 -89 -41q-50 0 -107 40q-40 43 -40 95q0 46 43 90q44 45 93 45q50 0 94 -41q46 -43 46 -94z" />
    <glyph glyph-name="uniFEE7" unicode="&#x646;" horiz-adv-x="715" arabic-form="initial" 
d="M-74 29q-29 29 -29 70t29 70t70 29q179 0 262 17q116 25 161 98q19 32 19 90q0 45 -11 106q-27 139 -100 292q-10 21 -10 44q0 16 5 32q14 38 50 56q21 10 42 10q17 0 34 -6q39 -13 56 -50q85 -175 116 -339q15 -78 15 -144q0 -117 -48 -195q-85 -140 -272 -184
q-107 -25 -319 -25q-41 0 -70 29zM436 1258q0 -52 -40 -94q-41 -41 -89 -41q-50 0 -107 40q-40 43 -40 95q0 46 43 90q44 45 93 45q50 0 94 -41q46 -43 46 -94z" />
    <glyph glyph-name="uniFEE8" unicode="&#x646;" horiz-adv-x="748" arabic-form="medial" 
d="M738 198q41 0 70 -29t29 -70t-29 -70t-70 -29q-82 0 -150 28q-86 35 -145 114l-8 -9q-72 -80 -197 -110q-93 -23 -244 -23q-41 0 -70 29t-29 70t29 70t70 29q233 0 295 67q43 48 43 158q0 33 -4 70q-4 31 -8 69l-2 33l-3 32q-3 43 -5 63q-1 5 -1 11q0 33 23 61
q26 31 67 35q5 1 11 1q34 0 61 -23q32 -26 36 -67q2 -21 5 -65l3 -40l4 -41q5 -47 10 -84q14 -97 39 -157q51 -123 170 -123zM435 1089q0 -52 -40 -94q-41 -41 -89 -41q-50 0 -107 40q-40 43 -40 95q0 46 43 90q44 45 93 45q50 0 94 -41q46 -43 46 -94z" />
    <glyph glyph-name="uniFEEA" unicode="&#x647;" horiz-adv-x="1157" arabic-form="final" 
d="M789 236q-37 79 -59 191q-9 44 -17 99l-6 49l-6 48q-13 105 -21 146q-6 28 -13 45q-147 -69 -270 -228q-62 -80 -87 -150q-22 -59 -14 -96q9 -44 80 -64q27 -7 63 -11q28 -3 59 -3q41 -1 70 -30q28 -30 28 -70q-1 -41 -30 -70q-29 -28 -69 -28h-1q-164 2 -262 58
q-108 62 -132 177q-22 104 32 230q21 49 53 100q24 39 54 78q156 201 349 290q54 24 103 21q38 -2 70 -20q66 -37 96 -134q19 -61 38 -217q30 -249 78 -341q56 -108 180 -108q41 0 70 -29t29 -70t-29 -70t-70 -29q-255 0 -366 236z" />
    <glyph glyph-name="uniFEEB" unicode="&#x647;" horiz-adv-x="1522" arabic-form="initial" 
d="M470 697q-80 -72 -95 -165q-3 -19 -3 -38q0 -72 45 -135q43 -60 125 -107q161 52 207 159q34 79 34 146q0 51 -20 95q-36 79 -117 96q-18 4 -37 4q-77 0 -139 -55zM909 159q76 0 143 17q181 45 200 184q2 14 2 27q0 78 -58 157q-68 93 -210 183q-28 17 -57 34l14 -28
q38 -84 38 -177q0 -106 -50 -222q-42 -98 -129 -167q55 -8 107 -8zM636 1q-60 17 -115 41q-114 -26 -266 -36q-104 -6 -266 -6q-41 0 -70 29t-29 70t29 70q29 28 70 28q182 0 297 10q-16 18 -30 37q-82 116 -82 248q0 33 5 66q24 166 160 286q79 71 181 95q-34 12 -68 22
q-26 8 -52 15q-39 11 -59 47q-13 23 -13 48q0 13 4 27q11 40 47 60q22 13 46 13q14 0 29 -5q55 -15 114 -34q81 -27 158 -57q211 -83 366 -181q173 -110 264 -234q96 -131 96 -270q0 -28 -4 -56q-18 -130 -109 -222q-91 -91 -239 -128q-89 -22 -192 -22q-138 0 -272 39z" />
    <glyph glyph-name="uniFEEC" unicode="&#x647;" horiz-adv-x="1056" arabic-form="medial" 
d="M500 690q-94 -53 -151 -204q-50 -134 -50 -278q60 8 108 21q174 49 214 192q10 37 10 79q0 37 -8 78q-18 87 -57 118l-3 3l-5 3q-6 2 -14 2q-18 0 -44 -14zM648 -604q-176 65 -337 272q-125 160 -178 332h-152q-41 1 -70 30t-29 69q0 41 29 70t70 29h121v19q0 139 42 279
q80 267 260 366q72 40 143 40h7q74 -3 135 -51q94 -74 126 -228q14 -64 14 -124q0 -68 -18 -130q-69 -251 -351 -330q-56 -16 -123 -25q45 -116 130 -225q35 -44 73 -82q8 125 76 236q72 120 189 188q117 67 251 67q41 0 70 -29t29 -70q0 -40 -29 -69t-70 -30h-4
q-80 0 -150 -42q-72 -42 -117 -117q-44 -73 -48 -154v-16q0 -73 33 -136q13 -25 13 -48q0 -33 -26 -63q-30 -34 -75 -34q-17 0 -34 6z" />
    <glyph glyph-name="uniFEEE" unicode="&#x648;" horiz-adv-x="1043" arabic-form="final" 
d="M429 637q-24 -13 -45 -34q-75 -76 -75 -209v-10q2 -89 70 -132q85 -53 260 -53h142v1q0 141 -73 284q-87 169 -212 169q-35 0 -67 -16zM129 -660q-28 22 -35 56q-3 12 -3 23q0 27 16 52q21 34 61 43q189 42 346 169q169 136 233 318h-108q-233 0 -365 84
q-158 100 -162 294v16q0 213 131 347q107 109 253 109q114 0 211 -66t165 -189q55 -98 83 -214q24 -98 24 -182v-2h65q41 0 70 -29t29 -70t-29 -69q-29 -29 -70 -30h-90q-54 -208 -213 -378q-218 -231 -529 -301q-11 -2 -22 -2q-34 0 -61 21z" />
    <glyph glyph-name="uniFEF0" unicode="&#x649;" horiz-adv-x="1715" arabic-form="final" 
d="M501 -613q-176 57 -281 167q-143 148 -143 370q0 15 1 30q4 101 39 249q14 59 34 132l19 65l18 64q17 58 25 87q11 39 47 59q23 13 48 13q13 0 27 -4q40 -11 60 -47q13 -23 13 -48q0 -13 -4 -27q-8 -28 -26 -88l-8 -29l-9 -29l-17 -59q-19 -69 -32 -122
q-33 -139 -37 -224v-19q0 -145 87 -236q76 -79 212 -120q114 -34 233 -34q233 0 416 88q70 34 111 74q42 40 42 73q0 3 -2 7q-2 5 -7 11q-12 16 -35 34q-29 22 -77 51l-44 25l-46 25l-45 24l-45 26q-50 29 -84 54q-37 27 -57 48q-31 35 -34 75q-1 6 -1 12q0 9 2 18
q2 10 6 20q5 10 11 19q8 12 19 22q28 24 72 28q10 1 22 1q19 0 43 -2q41 -4 160 -23l26 -4l26 -4q30 -5 56 -8q65 -10 120 -17q144 -17 254 -17q41 0 70 -29q29 -28 29 -69t-29 -70t-70 -29q-172 -13 -438 64q153 -69 176 -85l6 -4l7 -6q10 -8 18 -16q23 -21 40 -44
q49 -64 49 -137q0 -95 -69 -179q-68 -84 -196 -146q-224 -108 -502 -108q-157 0 -306 48z" />
    <glyph glyph-name="uniFEF2" unicode="&#x64a;" horiz-adv-x="1715" arabic-form="final" 
d="M501 -613q-176 57 -281 167q-143 148 -143 370q0 15 1 30q4 101 39 249q14 59 34 132l19 65l18 64q17 58 25 87q11 39 47 59q23 13 48 13q13 0 27 -4q40 -11 60 -47q13 -23 13 -48q0 -13 -4 -27q-8 -28 -26 -88l-8 -29l-9 -29l-17 -59q-19 -69 -32 -122
q-33 -139 -37 -224v-19q0 -145 87 -236q76 -79 212 -120q114 -34 233 -34q233 0 416 88q70 34 111 74q42 40 42 73q0 3 -2 7q-2 5 -7 11q-12 16 -35 34q-29 22 -77 51l-44 25l-46 25l-45 24l-45 26q-50 29 -84 54q-37 27 -57 48q-31 35 -34 75q-1 6 -1 12q0 9 2 18
q2 10 6 20q5 10 11 19q8 12 19 22q28 24 72 28q10 1 22 1q19 0 43 -2q41 -4 160 -23l26 -4l26 -4q30 -5 56 -8q65 -10 120 -17q144 -17 254 -17q41 0 70 -29q29 -28 29 -69t-29 -70t-70 -29q-172 -13 -438 64q153 -69 176 -85l6 -4l7 -6q10 -8 18 -16q23 -21 40 -44
q49 -64 49 -137q0 -95 -69 -179q-68 -84 -196 -146q-224 -108 -502 -108q-157 0 -306 48zM429 -1028q-18 36 -6 75t47 58q178 93 383 87q70 -2 137 -15q25 -5 47 -11q9 -3 17 -5l12 -4q37 -12 56 -49q18 -36 6 -75t-47 -58t-73 -6h-1l-3 1l-4 1q-5 2 -10 3q-16 4 -33 8
q-50 10 -103 12q-161 7 -297 -65q-20 -11 -43 -11q-59 0 -85 54z" />
    <glyph glyph-name="uniFEF3" unicode="&#x64a;" horiz-adv-x="838" arabic-form="initial" 
d="M-75 29q-29 29 -29 70t29 70t70 29q230 0 313 17q146 25 191 98q19 32 19 90q0 45 -11 106q-27 139 -100 292q-10 21 -10 44q0 16 5 32q14 38 50 56q21 10 42 10q17 0 34 -6q39 -13 56 -50q85 -175 116 -339q15 -78 15 -144q0 -117 -48 -195q-85 -140 -302 -184
q-107 -25 -370 -25q-41 0 -70 29zM9 -397q-18 36 -6 75t47 58q178 93 383 87q70 -2 137 -15q25 -5 47 -11q9 -3 17 -5l12 -4q37 -12 56 -49q18 -36 6 -75t-47 -58t-73 -6h-1l-3 1l-4 1q-5 2 -10 3q-16 4 -33 8q-50 10 -103 12q-161 7 -297 -65q-20 -11 -43 -11q-59 0 -85 54
z" />
    <glyph glyph-name="uniFEF4" unicode="&#x64a;" horiz-adv-x="852" arabic-form="medial" 
d="M849 198q41 0 70 -29t29 -70t-29 -70t-70 -29q-82 0 -150 28q-86 35 -145 114l-8 -9q-72 -80 -197 -110q-93 -23 -354 -23q-41 0 -70 29t-29 70t29 70t70 29q343 0 405 67q43 48 43 158q0 33 -4 70q-4 31 -8 69l-2 33l-3 32q-3 43 -5 63q-1 5 -1 11q0 33 23 61
q26 31 67 35q5 1 11 1q34 0 61 -23q32 -26 36 -67q2 -21 5 -65l3 -40l4 -41q5 -47 10 -84q14 -97 39 -157q51 -123 170 -123zM13 -397q-18 36 -6 75t47 58q178 93 383 87q70 -2 137 -15q25 -5 47 -11q9 -3 17 -5l12 -4q37 -12 56 -49q18 -36 6 -75t-47 -58t-73 -6h-1l-3 1
l-4 1q-5 2 -10 3q-16 4 -33 8q-50 10 -103 12q-161 7 -297 -65q-20 -11 -43 -11q-59 0 -85 54z" />
    <glyph glyph-name=".notdef" horiz-adv-x="1229" 
d="M102 -362v1806h1024v-1806h-1024zM217 -248h795v1577h-795v-1577z" />
    <glyph glyph-name=".null" 
 />
    <glyph glyph-name="uni000D" horiz-adv-x="602" 
 />
    <glyph glyph-name="uniFEFF" unicode="&#xfeff;" 
 />
    <glyph glyph-name="uniFEFF" 
 />
    <glyph glyph-name="space" unicode=" " horiz-adv-x="696" 
 />
    <glyph glyph-name="space" unicode="&#xa0;" horiz-adv-x="696" 
 />
    <glyph glyph-name="exclam" unicode="!" horiz-adv-x="579" 
d="M220 437q-29 29 -29 70v1049q0 41 29 70q28 29 69 29t70 -29t29 -70v-1049q0 -41 -29 -70t-70 -29t-69 29zM426 136q0 -56 -40 -96t-97 -40q-56 0 -96 40t-40 96q0 57 40 97t96 40q57 0 97 -40t40 -97z" />
    <glyph glyph-name="quotedbl" unicode="&#x22;" horiz-adv-x="736" 
d="M311 1572l-34 -402h-124l1 555h157v-153zM614 1572l-33 -402h-125l1 555h157v-153z" />
    <glyph glyph-name="numbersign" unicode="#" horiz-adv-x="1416" 
d="M859 460h-296l-90 -460h-161l90 460h-268v154h297l78 398h-290v156h320l92 467h161l-92 -467h296l92 467h162l-92 -467h229v-156h-259l-78 -398h253v-154h-282l-90 -460h-162zM592 614h296l78 398h-297z" />
    <glyph glyph-name="dollar" unicode="$" horiz-adv-x="1292" 
d="M961 421q0 103 -72.5 174t-243.5 128q-240 73 -349.5 190.5t-109.5 298.5q0 184 107.5 302t294.5 140v246h168v-247q188 -26 293 -158.5t105 -362.5h-206q0 158 -75.5 251.5t-203.5 93.5q-133 0 -204 -69t-71 -193q0 -114 75 -182t246 -123.5t267 -122.5t141.5 -156
t45.5 -208q0 -189 -114 -305t-319 -137v-215h-167v215q-209 19 -327 148.5t-118 352.5h207q0 -156 82 -240.5t233 -84.5q147 0 231 71t84 193z" />
    <glyph glyph-name="percent" unicode="%" horiz-adv-x="1685" 
d="M118 1321q0 147 93.5 242.5t241.5 95.5q149 0 241.5 -96t92.5 -249v-80q0 -148 -93.5 -242t-238.5 -94q-146 0 -241.5 94t-95.5 250v79zM273 1234q0 -87 49.5 -144t132.5 -57q80 0 128.5 55t48.5 151v82q0 87 -48 144.5t-131 57.5q-84 0 -132 -57.5t-48 -149.5v-82z
M914 401q0 147 94 242t241 95t241.5 -94.5t94.5 -250.5v-80q0 -147 -94 -242t-240 -95t-241.5 94t-95.5 250v81zM1069 313q0 -88 49.5 -145t132.5 -57q81 0 129.5 55.5t48.5 151.5v83q0 89 -49 145t-131 56q-80 0 -130 -55.5t-50 -150.5v-83zM502 124l-118 74l799 1278
l117 -74z" />
    <glyph glyph-name="ampersand" unicode="&#x26;" horiz-adv-x="1430" 
d="M113 439q0 118 66 217t251 230q-109 133 -146 213.5t-37 160.5q0 186 110 292t299 106q168 0 278 -98.5t110 -247.5q0 -99 -50 -182.5t-174 -176.5l-120 -88l364 -435q76 146 76 325h187q0 -287 -138 -475l234 -280h-249l-109 129q-83 -74 -195 -112.5t-228 -38.5
q-239 0 -384 126.5t-145 334.5zM642 147q165 0 302 126l-398 477l-37 -27q-188 -138 -188 -284q0 -132 86 -212t235 -80zM455 1267q0 -108 132 -270l133 93q76 54 104 103t28 119q0 75 -56 125t-141 50q-92 0 -146 -62.5t-54 -157.5z" />
    <glyph glyph-name="quotesingle" unicode="'" horiz-adv-x="401" 
d="M284 1600l-23 -413h-145l1 538h167v-125z" />
    <glyph glyph-name="parenleft" unicode="(" horiz-adv-x="818" 
d="M592 -489q-39 0 -68 27l-21 21q-24 26 -49 56q-80 96 -146 208q-212 361 -212 760q0 377 199 723q62 107 137 199q24 29 46 54l14 14q2 3 4 4l1 2h1q29 29 70 29q41 -1 70 -30t28 -70q0 -41 -29 -70l-5 -4q-5 -6 -11 -12q-19 -21 -39 -47q-65 -80 -119 -174
q-169 -297 -169 -618q0 -342 181 -654q57 -98 127 -182q21 -27 42 -49q6 -7 12 -12l4 -4v-1q30 -28 31 -69t-27 -70q-29 -31 -72 -31z" />
    <glyph glyph-name="parenright" unicode=")" horiz-adv-x="794" 
d="M123 -458q-28 29 -27 70t31 69v1l4 4q6 5 12 12q21 22 42 49q70 84 127 182q181 312 181 654q0 321 -169 618q-54 94 -119 174q-20 26 -39 47q-6 6 -11 12l-4 4q-30 29 -30 70q-1 41 28 70t70 30q41 0 70 -29h1l1 -2q2 -1 4 -4l14 -14q22 -25 46 -54q75 -92 137 -199
q199 -346 199 -723q0 -399 -212 -760q-66 -112 -146 -208q-25 -30 -49 -56l-21 -21q-29 -27 -68 -27q-43 0 -72 31z" />
    <glyph glyph-name="asterisk" unicode="*" horiz-adv-x="991" 
d="M371 1104l-340 101l52 170l339 -126l-10 386h172l-11 -392l333 124l52 -171l-345 -102l223 -304l-140 -106l-209 323l-202 -315l-140 102z" />
    <glyph glyph-name="plus" unicode="+" horiz-adv-x="1304" 
d="M752 877h456v-196h-456v-517h-208v517h-456v196h456v477h208v-477z" />
    <glyph glyph-name="comma" unicode="," horiz-adv-x="451" 
d="M150 -326l-117 81q105 147 110 303v188h203v-163q0 -113 -55.5 -226.5t-140.5 -182.5z" />
    <glyph glyph-name="hyphen" unicode="-" horiz-adv-x="635" 
d="M590 610h-548v169h548v-169z" />
    <glyph glyph-name="period" unicode="." horiz-adv-x="652" 
d="M213 89q35 37 99 37q65 0 101 -37q34 -35 34 -93q0 -54 -34 -88q-37 -36 -101 -36t-99 36q-33 33 -33 88q0 58 33 93z" />
    <glyph glyph-name="slash" unicode="/" horiz-adv-x="948" 
d="M199 -140h-179l683 1775h177z" />
    <glyph glyph-name="zero" unicode="0" horiz-adv-x="1292" 
d="M1161 697q0 -365 -124.5 -542t-389.5 -177q-262 0 -387.5 173.5t-130.5 517.5v278q0 360 124.5 535.5t391.5 175.5q264 0 388.5 -169t127.5 -522v-270zM953 982q0 263 -74 384t-234 121t-233 -120t-75 -370v-332q0 -265 77 -391.5t233 -126.5q154 0 228.5 119t77.5 375
v341z" />
    <glyph glyph-name="one" unicode="1" horiz-adv-x="1292" 
d="M819 0h-209v1385l-419 -154v189l595 223h33v-1643z" />
    <glyph glyph-name="two" unicode="2" horiz-adv-x="1292" 
d="M1207 0h-1071v149l566 629q126 143 173.5 232t47.5 185q0 128 -77.5 210t-206.5 82q-155 0 -241 -88t-86 -246h-208q0 226 145.5 365.5t389.5 139.5q228 0 360.5 -120t132.5 -318q0 -242 -308 -575l-438 -475h821v-170z" />
    <glyph glyph-name="three" unicode="3" horiz-adv-x="1292" 
d="M438 919h156q147 2 231.5 77t84.5 203q0 288 -287 288q-134 0 -214.5 -77t-80.5 -204h-208q0 194 142 323t361 129q232 0 363 -122.5t131 -340.5q0 -107 -69 -207t-188 -149q135 -43 208.5 -141.5t73.5 -241.5q0 -220 -143.5 -349t-373.5 -129q-231 0 -375 124.5
t-144 328.5h208q0 -129 84.5 -206.5t225.5 -77.5q151 0 230.5 78.5t79.5 225.5q0 143 -87.5 219.5t-252.5 78.5h-156v170z" />
    <glyph glyph-name="four" unicode="4" horiz-adv-x="1292" 
d="M1013 549h227v-169h-227v-380h-209v380h-744v122l732 1133h221v-1086zM295 549h509v802l-25 -45z" />
    <glyph glyph-name="five" unicode="5" horiz-adv-x="1292" 
d="M231 820l83 815h838v-192h-661l-50 -446q121 71 273 71q224 0 355.5 -147.5t131.5 -399.5q0 -253 -136.5 -398t-381.5 -145q-217 0 -354 120t-156 332h196q20 -140 100.5 -211.5t213.5 -71.5q145 0 227.5 99t82.5 273q0 164 -89.5 263.5t-237.5 99.5q-136 0 -213 -60
l-55 -45z" />
    <glyph glyph-name="six" unicode="6" horiz-adv-x="1292" 
d="M951 1636v-176h-38q-243 -5 -386.5 -144t-166.5 -392q130 149 353 149q214 0 341 -150.5t127 -389.5q0 -252 -137.5 -403.5t-368.5 -151.5q-235 0 -381 180t-146 464v80q0 451 192.5 690t573.5 244h37zM678 900q-106 0 -196 -64t-125 -161v-76q0 -203 91 -326.5
t227 -123.5q140 0 220.5 103.5t80.5 270.5q0 169 -81.5 273t-216.5 104z" />
    <glyph glyph-name="seven" unicode="7" horiz-adv-x="1292" 
d="M1192 1518l-678 -1518h-218l675 1464h-885v171h1106v-117z" />
    <glyph glyph-name="eight" unicode="8" horiz-adv-x="1292" 
d="M1128 1208q0 -122 -65 -217.5t-175 -149.5q128 -55 203 -160.5t75 -239.5q0 -212 -143.5 -337.5t-376.5 -125.5q-236 0 -378 126t-142 337q0 133 72.5 239.5t200.5 161.5q-109 54 -172 149.5t-63 216.5q0 207 132.5 328.5t349.5 121.5q215 0 348.5 -121.5t133.5 -328.5z
M958 446q0 137 -87 223.5t-227 86.5q-141 0 -225.5 -85.5t-84.5 -224.5t82.5 -219t229.5 -80q146 0 229 80.5t83 218.5zM646 1487q-123 0 -198.5 -76t-75.5 -206q0 -125 74.5 -201.5t199.5 -76.5q124 0 199 76.5t75 201.5t-77.5 203.5t-196.5 78.5z" />
    <glyph glyph-name="nine" unicode="9" horiz-adv-x="1292" 
d="M932 719q-65 -78 -155.5 -125t-198.5 -47q-141 0 -246 69.5t-162.5 196t-57.5 279.5q0 164 62.5 295t177 201t267.5 70q242 0 382 -181.5t140 -494.5v-61q0 -477 -188.5 -697t-569.5 -225h-40v175h43q258 5 396 134.5t150 410.5zM612 719q105 0 193 64t128 158v83
q0 205 -88.5 333t-224.5 128q-137 0 -220 -105t-83 -277q0 -168 80 -276t215 -108z" />
    <glyph glyph-name="colon" unicode=":" horiz-adv-x="600" 
d="M201 89q35 37 99 37t101 -37q34 -35 34 -93q0 -54 -34 -88q-37 -36 -101 -36t-99 36q-33 33 -33 88q0 58 33 93zM202 898q35 37 99 37q65 0 101 -37q34 -35 34 -93q0 -55 -34 -88q-37 -36 -101 -36q-63 0 -99 36q-33 33 -33 88q0 58 33 93z" />
    <glyph glyph-name="semicolon" unicode=";" horiz-adv-x="486" 
d="M125 1101q0 53 32 89t96 36t97 -36t33 -89q0 -52 -33 -87t-97 -35t-96 35t-32 87zM164 -326l-118 81q106 147 110 303v188h203v-163q0 -113 -55.5 -226.5t-139.5 -182.5z" />
    <glyph glyph-name="less" unicode="&#x3c;" horiz-adv-x="1169" 
d="M296 723l704 -284v-220l-919 426v164l919 424v-220z" />
    <glyph glyph-name="equal" unicode="=" horiz-adv-x="1262" 
d="M1107 914h-936v181h936v-181zM1107 448h-936v180h936v-180z" />
    <glyph glyph-name="greater" unicode="&#x3e;" horiz-adv-x="1202" 
d="M893 730l-743 291v213l960 -424v-164l-960 -426v216z" />
    <glyph glyph-name="question" unicode="?" horiz-adv-x="1086" 
d="M401 460q2 134 30 211.5t115 171.5l147 152q94 107 94 229q0 118 -61.5 185t-179.5 67q-115 0 -184.5 -61t-69.5 -163h-208q2 182 129.5 294t332.5 112q212 0 330.5 -114t118.5 -313q0 -197 -182 -388l-122 -121q-82 -91 -82 -262h-208zM392 104q0 51 31 85t92 34
q60 0 91.5 -34t31.5 -84q0 -51 -31.5 -84t-91.5 -33q-61 0 -92 33t-31 83z" />
    <glyph glyph-name="at" unicode="@" horiz-adv-x="2065" 
d="M1952 564q-14 -272 -135 -429t-324 -157q-210 0 -270 188q-61 -95 -139 -141.5t-161 -46.5q-159 0 -241 130q-65 103 -65 270q0 43 4 90q17 186 85 331t175 228.5t225 83.5q91 0 163 -24.5t162 -94.5l-59 -623q-2 -29 -2 -55q0 -204 146 -204q127 0 205.5 126t85.5 328
q2 45 2 88q0 373 -174 590t-549 217q-226 0 -401 -112t-276 -323t-114 -487q-2 -39 -2 -76q0 -231 75.5 -422t241 -299t400.5 -108q101 0 202.5 24.5t168.5 63.5l42 -129q-70 -44 -185 -72t-233 -28q-281 0 -483 126.5t-302 364.5q-89 208 -89 479q0 37 2 76
q13 309 137.5 555.5t338 380.5t481.5 134q280 0 480 -125.5t298 -362.5q86 -209 86 -481q0 -36 -2 -74zM800 468q-4 -41 -4 -77q0 -104 39.5 -178.5t138.5 -74.5q67 0 129.5 57.5t102.5 163.5l1 10l52 565q-63 33 -135 33q-131 0 -217 -133.5t-107 -365.5z" />
    <glyph glyph-name="A" unicode="A" horiz-adv-x="1500" 
d="M1093 427h-685l-154 -427h-223l625 1635h189l625 -1635h-221zM473 604h556l-279 765z" />
    <glyph glyph-name="B" unicode="B" horiz-adv-x="1432" 
d="M190 0v1635h534q267 0 401 -110t134 -326q0 -114 -65 -202t-178 -137q133 -37 210 -141t77 -247q0 -220 -143 -346t-403 -126h-567zM405 765v-589h356q151 0 238 78t87 215q0 296 -321 296h-360zM405 938h326q142 0 226.5 70.5t84.5 192.5q0 134 -78.5 195.5t-239.5 61.5
h-319v-520z" />
    <glyph glyph-name="C" unicode="C" horiz-adv-x="1497" 
d="M1393 519q-31 -260 -192 -400.5t-428 -140.5q-290 0 -464.5 207.5t-174.5 555.5v157q0 228 81 401t230.5 266t346.5 93q260 0 417.5 -145.5t183.5 -402.5h-217q-28 195 -122 282.5t-262 87.5q-207 0 -324.5 -152.5t-117.5 -434.5v-159q0 -266 111.5 -423t311.5 -157
q179 0 275 81.5t128 283.5h217z" />
    <glyph glyph-name="D" unicode="D" horiz-adv-x="1508" 
d="M190 0v1635h461q214 0 378 -94.5t253 -268.5t90 -399v-105q0 -231 -89 -405t-254.5 -267.5t-386.5 -95.5h-452zM405 1458v-1282h227q250 0 388.5 155t138.5 442v95q0 279 -131 433t-371 157h-252z" />
    <glyph glyph-name="E" unicode="E" horiz-adv-x="1307" 
d="M1114 756h-709v-580h824v-176h-1039v1635h1027v-177h-812v-526h709v-176z" />
    <glyph glyph-name="F" unicode="F" horiz-adv-x="1271" 
d="M1092 722h-687v-722h-215v1635h1013v-177h-798v-560h687v-176z" />
    <glyph glyph-name="G" unicode="G" horiz-adv-x="1567" 
d="M1397 215q-83 -120 -232 -178.5t-346 -58.5q-200 0 -355 93.5t-240 266.5t-87 401v143q0 369 172.5 572.5t484.5 203.5q256 0 412 -131t191 -371h-216q-60 324 -386 324q-217 0 -328.5 -152t-112.5 -441v-133q0 -276 125.5 -438t340.5 -162q121 0 212 27t151 91v367h-379
v175h593v-599z" />
    <glyph glyph-name="H" unicode="H" horiz-adv-x="1640" 
d="M1446 0h-216v756h-825v-756h-215v1635h215v-703h825v703h216v-1635z" />
    <glyph glyph-name="I" unicode="I" horiz-adv-x="626" 
d="M421 0h-215v1635h215v-1635z" />
    <glyph glyph-name="J" unicode="J" horiz-adv-x="1269" 
d="M875 1635h217v-1158q0 -234 -141 -366.5t-376 -132.5q-244 0 -379.5 124.5t-135.5 348.5h215q0 -140 77 -218.5t223 -78.5q134 0 216.5 84t83.5 236v1161z" />
    <glyph glyph-name="K" unicode="K" horiz-adv-x="1442" 
d="M605 760l-200 -207v-553h-215v1635h215v-808l727 808h261l-644 -722l694 -913h-258z" />
    <glyph glyph-name="L" unicode="L" horiz-adv-x="1238" 
d="M407 176h774v-176h-991v1635h217v-1459z" />
    <glyph glyph-name="M" unicode="M" horiz-adv-x="2008" 
d="M468 1635l535 -1334l534 1334h280v-1635h-216v637l21 687l-537 -1324h-165l-536 1321l21 -684v-637h-215v1635h278z" />
    <glyph glyph-name="N" unicode="N" horiz-adv-x="1640" 
d="M1446 0h-216l-823 1260v-1260h-217v1635h217l825 -1266v1266h214v-1635z" />
    <glyph glyph-name="O" unicode="O" horiz-adv-x="1581" 
d="M1448 765q0 -241 -81 -420t-229.5 -273t-345.5 -94q-193 0 -342.5 94.5t-232 270.5t-84.5 407v118q0 236 81.5 417t231.5 277t344 96q196 0 346 -95t231 -275.5t81 -419.5v-103zM1233 870q0 291 -116.5 446.5t-326.5 155.5q-205 0 -322.5 -155.5t-120.5 -431.5v-120
q0 -282 118.5 -443t326.5 -161q209 0 323.5 152t117.5 436v121z" />
    <glyph glyph-name="P" unicode="P" horiz-adv-x="1451" 
d="M405 640v-640h-215v1635h603q268 0 420.5 -137t152.5 -363q0 -238 -149 -366.5t-426 -128.5h-386zM405 816h388q173 0 265 81.5t92 235.5q0 146 -92 233.5t-253 91.5h-400v-642z" />
    <glyph glyph-name="Q" unicode="Q" horiz-adv-x="1581" 
d="M1439 765q0 -237 -75.5 -408.5t-211.5 -267.5l292 -229l-147 -136l-345 274q-81 -20 -170 -20q-194 0 -343 94.5t-231.5 270.5t-85.5 407v118q0 236 82 417t232 277t343 96q198 0 348 -95.5t231 -275t81 -418.5v-104zM1223 870q0 289 -115 445.5t-329 156.5
q-203 0 -320.5 -155.5t-120.5 -431.5v-120q0 -281 117.5 -442.5t326.5 -161.5t323.5 152t117.5 436v121z" />
    <glyph glyph-name="R" unicode="R" horiz-adv-x="1416" 
d="M790 661h-385v-661h-216v1635h541q276 0 425 -125.5t149 -366.5q0 -152 -82.5 -265.5t-229.5 -169.5l384 -695v-13h-232zM405 838h332q160 0 255 83t95 222q0 152 -90.5 233t-260.5 82h-331v-620z" />
    <glyph glyph-name="S" unicode="S" horiz-adv-x="1365" 
d="M672 729q-278 80 -404 196t-126 287q0 193 154 319.5t401 126.5q169 0 301 -65.5t204.5 -180t72.5 -250.5h-217q0 149 -94.5 233.5t-266.5 84.5q-159 0 -248.5 -70t-89.5 -195q0 -100 85 -169t289 -126t319 -126.5t170.5 -161.5t55.5 -216q0 -199 -155 -318.5
t-414 -119.5q-169 0 -315 64.5t-225 176.5t-79 255h217q0 -148 109.5 -234t292.5 -86q170 0 261 69.5t91 189.5t-84 186t-305 130z" />
    <glyph glyph-name="T" unicode="T" horiz-adv-x="1372" 
d="M1320 1458h-526v-1458h-215v1458h-524v177h1265v-177z" />
    <glyph glyph-name="U" unicode="U" horiz-adv-x="1491" 
d="M1341 1635v-1112q-1 -231 -145.5 -378t-391.5 -165l-57 -2q-269 0 -428.5 144.5t-161.5 398.5v1114h214v-1107q0 -178 97.5 -276t278.5 -98q183 0 280 97.5t97 275.5v1108h217z" />
    <glyph glyph-name="V" unicode="V" horiz-adv-x="1463" 
d="M731 286l467 1349h236l-606 -1635h-191l-606 1635h235z" />
    <glyph glyph-name="W" unicode="W" horiz-adv-x="2041" 
d="M542 515l32 -215l46 194l323 1141h182l316 -1141l45 -198l35 221l253 1118h217l-396 -1635h-197l-337 1192l-26 124l-25 -124l-350 -1192h-196l-395 1635h215z" />
    <glyph glyph-name="X" unicode="X" horiz-adv-x="1442" 
d="M723 1008l392 627h254l-517 -811l529 -824h-256l-402 638l-404 -638h-255l530 824l-518 811h253z" />
    <glyph glyph-name="Y" unicode="Y" horiz-adv-x="1381" 
d="M688 814l427 821h245l-564 -1025v-610h-215v610l-564 1025h247z" />
    <glyph glyph-name="Z" unicode="Z" horiz-adv-x="1377" 
d="M352 176h935v-176h-1190v162l896 1296h-882v177h1140v-158z" />
    <glyph glyph-name="bracketleft" unicode="[" horiz-adv-x="610" 
d="M587 1698h-214v-1878h214v-170h-423v2219h423v-171z" />
    <glyph glyph-name="backslash" unicode="\" horiz-adv-x="943" 
d="M45 1635h198l682 -1775h-197z" />
    <glyph glyph-name="bracketright" unicode="]" horiz-adv-x="610" 
d="M10 1869h425v-2219h-425v170h217v1878h-217v171z" />
    <glyph glyph-name="asciicircum" unicode="^" horiz-adv-x="961" 
d="M478 1360l-213 -541h-193l336 816h142l335 -816h-192z" />
    <glyph glyph-name="underscore" unicode="_" horiz-adv-x="1038" 
d="M1033 -170h-1029v170h1029v-170z" />
    <glyph glyph-name="grave" unicode="`" horiz-adv-x="711" 
d="M532 1393h-178l-290 330h250z" />
    <glyph glyph-name="a" unicode="a" horiz-adv-x="1251" 
d="M907 0q-18 36 -29 128q-145 -150 -346 -150q-179 0 -294.5 101.5t-115.5 257.5q0 190 144.5 295t406.5 105h202v95q0 109 -65 173.5t-192 64.5q-112 0 -187 -56t-75 -136h-209q0 91 64.5 176t175.5 134.5t243 49.5q210 0 329 -105t124 -290v-559q0 -167 42 -266v-18h-218
zM563 158q97 0 185 50.5t127 131.5v250h-163q-382 0 -382 -224q0 -98 65 -153t168 -55z" />
    <glyph glyph-name="b" unicode="b" horiz-adv-x="1290" 
d="M1186 594q0 -278 -128 -447t-344 -169q-230 0 -356 162l-10 -140h-191v1725h208v-644q126 157 347 157t347.5 -167.5t126.5 -458.5v-18zM978 618q0 212 -82 327.5t-236 115.5q-205 0 -295 -191v-525q95 -191 298 -191q149 0 232 115.5t83 348.5z" />
    <glyph glyph-name="c" unicode="c" horiz-adv-x="1204" 
d="M645 147q111 0 194 67.5t92 168.5h197q-6 -104 -72.5 -198.5t-177 -150.5t-233.5 -56q-249 0 -395.5 165.5t-146.5 452.5v35q0 178 65.5 316t187 214.5t288.5 76.5q204 0 339.5 -122.5t144.5 -318.5h-197q-9 118 -89.5 194t-197.5 76q-159 0 -246 -114t-87 -330v-39
q0 -210 86.5 -323.5t247.5 -113.5z" />
    <glyph glyph-name="d" unicode="d" horiz-adv-x="1297" 
d="M107 618q0 279 132.5 449.5t346.5 170.5t338 -146v633h208v-1725h-191l-10 130q-125 -152 -347 -152q-211 0 -344 172.5t-133 451.5v16zM314 594q0 -207 85.5 -323.5t236.5 -116.5q197 0 288 177v558q-93 172 -286 172q-153 0 -238.5 -118t-85.5 -349z" />
    <glyph glyph-name="e" unicode="e" horiz-adv-x="1219" 
d="M661 -22q-247 0 -402 162t-155 434v38q0 181 69.5 323t193.5 222.5t269 80.5q237 0 368 -156.5t131 -446.5v-87h-823q5 -180 105.5 -290.5t255.5 -110.5q110 0 186 45t134 119l127 -99q-153 -234 -459 -234zM636 1067q-126 0 -211.5 -91.5t-105.5 -256.5h609v15
q-9 159 -85.5 246t-206.5 87z" />
    <glyph glyph-name="f" unicode="f" horiz-adv-x="798" 
d="M259 0v1055h-192v160h192v125q0 195 104.5 302t295.5 107q72 0 143 -20l-11 -168q-53 10 -113 10q-101 0 -156 -59t-55 -169v-128h260v-160h-260v-1055h-208z" />
    <glyph glyph-name="g" unicode="g" horiz-adv-x="1290" 
d="M108 618q0 284 131.5 452t347.5 168q223 0 347 -158l10 135h190v-1186q0 -236 -139.5 -371.5t-375.5 -135.5q-132 0 -257.5 56t-191.5 154l107 124q134 -165 327 -165q152 0 236.5 85.5t84.5 240.5v104q-124 -143 -340 -143q-213 0 -345 171.5t-132 468.5zM317 594
q0 -205 84 -322.5t236 -117.5q196 0 288 178v555q-95 174 -286 174q-152 0 -237 -118t-85 -349z" />
    <glyph glyph-name="h" unicode="h" horiz-adv-x="1267" 
d="M365 1068q138 170 359 170q386 0 389 -435v-803h-208v804q-1 131 -60 194t-184 63q-101 0 -177 -54t-119 -141v-866h-208v1725h208v-657z" />
    <glyph glyph-name="i" unicode="i" horiz-adv-x="558" 
d="M383 0h-208v1215h208v-1215zM158 1537q0 51 31 86t92 35q60 0 91.5 -35t31.5 -85q0 -51 -31.5 -84.5t-91.5 -33.5q-61 0 -92 33.5t-31 83.5z" />
    <glyph glyph-name="j" unicode="j" horiz-adv-x="549" 
d="M372 1215v-1355q0 -351 -318 -351q-69 0 -127 20v167q36 -9 94 -9q70 0 106.5 37.5t36.5 130.5v1360h208zM143 1537q0 50 30.5 85.5t90.5 35.5q61 0 92 -35t31 -85q0 -51 -31 -84.5t-92 -33.5t-91 33.5t-30 83.5z" />
    <glyph glyph-name="k" unicode="k" horiz-adv-x="1166" 
d="M496 563l-130 -136v-427h-208v1725h208v-1043l111 133l379 400h252l-472 -507l527 -708h-243z" />
    <glyph glyph-name="l" unicode="l" horiz-adv-x="558" 
d="M383 0h-208v1725h208v-1725z" />
    <glyph glyph-name="m" unicode="m" horiz-adv-x="2016" 
d="M353 1215l5 -135q134 158 361 158q255 0 347 -196q60 88 157.5 142t229.5 54q400 0 407 -424v-814h-208v802q0 130 -59.5 194.5t-199.5 64.5q-116 0 -192.5 -69t-88.5 -186v-806h-209v796q0 265 -259 265q-205 0 -280 -174v-887h-208v1215h197z" />
    <glyph glyph-name="n" unicode="n" horiz-adv-x="1269" 
d="M354 1215l6 -153q140 176 364 176q386 0 389 -435v-803h-208v804q-1 131 -60 194t-184 63q-101 0 -177 -54t-119 -141v-866h-208v1215h197z" />
    <glyph glyph-name="o" unicode="o" horiz-adv-x="1312" 
d="M102 619q0 178 70.5 321t195.5 220.5t286 77.5q248 0 401 -172t153 -457v-15q0 -177 -67.5 -318t-194 -219.5t-290.5 -78.5q-247 0 -400.5 171.5t-153.5 454.5v15zM311 594q0 -202 94 -324.5t251 -122.5q158 0 251.5 124t93.5 348q0 200 -95 324t-252 124
q-154 0 -248.5 -122.5t-94.5 -350.5z" />
    <glyph glyph-name="p" unicode="p" horiz-adv-x="1290" 
d="M1184 594q0 -277 -127 -446.5t-344 -169.5q-221 0 -348 140v-585h-208v1682h190l10 -135q127 158 353 158q219 0 346.5 -165.5t127.5 -459.5v-19zM976 618q0 205 -87.5 324t-240.5 119q-189 0 -283 -167v-581q93 -166 285 -166q150 0 238 118.5t88 352.5z" />
    <glyph glyph-name="q" unicode="q" horiz-adv-x="1307" 
d="M107 618q0 286 131 453t353 167q215 0 340 -145l9 122h191v-1682h-208v579q-126 -134 -335 -134q-220 0 -350.5 171t-130.5 454v15zM314 594q0 -209 88.5 -328t237.5 -119q185 0 283 164v595q-99 161 -281 161q-150 0 -239 -119.5t-89 -353.5z" />
    <glyph glyph-name="r" unicode="r" horiz-adv-x="778" 
d="M745 1029q-48 8 -103 8q-204 0 -277 -174v-863h-208v1215h202l4 -140q102 163 289 163q61 0 93 -16v-193z" />
    <glyph glyph-name="s" unicode="s" horiz-adv-x="1186" 
d="M865 322q0 85 -63.5 131.5t-221.5 80t-250.5 80.5t-137 112.5t-44.5 155.5q0 149 126.5 252.5t322.5 103.5q207 0 335.5 -107t128.5 -273h-209q0 85 -72 147t-183 62q-113 0 -177 -49.5t-64 -129.5q0 -75 59.5 -113t215 -73t252 -83t143.5 -116t47 -166
q0 -163 -130.5 -261t-338.5 -98q-146 0 -258 51.5t-175.5 144t-63.5 200.5h207q6 -104 84 -165.5t206 -61.5q118 0 189.5 48t71.5 127z" />
    <glyph glyph-name="t" unicode="t" horiz-adv-x="751" 
d="M439 1509v-294h227v-160h-227v-754q0 -73 30.5 -109.5t103.5 -36.5q36 0 99 13v-168q-82 -22 -160 -22q-139 0 -210 84t-71 239v754h-221v160h221v294h208z" />
    <glyph glyph-name="u" unicode="u" horiz-adv-x="1268" 
d="M907 120q-121 -142 -356 -142q-194 0 -295.5 112.5t-102.5 334.5v790h207v-785q0 -276 225 -276q238 0 317 177v884h208v-1215h-198z" />
    <glyph glyph-name="v" unicode="v" horiz-adv-x="1114" 
d="M558 282l301 933h212l-435 -1215h-159l-440 1215h212z" />
    <glyph glyph-name="w" unicode="w" horiz-adv-x="1728" 
d="M1233 286l234 929h207l-353 -1215h-169l-295 921l-288 -921h-168l-353 1215h207l239 -910l283 910h167z" />
    <glyph glyph-name="x" unicode="x" horiz-adv-x="1140" 
d="M565 772l269 443h243l-398 -601l410 -614h-240l-281 455l-280 -455h-242l410 614l-398 601h241z" />
    <glyph glyph-name="y" unicode="y" horiz-adv-x="1088" 
d="M555 304l283 911h222l-488 -1403q-114 -303 -361 -303l-39 4l-78 14v169l56 -5q106 0 165 43t97 156l46 123l-433 1202h227z" />
    <glyph glyph-name="z" unicode="z" horiz-adv-x="1140" 
d="M353 170h711v-170h-965v153l670 890h-660v172h921v-147z" />
    <glyph glyph-name="braceleft" unicode="{" horiz-adv-x="778" 
d="M710 -411q-199 56 -299.5 184.5t-100.5 339.5v224q0 273 -238 273v163q238 0 238 271v234q2 206 100.5 332t299.5 184l42 -130q-234 -75 -234 -392v-226q0 -255 -188 -355q188 -101 188 -359v-231q3 -309 234 -383z" />
    <glyph glyph-name="bar" unicode="|" horiz-adv-x="560" 
d="M364 -303h-167v1938h167v-1938z" />
    <glyph glyph-name="braceright" unicode="}" horiz-adv-x="778" 
d="M21 -282q228 73 236 372v247q0 259 203 354q-203 92 -203 353v228q0 317 -235 392l43 130q199 -57 299 -183t101 -334v-236q0 -268 238 -268v-163q-238 0 -238 -273v-227q0 -211 -101.5 -338t-298.5 -183z" />
    <glyph glyph-name="asciitilde" unicode="~" horiz-adv-x="1564" 
d="M1418 873q0 -178 -105 -300t-258 -122q-81 0 -153 30t-167 113t-136.5 103.5t-88.5 20.5q-88 0 -135 -60.5t-47 -165.5l-181 -2q0 179 103.5 295t259.5 116q85 0 163.5 -36t177.5 -126.5t171 -101.5l33 -2q85 0 138.5 65t53.5 171z" />
    <glyph glyph-name="exclamdown" unicode="&#xa1;" horiz-adv-x="560" 
d="M191 768h189l14 -1172h-218zM402 1119q0 -51 -31 -86t-91 -35q-61 0 -92.5 35t-31.5 86q0 50 31.5 83.5t92.5 33.5q60 0 91 -33.5t31 -83.5z" />
    <glyph glyph-name="cent" unicode="&#xa2;" horiz-adv-x="1258" 
d="M658 147q112 0 195.5 68t92.5 168h196q-7 -142 -118 -254.5t-273 -141.5v-262h-207v263q-201 38 -313.5 197.5t-112.5 406.5v39q0 238 113.5 398t312.5 197v254h207v-250q169 -26 276.5 -145t114.5 -288h-196q-9 118 -89.5 194t-198.5 76q-158 0 -245 -114t-87 -330v-39
q0 -210 87 -323.5t245 -113.5z" />
    <glyph glyph-name="sterling" unicode="&#xa3;" horiz-adv-x="1336" 
d="M504 699l9 -248q0 -172 -69 -275h823l-1 -176h-1159v176h86q45 10 73 84t30 181v9l-8 249h-186v176h180l-10 292q0 223 137.5 357t362.5 134q213 0 337.5 -119t124.5 -318h-214q0 120 -71.5 189.5t-196.5 69.5q-117 0 -190 -86.5t-73 -226.5l10 -292h358v-176h-353z" />
    <glyph glyph-name="currency" unicode="&#xa4;" horiz-adv-x="1640" 
d="M1239 126q-179 -148 -414 -148q-232 0 -411 146l-150 -153l-146 151l156 159q-117 175 -117 402q0 231 126 414l-165 170l146 153l165 -169q177 135 396 135q221 0 399 -136l167 171l149 -154l-170 -173q124 -183 124 -411q0 -220 -115 -399l161 -162l-149 -152zM349 683
q0 -138 64.5 -257t175 -187.5t237.5 -68.5q126 0 236 69t173.5 187.5t63.5 256.5q0 137 -63.5 255.5t-174 186.5t-236.5 68t-236.5 -67.5t-175 -186.5t-64.5 -256z" />
    <glyph glyph-name="yen" unicode="&#xa5;" horiz-adv-x="1393" 
d="M690 878l408 757h246l-469 -808h350v-141h-431v-185h431v-139h-431v-362h-217v362h-424v139h424v185h-424v141h351l-469 808h247z" />
    <glyph glyph-name="brokenbar" unicode="&#xa6;" horiz-adv-x="551" 
d="M165 -303v888h209v-888h-209zM374 784h-209v851h209v-851z" />
    <glyph glyph-name="section" unicode="&#xa7;" horiz-adv-x="1411" 
d="M1286 484q0 -212 -209 -308q77 -55 117.5 -131t40.5 -189q0 -188 -146 -300t-402 -112q-125 0 -238 31.5t-192 95.5q-156 127 -156 357l209 2q0 -146 101 -230.5t276 -84.5q153 0 246 65.5t93 173.5q0 100 -79.5 159t-314.5 129q-204 53 -312 115.5t-160 149.5t-52 212
q0 209 204 308q-74 55 -114 131t-40 189q0 186 150 298.5t400 112.5q260 0 406 -127t146 -357h-208q0 140 -94 227t-250 87q-160 0 -250.5 -64.5t-90.5 -174.5q0 -78 31.5 -123t107.5 -81.5t237 -81t256 -85t158.5 -95t96 -127t32.5 -172.5zM676 776q-101 27 -185 57
q-90 -21 -132 -77.5t-42 -134.5q0 -79 30 -123.5t105 -82t234.5 -83.5t208.5 -65q88 23 135 79.5t47 134.5q0 98 -78 159.5t-323 135.5z" />
    <glyph glyph-name="dieresis" unicode="&#xa8;" horiz-adv-x="961" 
d="M115 1540q0 50 30.5 84.5t91.5 34.5t92 -34.5t31 -84.5q0 -51 -31 -84.5t-92 -33.5t-91.5 33.5t-30.5 84.5zM597 1537q0 51 31 86t92 35t92 -35t31 -85q0 -51 -31 -84.5t-92 -33.5t-92 33.5t-31 83.5z" />
    <glyph glyph-name="copyright" unicode="&#xa9;" horiz-adv-x="1807" 
d="M1257 670q0 -171 -97.5 -261.5t-274.5 -90.5q-176 0 -282.5 118.5t-106.5 322.5v124q0 197 107.5 315.5t281.5 118.5q180 0 276.5 -92t96.5 -259h-164q0 111 -53.5 158.5t-155.5 47.5q-106 0 -166.5 -77.5t-60.5 -215.5v-127q0 -134 60.5 -211.5t166.5 -77.5
q103 0 155.5 47t52.5 160h164zM231 819q0 -193 90 -358t244.5 -258t334.5 -93q179 0 333 93t244 258t90 358q0 191 -89 353.5t-243.5 256.5t-334.5 94t-335 -92.5t-244.5 -256.5t-89.5 -355zM102 819q0 227 105 421t291 306t402 112q215 0 400.5 -112t290.5 -306t105 -421
q0 -222 -101 -415t-287 -310.5t-408 -117.5t-407.5 116.5t-288 309.5t-102.5 417z" />
    <glyph glyph-name="ordfeminine" unicode="&#xaa;" horiz-adv-x="1028" 
d="M694 792q-13 38 -20 81q-86 -97 -229 -97q-134 0 -207 69.5t-73 185.5q0 125 94 192t287 67h121v59q0 151 -139 151q-78 0 -122 -30t-44 -88l-181 14q0 116 96.5 189t250.5 73q149 0 235.5 -80.5t86.5 -230.5v-355q0 -109 29 -200h-185zM489 930q48 0 97.5 22.5
t80.5 52.5v160h-126q-93 -2 -143 -37t-50 -93q0 -105 141 -105z" />
    <glyph glyph-name="guillemotleft" unicode="&#xab;" horiz-adv-x="1079" 
d="M811 118q-235 224 -235 506q0 281 234 506q24 23 57 22t55 -24q23 -24 22 -57q0 -32 -24 -55q-186 -178 -186 -392t186 -392q24 -23 24 -55q1 -33 -22 -57t-57 -24q-32 0 -54 22zM394 118q-234 224 -234 506q0 281 234 506q24 23 57 22q32 -1 55 -24q23 -24 22 -57
q-1 -32 -24 -55q-186 -178 -186 -392t186 -392q23 -23 24 -55q1 -33 -22 -57t-57 -24q-32 0 -55 22z" />
    <glyph glyph-name="logicalnot" unicode="&#xac;" horiz-adv-x="1274" 
d="M1076 421h-209v297h-724v180h933v-477z" />
    <glyph glyph-name="uni00AD" unicode="&#xad;" horiz-adv-x="635" 
d="M590 610h-548v169h548v-169z" />
    <glyph glyph-name="registered" unicode="&#xae;" horiz-adv-x="1808" 
d="M101 819q0 227 105 421t291 306t402 112q215 0 400.5 -112t290.5 -306t105 -421q0 -222 -101 -415t-287 -310.5t-409 -117.5q-221 0 -407 116.5t-288 309.5t-102 417zM230 819q0 -193 90 -358t244.5 -258t333.5 -93q181 0 336 95t243.5 258t88.5 356q0 192 -88.5 354
t-243.5 256t-336 94q-179 0 -334 -92.5t-244.5 -256.5t-89.5 -355zM733 734v-379h-158v953h310q172 0 267 -73.5t95 -213.5q0 -138 -144 -211q137 -56 138 -229v-69q0 -96 19 -139v-18h-163q-16 40 -16 144t-3 123q-18 108 -147 112h-198zM733 878h176q80 2 129.5 39.5
t49.5 97.5q0 82 -43.5 116.5t-156.5 34.5h-155v-288z" />
    <glyph glyph-name="macron" unicode="&#xaf;" horiz-adv-x="1053" 
d="M937 1475h-802v160h802v-160z" />
    <glyph glyph-name="degree" unicode="&#xb0;" horiz-adv-x="859" 
d="M146 1366q0 116 83.5 204t202.5 88q117 0 199.5 -87t82.5 -205q0 -119 -82.5 -203.5t-199.5 -84.5q-118 0 -202 84.5t-84 203.5zM432 1222q61 0 102.5 40t41.5 104q0 65 -41.5 107t-102.5 42t-103.5 -44.5t-42.5 -104.5q0 -61 42.5 -102.5t103.5 -41.5z" />
    <glyph glyph-name="plusminus" unicode="&#xb1;" horiz-adv-x="1229" 
d="M729 959h409v-169h-409v-465h-188v465h-432v169h432v464h188v-464zM1089 0h-937v171h937v-171z" />
    <glyph glyph-name="uni00B2" unicode="&#xb2;" horiz-adv-x="843" 
d="M767 749h-673v121l337 317q123 115 123 192q0 55 -36 89.5t-104 34.5q-84 0 -124 -43t-40 -107h-176q0 128 94 211.5t242 83.5t234.5 -71.5t86.5 -195.5q0 -116 -120 -237l-94 -88l-198 -163h448v-144z" />
    <glyph glyph-name="uni00B3" unicode="&#xb3;" horiz-adv-x="843" 
d="M298 1263h94q83 0 123.5 34.5t40.5 88.5q0 50 -35.5 83t-113.5 33q-64 0 -106.5 -29t-42.5 -75h-176q0 110 91.5 179t230.5 69q154 0 241.5 -68t87.5 -184q0 -62 -39 -113t-113 -79q167 -46 167 -207q0 -119 -95.5 -189t-248.5 -70q-148 0 -241 70.5t-93 190.5h177
q0 -50 44.5 -84t119.5 -34q79 0 120 34t41 91q0 127 -176 129h-98v130z" />
    <glyph glyph-name="acute" unicode="&#xb4;" horiz-adv-x="721" 
d="M355 1723h251l-301 -330h-167z" />
    <glyph glyph-name="mu" unicode="&#xb5;" horiz-adv-x="1303" 
d="M381 1215v-711q1 -183 59 -270.5t188 -87.5q223 0 293 171v898h209v-1215h-188l-10 129q-104 -151 -295 -151q-165 0 -256 82v-527h-208v1682h208z" />
    <glyph glyph-name="paragraph" unicode="&#xb6;" horiz-adv-x="1124" 
d="M725 0v584h-94q-258 0 -407 142.5t-149 383.5q0 239 149.5 382t407.5 143h302v-1635h-209z" />
    <glyph glyph-name="periodcentered" unicode="&#xb7;" horiz-adv-x="600" 
d="M165 819q0 54 32 89.5t96 35.5t97 -35.5t33 -89.5q0 -53 -33 -88.5t-97 -35.5t-96 35.5t-32 88.5z" />
    <glyph glyph-name="cedilla" unicode="&#xb8;" horiz-adv-x="569" 
d="M320 0l-13 -58q171 -31 171 -195q0 -109 -89.5 -172.5t-250.5 -63.5l-8 121q89 0 138 29t49 82q0 49 -36 72.5t-146 34.5l36 150h149z" />
    <glyph glyph-name="uni00B9" unicode="&#xb9;" horiz-adv-x="843" 
d="M556 757h-176v675l-243 -64v144l399 131h20v-886z" />
    <glyph glyph-name="ordmasculine" unicode="&#xba;" horiz-adv-x="1046" 
d="M137 1261q0 178 105.5 287.5t278.5 109.5q174 0 279.5 -108.5t105.5 -295.5v-83q0 -178 -105 -287t-278 -109t-279.5 109t-106.5 294v83zM320 1171q0 -112 54.5 -176t148.5 -64t147 64.5t53 178.5v87q0 111 -54.5 175t-147.5 64q-91 0 -145 -61.5t-56 -170.5v-97z" />
    <glyph glyph-name="guillemotright" unicode="&#xbb;" horiz-adv-x="1078" 
d="M199 96q-34 0 -57 24t-22 57q1 32 24 55q186 178 186 392t-186 392q-23 23 -24 55q-1 33 22 57q23 23 55 24q33 1 57 -22q234 -225 234 -506q0 -282 -234 -506q-23 -22 -55 -22zM615 96q-33 0 -57 24q-22 24 -22 57q1 32 25 55q185 178 185 392t-185 392q-24 23 -25 55
q0 33 22 57q23 23 56 24q32 1 56 -22q234 -225 234 -506q0 -282 -234 -506q-23 -22 -55 -22z" />
    <glyph glyph-name="onequarter" unicode="&#xbc;" horiz-adv-x="1685" 
d="M514 746h-176v675l-243 -64v143l399 132h20v-886zM498 133l-117 74l798 1278l117 -74zM1480 336h120v-146h-120v-190h-176v190h-421l-7 114l423 582h181v-550zM1053 336h251v324l-19 -31z" />
    <glyph glyph-name="onehalf" unicode="&#xbd;" horiz-adv-x="1785" 
d="M448 133l-117 74l799 1278l117 -74zM509 746h-177v675l-242 -64v143l399 132h20v-886zM1663 0h-672v121l336 317q123 115 123 192q0 55 -36 89.5t-103 34.5q-85 0 -124.5 -43t-39.5 -107h-177q0 128 94 211t242 83t234.5 -71t86.5 -195q0 -117 -120 -237l-94 -88
l-198 -163h448v-144z" />
    <glyph glyph-name="threequarters" unicode="&#xbe;" horiz-adv-x="1789" 
d="M640 133l-117 74l799 1278l117 -74zM1583 336h121v-146h-121v-190h-176v190h-421l-7 114l424 582h180v-550zM1157 336h250v324l-19 -31zM353 1265h94q83 0 123.5 34t40.5 88q0 51 -35.5 83.5t-113.5 32.5q-64 0 -106.5 -29t-42.5 -75h-176q0 110 91.5 179.5t230.5 69.5
q154 0 241.5 -68t87.5 -185q0 -62 -39 -113t-113 -79q167 -46 167 -207q0 -119 -95.5 -189t-248.5 -70q-148 0 -241 70.5t-93 190.5h177q0 -50 44.5 -84t119.5 -34q79 0 120 34t41 91q0 127 -176 129h-98v131z" />
    <glyph glyph-name="questiondown" unicode="&#xbf;" horiz-adv-x="1088" 
d="M660 764q-1 -119 -24 -190.5t-77 -138t-157 -174.5t-116 -219l-2 -42q0 -122 65 -187t188 -65q112 0 182.5 63.5t70.5 166.5h207q-2 -181 -128.5 -295.5t-331.5 -114.5q-220 0 -340.5 112.5t-120.5 313.5q0 195 180 391l122 127q75 88 75 252h207zM669 1120
q0 -51 -30.5 -85.5t-91.5 -34.5t-92.5 34.5t-31.5 85.5q0 49 31.5 82.5t92.5 33.5t91.5 -33.5t30.5 -82.5z" />
    <glyph glyph-name="AE" unicode="&#xc6;" horiz-adv-x="2150" 
d="M2110 0h-991l-17 396h-634l-230 -396h-254l989 1635h1068v-171h-776l22 -529h663v-169h-656l24 -596h792v-170zM582 592h512l-35 823z" />
    <glyph glyph-name="multiply" unicode="&#xd7;" horiz-adv-x="1226" 
d="M100 369l371 378l-369 376l134 138l369 -376l370 376l133 -138l-368 -376l371 -378l-134 -138l-372 379l-371 -379z" />
    <glyph glyph-name="Oslash" unicode="&#xd8;" horiz-adv-x="1581" 
d="M1448 765q0 -241 -81 -420t-229.5 -273t-345.5 -94q-192 0 -339 92l-109 -174h-160l162 259q-213 216 -213 620v93q0 236 81.5 417t231.5 277t344 96q240 0 406 -141l116 186h158l-178 -287q153 -210 156 -540v-111zM347 765q0 -274 110 -433l633 1016q-114 124 -300 124
q-205 0 -322.5 -155.5t-120.5 -431.5v-120zM1233 870q0 205 -63 352l-616 -990q102 -71 238 -71q209 0 323.5 152t117.5 436v121z" />
    <glyph glyph-name="Thorn" unicode="&#xde;" horiz-adv-x="1359" 
d="M395 1635v-329h314q165 0 288.5 -59t190 -168t66.5 -250q0 -218 -148 -347.5t-403 -129.5h-308v-352h-209v1635h209zM395 1135v-613h311q160 0 250 85t90 220q0 138 -90 222.5t-243 85.5h-318z" />
    <glyph glyph-name="germandbls" unicode="&#xdf;" horiz-adv-x="1368" 
d="M364 0h-208v1248q0 233 116.5 365t324.5 132q203 0 313.5 -100.5t110.5 -278.5q0 -141 -72 -255t-72 -191q0 -57 42 -110.5t147.5 -134.5t154 -157.5t48.5 -161.5q0 -179 -114 -278.5t-318 -99.5q-91 0 -193 24.5t-144 55.5l48 174q55 -35 131 -60t135 -25
q120 0 183.5 53t63.5 145q0 58 -41.5 112t-147.5 136.5t-155 160t-49 168.5q0 100 78 216t78 211q0 105 -58 165.5t-157 60.5q-245 0 -245 -330v-1245z" />
    <glyph glyph-name="ae" unicode="&#xe6;" horiz-adv-x="1942" 
d="M1417 -22q-293 0 -446 202q-73 -97 -199.5 -149.5t-285.5 -52.5q-187 0 -292.5 97t-105.5 266q0 177 127.5 274.5t375.5 97.5h250v96q0 120 -61.5 189t-178.5 69q-118 0 -196.5 -62t-78.5 -153l-207 22q0 160 136 262t346 102q129 0 228 -47t155 -140q71 89 168.5 138
t215.5 49q236 0 366 -144.5t130 -406.5v-129h-817q8 -198 105.5 -305t264.5 -107q166 0 302 85l53 35l72 -153q-177 -135 -427 -135zM527 146q81 0 169.5 41.5t144.5 102.5v266h-256q-131 -2 -210 -64t-79 -155q0 -87 60 -139t171 -52zM1368 1067q-129 0 -213 -96t-103 -252
h604v35q0 148 -75 230.5t-213 82.5z" />
    <glyph glyph-name="eth" unicode="&#xf0;" horiz-adv-x="1348" 
d="M921 1461q280 -296 280 -756v-104q0 -178 -66 -320t-187 -222.5t-272 -80.5q-152 0 -275.5 72t-191 198t-67.5 276q0 166 62.5 296.5t179 203.5t261.5 73q183 0 319 -128q-54 219 -213 378l-245 -167l-81 112l215 147q-148 102 -354 157l64 178q269 -60 465 -216l213 145
l82 -113zM993 713l-2 63q-38 69 -116 110t-181 41q-163 0 -254 -107.5t-91 -295.5q0 -157 94 -267t238 -110q140 0 226 127t86 334v105z" />
    <glyph glyph-name="divide" unicode="&#xf7;" horiz-adv-x="1313" 
d="M1201 674h-1121v206h1121v-206zM518 1233q0 54 32 90t96 36t97 -36t33 -90q0 -53 -33 -87.5t-97 -34.5t-96 34.5t-32 87.5zM518 316q0 53 32 89t96 36t97 -36t33 -89q0 -52 -33 -87.5t-97 -35.5t-96 35.5t-32 87.5z" />
    <glyph glyph-name="circumflex" unicode="&#x2c6;" horiz-adv-x="1083" 
d="M869 1417v-11h-172l-168 191l-167 -191h-172v14l276 305h126z" />
    <glyph glyph-name="caron" unicode="&#x2c7;" horiz-adv-x="1021" 
d="M503 1533l169 191h179v-11l-285 -308h-127l-282 308v11h177z" />
    <glyph glyph-name="uni02C9" unicode="&#x2c9;" horiz-adv-x="1055" 
d="M937 1475h-802v160h802v-160z" />
    <glyph glyph-name="uni02CB" unicode="&#x2cb;" horiz-adv-x="459" 
d="M172 1175l-118 81q104 146 108 307v162h205v-146q-1 -112 -55.5 -224t-139.5 -180z" />
    <glyph glyph-name="breve" unicode="&#x2d8;" horiz-adv-x="982" 
d="M818 1679q0 -136 -93 -218.5t-243 -82.5q-151 0 -244 83t-93 218h169q0 -79 43 -123t125 -44q78 0 122.5 43.5t44.5 123.5h169z" />
    <glyph glyph-name="dotaccent" unicode="&#x2d9;" horiz-adv-x="558" 
d="M158 1535q0 51 31 85.5t92 34.5q60 0 91.5 -34.5t31.5 -84.5q0 -51 -31.5 -85t-91.5 -34q-61 0 -92 34t-31 84z" />
    <glyph glyph-name="ring" unicode="&#x2da;" horiz-adv-x="769" 
d="M619 1581q0 -97 -69.5 -163t-172.5 -66t-172 66.5t-69 163.5q0 96 69 164.5t173 68.5q103 0 172 -68.5t69 -165.5zM247 1581q0 -53 37.5 -91t92.5 -38q54 0 92.5 37t38.5 92t-38 94t-93 39q-56 0 -93 -39.5t-37 -93.5z" />
    <glyph glyph-name="ogonek" unicode="&#x2db;" horiz-adv-x="622" 
d="M429 0l-65 -51q-127 -102 -127 -198q0 -81 88 -81q53 0 112 29l14 -136q-78 -49 -179 -49q-100 0 -158 58.5t-58 154.5q0 100 75.5 186.5t213.5 149.5z" />
    <glyph glyph-name="tilde" unicode="&#x2dc;" horiz-adv-x="1085" 
d="M932 1685q0 -122 -69 -197t-172 -75q-46 0 -80 11t-88.5 46t-78.5 42t-55 7q-46 0 -79 -35t-33 -90l-139 8q0 120 68 198.5t172 78.5q40 0 71.5 -11.5t85 -44t82.5 -42.5t64 -10q48 0 80 38.5t32 88.5z" />
    <glyph glyph-name="hungarumlaut" unicode="&#x2dd;" horiz-adv-x="858" 
d="M679 1724h233l-302 -340h-190zM298 1724h221l-245 -340h-168z" />
    <glyph glyph-name="uni02F3" unicode="&#x2f3;" horiz-adv-x="676" 
d="M142 -272q0 79 56 133.5t139 54.5q80 0 135 -54t55 -134q0 -78 -54 -130.5t-136 -52.5q-85 0 -140 53t-55 130zM239 -272q0 -39 29.5 -66t68.5 -27t66 27t27 66q0 41 -27 69t-66 28q-42 0 -70 -29.5t-28 -67.5z" />
    <glyph glyph-name="gravecomb" unicode="&#x300;" 
d="M-494 1393h-179l-289 330h251z" />
    <glyph glyph-name="acutecomb" unicode="&#x301;" 
d="M-521 1723h251l-301 -330h-167z" />
    <glyph glyph-name="tildecomb" unicode="&#x303;" 
d="M-200 1685q0 -122 -69 -197t-172 -75q-46 0 -80 11t-88.5 46t-78.5 42t-55 7q-47 0 -79.5 -35t-32.5 -90l-139 8q0 120 68 198.5t172 78.5q40 0 71.5 -11.5t85 -44t82.5 -42.5t64 -10q48 0 80 38.5t32 88.5z" />
    <glyph glyph-name="hookabovecomb" unicode="&#x309;" 
d="M-732 1394l-1 172q84 5 123 22t39 61q0 43 -51 65t-135 22l8 119q167 0 253.5 -57.5t86.5 -153.5q0 -68 -43.5 -113t-130.5 -58l-1 -79h-148z" />
    <glyph glyph-name="uni030F" unicode="&#x30f;" 
d="M-573 1406h-190l-343 299h252zM-280 1406h-168l-276 299h231z" />
    <glyph glyph-name="dotbelowcomb" unicode="&#x323;" horiz-adv-x="556" 
d="M-800 -275q0 50 31 85t92 35q60 0 91.5 -35t31.5 -85q0 -51 -31.5 -84.5t-91.5 -33.5q-61 0 -92 33.5t-31 84.5z" />
    <glyph glyph-name="uni060C" unicode="&#x60c;" horiz-adv-x="630" 
d="M271 47q-87 72 -91 181q-4 111 81 241q30 46 69 91q15 17 31 33q12 13 23 24q20 19 49 19t49 -21t19 -49q0 -29 -21 -49q-141 -136 -160 -256q11 10 25 18q72 37 145 -10q68 -44 63 -122q-5 -98 -87 -134q-30 -13 -66 -13q-74 0 -129 47z" />
    <glyph glyph-name="uni0615" unicode="&#x615;" 
d="M171 1361q41 37 41 81q0 9 -3 20q-4 25 -17 40q-10 9 -23 14q-15 6 -33 6q-21 0 -47 -7q-44 -13 -75 -38q-79 -64 -157 -176q-2 -10 -8 -16q36 -4 70 -4q72 0 133 17q74 20 119 63zM291 1478q4 -20 4 -38q0 -78 -66 -139q-61 -58 -155 -84q-71 -19 -155 -19q-57 0 -121 9
q-13 -22 -26 -46q-11 -21 -36 -21q-11 0 -21 5q-14 8 -19 25q-2 6 -2 12q0 10 5 20l12 21q-56 13 -112 32q-17 5 -24 21q-5 9 -5 18q0 7 2 13q6 17 21 24q9 5 19 5q6 0 13 -2q66 -23 131 -36q12 18 23 35q24 137 24 273q0 113 -17 224v7q0 13 8 24q10 14 27 17h7q13 0 24 -8
q14 -10 16 -27q18 -117 18 -237q0 -70 -6 -142q40 44 81 78q46 37 108 54q31 8 59 9h8q33 0 61 -10q77 -28 94 -117z" />
    <glyph glyph-name="uni061B" unicode="&#x61b;" horiz-adv-x="512" 
d="M149 464q-87 72 -91 181q-4 111 81 241q30 46 69 91q15 17 31 33q12 13 23 24q20 19 49 19t49 -21t19 -49q0 -29 -21 -49q-141 -136 -160 -256q11 10 25 18q72 37 145 -10q68 -44 63 -122q-5 -98 -87 -134q-30 -13 -66 -13q-74 0 -129 47zM385 126q0 -56 -40 -96t-97 -40
q-56 0 -96 40t-40 96q0 57 40 97t96 40q57 0 97 -40t40 -97z" />
    <glyph glyph-name="uni061F" unicode="&#x61f;" horiz-adv-x="1024" 
d="M487 416q-29 29 -29 70q0 169 -19 224q-24 70 -119 130q-111 71 -169 144q-81 103 -81 233v16l2 24q4 32 11 64q22 90 73 160q52 69 126 110q99 55 230 55q177 0 303 -110q139 -121 139 -322q0 -41 -29 -70t-70 -29t-70 29t-29 70q0 124 -88 186q-67 48 -156 48
q-150 0 -211 -107q-20 -35 -29 -78l-4 -30v-16q0 -60 36 -107q35 -48 122 -103q153 -98 200 -232q30 -87 30 -289q0 -41 -29 -70t-70 -29t-70 29zM705 136q0 -56 -40 -96t-97 -40q-56 0 -96 40t-40 96q0 57 40 97t96 40q57 0 97 -40t40 -97z" />
    <glyph glyph-name="uni0640" unicode="&#x640;" horiz-adv-x="907" 
d="M927 196v-196h-947v196h947z" />
    <glyph glyph-name="uni064B" unicode="&#x64b;" 
d="M-260 1640q-7 20 2 39q9 20 29 27l433 153q20 8 39 -2q19 -9 26 -29q8 -20 -2 -39q-9 -19 -29 -26l-432 -154q-9 -3 -17 -3q-37 0 -49 34zM-260 1896q-7 20 2 40q9 19 29 26l433 154q20 7 39 -2q19 -10 26 -30q8 -20 -2 -39q-9 -19 -29 -26l-432 -154q-9 -3 -17 -3
q-37 0 -49 34z" />
    <glyph glyph-name="uni064C" unicode="&#x64c;" 
d="M98 1968q-16 -13 -25 -32q-10 -22 -6 -46q13 -71 120 -107q52 85 37 148q-8 34 -43 49q-15 7 -31 7q-28 0 -52 -19zM-165 1503q-20 23 -10 51l5 16l7 16q36 96 17 127q-9 15 -19 21q-4 2 -7 3h-5q-35 4 -79 -44q-14 -16 -36 -17q-21 -1 -36 14q-16 14 -17 35q-1 22 14 37
q78 86 164 78q28 -3 53 -17q32 -19 55 -55q39 -63 14 -153q93 34 159 87l-12 5q-116 57 -136 164q-9 50 9 98q19 47 60 80q88 69 188 25q81 -36 101 -119q21 -88 -33 -196l10 -1q21 -3 33 -20q13 -17 10 -38t-20 -34t-38 -10q-31 5 -59 10q-72 -77 -187 -128
q-43 -19 -89 -33q-34 -11 -67 -18l-11 -1q-23 0 -38 17z" />
    <glyph glyph-name="uni064D" unicode="&#x64d;" 
d="M-267 -763q-7 20 2 39q9 20 29 27l433 153q20 8 39 -2q19 -9 26 -29q8 -20 -2 -39q-9 -19 -29 -26l-432 -154q-9 -3 -17 -3q-37 0 -49 34zM-267 -507q-7 20 2 40q9 19 29 26l433 154q20 7 39 -2q19 -10 26 -30q8 -20 -2 -39q-9 -19 -29 -26l-432 -154q-9 -3 -17 -3
q-37 0 -49 34z" />
    <glyph glyph-name="uni064E" unicode="&#x64e;" 
d="M-260 1633q-7 20 2 40q9 19 29 26l433 154q20 7 39 -2q19 -10 26 -30q8 -20 -2 -39q-9 -19 -29 -26l-432 -154q-9 -3 -17 -3q-37 0 -49 34z" />
    <glyph glyph-name="uni064F" unicode="&#x64f;" 
d="M29 2016l-10 -5l-9 -4q-27 -15 -44 -41q-17 -25 -15 -48q5 -58 136 -102q39 77 30 139q-6 37 -33 56q-12 9 -29 9q-12 0 -26 -4zM-269 1562q-6 20 5 39q11 18 32 23q172 45 250 108q-160 64 -169 177q-5 53 26 105q30 51 85 82q102 58 184 -1q62 -45 74 -124
q13 -84 -31 -183l12 -2q21 -5 32 -23q12 -18 7 -38q-5 -21 -23 -33q-18 -11 -38 -6l-11 2l-12 3q-13 3 -25 6q-58 -66 -155 -111q-72 -33 -181 -61q-6 -2 -13 -2q-39 0 -49 39z" />
    <glyph glyph-name="uni0650" unicode="&#x650;" 
d="M-263 -517q-7 20 2 39q9 20 29 27l433 153q20 8 39 -2q19 -9 26 -29q8 -20 -2 -39q-9 -19 -29 -26l-432 -154q-9 -3 -17 -3q-37 0 -49 34z" />
    <glyph glyph-name="uni0651" unicode="&#x651;" 
d="M292 1908q8 -55 -9 -104q-16 -50 -54 -81q-45 -38 -106 -38q-31 0 -58 11q-33 13 -59 39q-20 -24 -45 -40q-43 -27 -92 -27q-38 0 -70 16q-75 39 -87 130q-9 67 26 139q9 19 29 26t39 -2q20 -9 27 -29t-3 -40q-9 -18 -13 -36q-6 -24 -3 -44q5 -38 32 -52q28 -14 60 6
t46 65q13 38 11 98q-1 21 13 37q15 15 36 16q22 1 37 -14q16 -14 16 -36q2 -55 -6 -97l3 -10q5 -36 39 -49q35 -13 63 10q36 30 27 91q-7 47 -52 119q-11 18 -6 38q5 21 23 32q18 12 38 7q21 -5 32 -23q57 -90 66 -158z" />
    <glyph glyph-name="uni0652" unicode="&#x652;" 
d="M13 1782q35 -1 57 21q17 17 26 46q8 24 8 49q0 47 -41 83q-6 6 -12 10q-9 6 -18 10q-24 11 -49 8q-23 -2 -42 -14q-14 -10 -24 -24q-30 -42 -17 -95q10 -43 40 -69q30 -25 71 -25h1zM12 1679q-77 0 -135 48t-76 126q-23 98 33 177q51 72 140 82q88 9 158 -54
q75 -67 75 -160q0 -104 -65 -168q-52 -51 -128 -51h-2z" />
    <glyph glyph-name="uni0653" unicode="&#x653;" 
d="M-386 1534q-27 18 -33 50q-7 33 11 60l10 14l10 15q12 18 24 32q29 36 61 60q85 64 198 44q34 -6 79 -19l41 -12l41 -14l49 -16q27 -8 48 -14q52 -14 85 -16q115 -6 194 104q19 27 52 32q32 5 59 -14q26 -19 31 -52q6 -32 -14 -58q-130 -181 -330 -170q-47 3 -110 19
q-25 7 -57 17l-57 18q-99 33 -138 39q-43 8 -72 -11q-28 -19 -72 -86q-23 -35 -66 -35q-24 0 -44 13z" />
    <glyph glyph-name="uni0654" unicode="&#x654;" 
d="M-260 1476q-11 18 -5 39q6 20 24 31l157 90q-17 6 -31 15q-48 29 -74 83q-26 53 -21 111q6 54 37 101t80 75q94 53 204 22q20 -6 31 -25q10 -18 4 -39q-6 -20 -24 -30q-19 -11 -39 -5q-69 20 -125 -13q-59 -33 -65 -96q-7 -65 45 -96q23 -14 55 -16q12 0 25 1q10 1 20 3
q27 6 60 20l30 13l30 14q19 9 38 3q20 -7 30 -25q9 -18 4 -38q-6 -20 -24 -31l-396 -226q-12 -7 -25 -7q-30 0 -45 26z" />
    <glyph glyph-name="uni0655" unicode="&#x655;" 
d="M-250 -689q-11 18 -5 39q6 20 24 31l157 90q-17 6 -31 15q-48 29 -74 83q-26 53 -21 111q6 54 37 101t80 75q94 53 204 22q20 -6 31 -25q10 -18 4 -39q-6 -20 -24 -30q-19 -11 -39 -5q-69 20 -125 -13q-59 -33 -65 -96q-7 -65 45 -96q23 -14 55 -16q12 0 25 1q10 1 20 3
q27 6 60 20l30 13l30 14q19 9 38 3q20 -7 30 -25q9 -18 4 -38q-6 -20 -24 -31l-396 -226q-12 -7 -25 -7q-30 0 -45 26z" />
    <glyph glyph-name="uni0656" unicode="&#x656;" 
d="M-18 -875q-20 5 -32 23q-11 18 -7 39q43 190 5 382q-4 21 8 38q12 18 33 22t39 -8q17 -12 21 -33q42 -212 -5 -424q-9 -40 -50 -40z" />
    <glyph glyph-name="uni0660" unicode="&#x660;" horiz-adv-x="990" 
d="M170 542q0 70 26.5 131.5t72.5 108t107.5 73.5t132.5 27q70 0 131.5 -27t108 -73.5t73.5 -108t27 -131.5q0 -71 -27 -132.5t-73.5 -107.5t-108 -72.5t-131.5 -26.5q-71 0 -132.5 26.5t-107.5 72.5t-72.5 107.5t-26.5 132.5zM333 542q0 -36 14 -68t38 -56t56 -38t68 -14
t68.5 14t56.5 38t38 56t14 68t-14 68.5t-38 56.5t-56.5 38t-68.5 14t-68 -14t-56 -38t-38 -56.5t-14 -68.5z" />
    <glyph glyph-name="uni0661" unicode="&#x661;" horiz-adv-x="662" 
d="M446 -66q-41 1 -69 31t-27 70q8 307 -37 644q-56 416 -169 612q-20 35 -9 75q10 40 46 60q35 20 75 10q39 -11 60 -46q127 -223 190 -665q50 -360 41 -695q-1 -40 -29 -68q-29 -28 -69 -28h-3z" />
    <glyph glyph-name="uni0662" unicode="&#x662;" horiz-adv-x="1137" 
d="M402 -74q-40 2 -68 32t-26 71q32 690 -214 1261q-16 37 -1 75t53 54q37 17 75 2t54 -52l17 -39l16 -39q77 -186 140 -244l11 -8q6 -6 13 -11q19 -14 38 -24q52 -28 102 -28q40 0 77 19q76 38 106 144q14 51 15 117q1 47 -5 110q-5 41 21 73q26 31 67 36q41 4 72 -22
q32 -26 36 -67q8 -79 7 -141q-2 -87 -23 -159q-53 -189 -206 -267q-118 -60 -249 -32q-42 9 -83 27q11 -54 20 -108q55 -332 39 -686q-2 -39 -31 -67q-29 -27 -68 -27h-5z" />
    <glyph glyph-name="uni0663" unicode="&#x663;" horiz-adv-x="1439" 
d="M323 -25q-29 29 -28 70v82v82q0 91 -2 164q-6 184 -25 327q-23 180 -130 443l-24 58l-24 59l-18 46l-2 6q-16 38 0 75q16 38 54 53q38 16 76 0q37 -16 53 -54l2 -6q9 -22 19 -48l10 -22l8 -22l12 -29l12 -27q57 -133 107 -187q60 -64 141 -55q42 5 67 38q38 46 52 143
q5 37 6 80q2 35 0 69q-2 16 -3 30v9v4q-2 40 24 70q27 30 66 33q40 3 71 -22t35 -65q1 -3 1 -7q1 -4 1 -10q1 -13 2 -29q6 -50 16 -100q14 -64 33 -112q52 -130 131 -130q3 0 7 1q5 2 10 5q15 8 27 22q42 53 25 160q-14 95 -44 186q-13 39 6 75q18 37 57 50q39 12 76 -6
q36 -19 49 -58q35 -105 52 -217q17 -111 -9 -201q-20 -68 -63 -119q-81 -95 -191 -96h-2q-134 0 -228 107q-15 18 -29 38q-10 -18 -23 -33q-77 -97 -199 -111q-71 -8 -134 8q6 -36 11 -76q21 -152 26 -343q2 -76 3 -170l-1 -169q0 -40 -29 -69t-70 -29t-70 29z" />
    <glyph glyph-name="uni0664" unicode="&#x664;" horiz-adv-x="1104" 
d="M418 -3q-154 66 -201 229q-43 148 42 298q49 86 132 159q-162 41 -239 142q-29 39 -45 85q-12 36 -15 75q-14 195 160 342q131 110 323 159q40 11 75 -10t46 -61q10 -40 -11 -75t-61 -45q-140 -36 -234 -111q-108 -85 -101 -184l1 -5v-6q1 -8 3 -14q6 -18 18 -34
q37 -44 131 -67q47 -12 106 -18q79 -7 171 -2q38 1 68 -23q29 -24 35 -61q6 -38 -15 -69q-21 -32 -58 -42q-88 -23 -175 -84q-96 -67 -143 -148q-44 -78 -24 -147q21 -72 89 -101q75 -32 193 -18q103 13 172 49q37 19 76 7t58 -48q19 -37 7 -76t-49 -58q-59 -31 -143 -52
q-96 -24 -188 -24q-115 0 -204 38z" />
    <glyph glyph-name="uni0665" unicode="&#x665;" horiz-adv-x="1240" 
d="M285 136q-158 150 -158 400q0 166 86 340q35 70 87 148q37 57 93 130q24 32 65 38q40 6 73 -19t38 -65q6 -41 -19 -74q-105 -138 -153 -234q-72 -140 -72 -264q0 -179 110 -269q85 -69 196 -69q142 0 229 97q73 83 73 182q0 125 -63 273q-47 112 -128 229
q-82 120 -185 226q-86 89 -163 145q-33 24 -40 64q-6 41 18 74t65 39q40 7 73 -17q214 -156 395 -419q95 -139 152 -275q74 -180 74 -339q0 -184 -134 -325q-145 -152 -366 -152q-203 0 -346 136z" />
    <glyph glyph-name="uni0666" unicode="&#x666;" horiz-adv-x="1166" 
d="M874 10q-93 214 -131 570q-34 320 -15 647q-122 -27 -240 -27h-2q-227 0 -389 100q-35 21 -44 61q-10 40 12 75q21 35 61 44q40 10 75 -12q121 -74 300 -71q152 3 303 58q52 18 95 -16q43 -33 37 -88q-33 -313 -5 -662q31 -385 124 -601q16 -38 1 -76t-52 -54
q-19 -8 -39 -8q-66 0 -91 60z" />
    <glyph glyph-name="uni0667" unicode="&#x667;" horiz-adv-x="1291" 
d="M669 -74q-38 0 -66 25q-28 26 -32 64q-67 657 -456 1353q-20 36 -9 75t47 59t75 9t59 -47q257 -459 386 -932q56 188 147 421q36 91 81 199q17 42 39 94l19 45l19 44q36 85 52 123q15 37 53 53q38 15 76 0q38 -16 53 -54q16 -38 0 -76q-16 -37 -52 -123l-14 -32l-14 -33
q-16 -38 -29 -70q-33 -80 -61 -147q-70 -175 -121 -320q-133 -384 -153 -639q-3 -38 -31 -64q-28 -27 -67 -27h-1z" />
    <glyph glyph-name="uni0668" unicode="&#x668;" horiz-adv-x="1351" 
d="M178 -63q-37 18 -50 57t6 75q152 302 272 643q144 409 181 719q5 38 33 62q28 25 66 25h1q37 0 65 -25q28 -26 32 -63q35 -349 186 -745q114 -301 286 -608q20 -36 9 -76q-12 -39 -47 -59q-36 -20 -75 -9q-40 11 -60 47q-271 486 -401 946q-139 -486 -372 -946
q-27 -54 -88 -54q-23 0 -44 11z" />
    <glyph glyph-name="uni0669" unicode="&#x669;" horiz-adv-x="1098" 
d="M386 1348q-54 -38 -84 -116q-31 -78 -19 -147q14 -82 69 -115q48 -29 125 -29q62 0 116 17q20 7 41 4q2 166 -16 245q-24 107 -96 146q-36 19 -68 19q-35 0 -68 -24zM769 1q-27 21 -35 55q-83 352 -97 709q-92 -26 -189 -21q-115 6 -198 57q-133 81 -162 251
q-21 124 30 253q52 132 153 204q77 56 168 60q90 5 177 -42q151 -82 196 -280q15 -67 19 -154q1 -34 1 -76v-37v-36v-86q7 -387 94 -757q10 -39 -12 -74q-21 -35 -61 -44q-11 -3 -23 -3q-34 0 -61 21z" />
    <glyph glyph-name="uni066A" unicode="&#x66a;" horiz-adv-x="1217" 
d="M1080 187q0 -68 -48 -116t-116 -48t-116 48t-48 116t48 116t116 48t116 -48t48 -116zM449 1303q0 -68 -48 -116t-116 -48t-116 48t-48 116t48 116t116 48t116 -48t48 -116zM278 -57q-39 14 -55 51q-17 38 -3 76l558 1462q14 38 52 55q37 17 75 2q39 -15 55 -52
q17 -37 3 -76l-558 -1461q-24 -64 -92 -64q-18 0 -35 7z" />
    <glyph glyph-name="uni066B" unicode="&#x66b;" horiz-adv-x="689" 
d="M55 -257q-26 12 -36 39t1 53l457 998q12 26 39 36t53 -2t36 -39t-2 -53l-457 -998q-18 -40 -63 -40q-15 0 -28 6z" />
    </font>
</defs>
</svg>
