<?xml version="1.0" standalone="no"?>
<!DOCTYPE svg PUBLIC "-//W3C//DTD SVG 1.1//EN" "http://www.w3.org/Graphics/SVG/1.1/DTD/svg11.dtd" >
<svg xmlns="http://www.w3.org/2000/svg">
<metadata>Generated by IcoMoon</metadata>
<defs>
<font id="icomoon" horiz-adv-x="1024">
<font-face units-per-em="1024" ascent="960" descent="-64" />
<missing-glyph horiz-adv-x="1024" />
<glyph unicode="&#x20;" horiz-adv-x="512" d="" />
<glyph unicode="&#xe900;" glyph-name="icon-skype" d="M393.6 337.663c0 22.975-18.625 41.6-41.6 41.6s-41.6-18.625-41.6-41.6h83.2zM614.839 566.294c0-22.975 18.625-41.6 41.603-41.6 22.97 0 41.6 18.625 41.6 41.6h-83.203zM928.288 373.199l-40.922 7.492c-1.734-9.487-0.122-19.282 4.563-27.71l36.358 20.218zM902.067 615.165v0zM811.379 749.974l-29.466-29.368 0.026-0.023 29.44 29.391zM676.915 840.851v0zM432.136 866.596l5.697-41.208c0.725 0.1 1.447 0.22 2.166 0.358l-7.863 40.85zM431.937 866.569l-19.567-36.711c7.737-4.124 16.579-5.698 25.264-4.497l-5.697 41.208zM137.363 822.445v0zM95.514 523.178l40.988-7.114c1.623 9.354-0.001 18.981-4.604 27.284l-36.383-20.17zM122.42 284.986l38.338 16.147-0.017 0.045-38.321-16.192zM213.051 150.182l-29.457-29.37 0.016-0.019 29.441 29.389zM347.562 59.322l16.269 38.285-0.072 0.032-16.197-38.317zM586.348 32.544l20.52 36.186c-8.429 4.781-18.261 6.464-27.801 4.768l7.281-40.954zM886.643 73.517l-29.44 29.395-0.019-0.019 29.459-29.376zM513.364 276.269c-99.48 0-119.764 49.857-119.764 61.394h-83.2c0-76.709 79.47-144.594 202.964-144.594v83.2zM394.665 536.847c0 30.936 12.561 49.404 30.764 61.775 20.163 13.702 49.62 21.11 81.476 21.11v83.2c-42.649 0-90.11-9.583-128.242-35.498-40.091-27.246-67.197-71.021-67.197-130.588h83.2zM506.904 619.733c26.989 0 57.067-8.248 79.386-21.399 23.927-14.098 28.549-26.862 28.549-32.040h83.203c0 49.119-35.834 83.875-69.514 103.722-35.29 20.794-79.981 32.917-121.623 32.917v-83.2zM630.4 341.333c0-23.49-9.658-37.052-27.264-47.087-20.364-11.603-51.729-17.978-89.772-17.978v-83.2c44.76 0 92.712 7.098 130.969 28.896 41.005 23.366 69.267 63.142 69.267 119.368h-83.2zM311.465 536.847c0-27.825 6.721-52.668 21.071-73.453 14.189-20.55 33.575-33.86 53.44-42.706 37.489-16.694 85.031-20.673 122.767-24.125 42.152-3.856 74.429-7.171 96.893-16.898 10.113-4.38 15.549-9.039 18.673-13.466 2.922-4.139 6.092-11.254 6.092-24.867h83.2c0 27.606-6.797 52.27-21.318 72.843-14.317 20.285-33.798 33.27-53.584 41.839-37.337 16.168-84.794 19.965-122.376 23.403-41.997 3.842-74.189 7.34-96.501 17.276-10.035 4.469-15.565 9.261-18.819 13.973-3.091 4.477-6.337 12.055-6.337 26.181h-83.2zM969.21 365.706c5.056 27.63 7.725 55.965 7.725 84.377h-83.2c0-23.228-2.182-46.547-6.368-69.392l81.843-14.985zM976.934 450.083c0 62.753-12.269 123.803-36.55 181.273l-76.64-32.381c19.904-47.112 29.99-97.14 29.99-148.892h83.2zM940.39 631.34c-23.398 55.455-56.915 105.297-99.571 148.025l-58.88-58.781c35.098-35.157 62.573-76.028 81.798-121.592l76.653 32.348zM840.845 779.341c-42.611 42.749-92.378 76.343-147.68 99.806l-32.493-76.592c45.414-19.269 86.208-46.799 121.242-81.949l58.931 58.735zM693.165 879.148c-57.332 24.32-118.274 36.634-180.912 36.634v-83.2c51.577 0 101.46-10.107 148.419-30.027l32.493 76.593zM512.253 915.782c-29.512 0-59.107-2.778-87.98-8.336l15.726-81.7c23.599 4.543 47.926 6.836 72.254 6.836v83.2zM426.438 907.804l-0.198-0.027 11.395-82.416 0.198 0.028-11.395 82.416zM451.505 903.28c-41.957 22.363-89.151 34.32-137.029 34.32v-83.2c34.085 0 67.856-8.531 97.895-24.542l39.134 73.422zM314.476 937.6c-77.967 0-151.468-30.521-206.57-85.78l58.915-58.748c39.508 39.62 91.816 61.328 147.655 61.328v83.2zM107.91 851.824c-55.084-55.225-85.51-128.85-85.51-206.918h83.2c0 56.061 21.704 108.549 61.217 148.162l-58.907 58.756zM22.4 644.906c0-49.785 12.775-98.685 36.731-141.898l72.766 40.34c-17.155 30.945-26.297 65.974-26.297 101.557h-83.2zM54.526 530.292c-4.562-26.284-6.984-53.217-6.984-80.209h83.2c0 22.044 1.981 44.215 5.759 65.981l-81.975 14.228zM47.543 450.083c0-62.771 12.277-123.812 36.557-181.283l76.641 32.378c-19.907 47.121-29.998 97.144-29.998 148.906h-83.2zM84.082 268.838c23.377-55.501 56.914-105.312 99.512-148.026l58.913 58.746c-35.085 35.181-62.565 76.032-81.749 121.574l-76.676-32.294zM183.61 120.794c42.622-42.694 92.324-76.358 147.754-99.789l32.394 76.634c-45.4 19.194-86.138 46.746-121.267 81.939l-58.881-58.784zM331.292 21.037c57.349-24.371 118.313-36.691 180.954-36.691v83.2c-51.574 0-101.461 10.112-148.415 30.061l-32.539-76.57zM512.246-15.654c27.382 0 54.735 2.502 81.383 7.238l-14.563 81.914c-21.997-3.91-44.477-5.952-66.82-5.952v-83.2zM565.828-3.648c43.692-24.774 93.18-37.952 143.746-37.952v83.2c-36.090 0-71.45 9.408-102.707 27.13l-41.039-72.378zM709.574-41.6c77.939 0 151.411 30.464 206.528 85.747l-58.918 58.746c-39.507-39.622-91.776-61.293-147.61-61.293v-83.2zM916.083 44.128c55.13 55.213 85.517 128.864 85.517 206.918h-83.2c0-56.077-21.69-108.563-61.197-148.134l58.88-58.784zM1001.6 251.046c0 49.946-12.838 99-36.954 142.37l-72.717-40.435c17.28-31.075 26.47-66.223 26.47-101.935h83.2z" />
<glyph unicode="&#xe901;" glyph-name="icon-calendar" d="M75.833 580.741h-36.978c0-20.422 16.556-36.978 36.978-36.978v36.978zM948.127 580.741v-36.978c20.423 0 36.978 16.556 36.978 36.978h-36.978zM112.811 466.963c0 20.423-16.556 36.978-36.978 36.978s-36.978-16.555-36.978-36.978h73.956zM985.105 466.963c0 20.423-16.555 36.978-36.978 36.978-20.417 0-36.978-16.555-36.978-36.978h73.956zM228.485 713.482c0-20.423 16.556-36.978 36.978-36.978s36.978 16.555 36.978 36.978h-73.956zM302.441 846.222c0 20.422-16.555 36.978-36.978 36.978s-36.978-16.556-36.978-36.978h73.956zM795.477 846.222c0 20.422-16.555 36.978-36.978 36.978s-36.978-16.556-36.978-36.978h73.956zM721.522 713.482c0-20.423 16.555-36.978 36.978-36.978s36.978 16.555 36.978 36.978h-73.956zM265.463 428.089c-20.422 0-36.978-16.556-36.978-36.978s16.556-36.978 36.978-36.978v73.956zM758.5 354.133c20.423 0 36.978 16.556 36.978 36.978s-16.555 36.978-36.978 36.978v-73.956zM265.463 276.383c-20.422 0-36.978-16.555-36.978-36.978s16.556-36.978 36.978-36.978v73.956zM530.945 202.428c20.422 0 36.978 16.555 36.978 36.978s-16.556 36.978-36.978 36.978v-73.956zM132.722 12.8h758.516v73.956h-758.516v-73.956zM891.238 807.348h-758.516v-73.956h758.516v73.956zM38.856 713.482v-132.741h73.956v132.741h-73.956zM985.105 580.741v132.741h-73.956v-132.741h73.956zM75.833 543.763h872.294v73.956h-872.294v-73.956zM38.856 466.963v-360.296h73.956v360.296h-73.956zM985.105 106.667v360.296h-73.956v-360.296h73.956zM302.441 713.482v132.741h-73.956v-132.741h73.956zM721.522 846.222v-132.741h73.956v132.741h-73.956zM265.463 354.133h493.037v73.956h-493.037v-73.956zM265.463 202.428h265.482v73.956h-265.482v-73.956zM891.238 733.393c10.997 0 19.911-8.914 19.911-19.911h73.956c0 51.841-42.024 93.867-93.867 93.867v-73.956zM891.238 12.8c51.843 0 93.867 42.024 93.867 93.867h-73.956c0-10.997-8.914-19.911-19.911-19.911v-73.956zM132.722 86.756c-10.997 0-19.911 8.914-19.911 19.911h-73.956c0-51.843 42.026-93.867 93.867-93.867v73.956zM132.722 807.348c-51.841 0-93.867-42.026-93.867-93.867h73.956c0 10.997 8.914 19.911 19.911 19.911v73.956z" />
<glyph unicode="&#xe902;" glyph-name="icon-envelope" d="M112.811 507.258c0 20.422-16.556 36.978-36.978 36.978s-36.978-16.556-36.978-36.978h73.956zM985.105 507.258c0 20.422-16.555 36.978-36.978 36.978-20.417 0-36.978-16.556-36.978-36.978h73.956zM483.184 398.531v0zM189.611 50.722h644.738v73.956h-644.738v-73.956zM839.6 845.273h-655.241v-73.956h655.241v73.956zM110.706 574.283l353.76-207.642 37.437 63.78-353.761 207.642-37.436-63.78zM559.497 366.641l353.763 207.642-37.439 63.78-353.761-207.642 37.436-63.78zM38.856 507.258v-305.781h73.956v305.781h-73.956zM985.105 201.478v305.781h-73.956v-305.781h73.956zM911.15 699.769c0-25.379-13.443-48.858-35.328-61.705l37.439-63.78c44.51 26.126 71.845 73.874 71.845 125.486h-73.956zM464.466 366.641c29.337-17.22 65.694-17.219 95.031 0l-37.436 63.78c-6.223-3.653-13.936-3.652-20.158 0l-37.437-63.78zM38.856 699.769c0-51.611 27.34-99.36 71.85-125.486l37.436 63.78c-21.887 12.847-35.331 36.326-35.331 61.705h-73.956zM839.6 771.317c39.521 0 71.549-32.034 71.549-71.549h73.956c0 80.36-65.143 145.504-145.505 145.504v-73.956zM834.35 50.722c83.263 0 150.756 67.499 150.756 150.756h-73.956c0-42.411-34.384-76.8-76.8-76.8v-73.956zM189.611 124.678c-42.416 0-76.8 34.389-76.8 76.8h-73.956c0-83.257 67.495-150.756 150.756-150.756v73.956zM184.36 845.273c-80.36 0-145.504-65.145-145.504-145.504h73.956c0 39.515 32.034 71.549 71.549 71.549v73.956z" />
<glyph unicode="&#xe903;" glyph-name="icon-location" d="M580.528 33.37l33.098-25.203 0.375 0.493 0.36 0.506-33.834 24.205zM443.446 33.37l-33.075-25.235 0.036-0.045 33.039 25.28zM512 423.912v41.6h-0.013l0.013-41.6zM512.026-41.6c39.604 0 77.478 18.086 101.6 49.766l-66.196 50.4c-7.862-10.323-20.899-16.966-35.404-16.966v-83.2zM905.6 557.862c0 211.297-177.83 379.738-393.6 379.738v-83.2c173.011 0 310.4-134.314 310.4-296.538h83.2zM512 937.6c-215.829 0-393.6-168.445-393.6-379.738h83.2c0 162.228 137.343 296.538 310.4 296.538v83.2zM118.4 557.862c0-41.613 13.741-88.739 33.040-135.459 19.615-47.485 46.521-98.168 76.131-147.946 59.241-99.584 131.19-198.669 182.801-266.323l66.149 50.464c-50.788 66.579-120.563 162.778-177.444 258.4-28.452 47.827-53.208 94.731-70.739 137.171-17.847 43.205-26.737 78.344-26.737 103.693h-83.2zM410.407 8.090c24.173-31.59 61.996-49.69 101.619-49.69v83.2c-14.486 0-27.574 6.63-35.542 17.050l-66.077-50.56zM407.185 564.536c0 53.126 45.318 99.024 104.815 99.024v83.2c-102.255 0-188.015-80.019-188.015-182.224h83.2zM512 663.56c59.466 0 104.789-45.893 104.789-99.024h83.198c0 102.2-85.754 182.224-187.987 182.224v-83.2zM616.789 564.536c0-53.131-45.324-99.024-104.789-99.024v-83.2c102.234 0 187.987 80.024 187.987 182.224h-83.198zM511.987 465.512c-59.48-0.019-104.803 45.866-104.803 99.024h-83.2c0-102.223 85.756-182.256 188.028-182.224l-0.026 83.2zM614.362 9.165c25.824 36.096 55.936 74.496 87.949 116.486 31.648 41.517 64.589 85.837 94.349 131.814 58.874 90.952 108.941 193.731 108.941 300.397h-83.2c0-81.93-39.040-167.828-95.584-255.187-27.955-43.187-59.302-85.427-90.671-126.579-31.006-40.678-62.645-81.056-89.45-118.522l67.667-48.41z" />
<glyph unicode="&#xe904;" glyph-name="icon-phone" horiz-adv-x="910" d="M426.667 172.089c-20.423 0-36.978-16.555-36.978-36.978s16.555-36.978 36.978-36.978v73.956zM483.556 98.133c20.422 0 36.978 16.555 36.978 36.978s-16.556 36.978-36.978 36.978v-73.956zM369.778 817.778h-36.978c0-20.423 16.555-36.978 36.978-36.978v36.978zM540.444 817.778v-36.978c20.422 0 36.978 16.555 36.978 36.978h-36.978zM256-15.644h398.222v73.956h-398.222v-73.956zM426.667 98.133h28.444v73.956h-28.444v-73.956zM455.111 98.133h28.444v73.956h-28.444v-73.956zM369.778 911.644h-113.778v-73.956h113.778v73.956zM332.8 874.667v-56.889h73.956v56.889h-73.956zM369.778 780.8h170.667v73.956h-170.667v-73.956zM654.222 911.644h-113.778v-73.956h113.778v73.956zM540.444 911.644h-170.667v-73.956h170.667v73.956zM577.422 817.778v56.889h-73.956v-56.889h73.956zM748.089 78.222v739.556h-73.956v-739.556h73.956zM162.133 817.778v-739.556h73.956v739.556h-73.956zM654.222 837.689c10.997 0 19.911-8.914 19.911-19.911h73.956c0 51.841-42.024 93.867-93.867 93.867v-73.956zM654.222-15.644c51.843 0 93.867 42.024 93.867 93.867h-73.956c0-10.997-8.914-19.911-19.911-19.911v-73.956zM256 58.311c-10.997 0-19.911 8.914-19.911 19.911h-73.956c0-51.843 42.026-93.867 93.867-93.867v73.956zM256 911.644c-51.841 0-93.867-42.026-93.867-93.867h73.956c0 10.997 8.914 19.911 19.911 19.911v73.956z" />
<glyph unicode="&#xe905;" glyph-name="icon-like" d="M886.554 742.127v0zM571.142 742.127v0zM512.020 689.713l-27.583-31.141 27.596-24.442 27.584 24.454-27.596 31.129zM452.844 742.127v0zM137.487 742.127v0zM137.487 427.942v0zM512.020 96l-27.592-31.13 27.592-24.454 27.592 24.454-27.592 31.13zM886.554 427.942v0zM914.138 773.265c-102.842 91.113-267.738 91.113-370.582 0l55.173-62.275c71.351 63.213 188.887 63.213 260.234 0l55.174 62.275zM543.546 773.256l-59.123-52.415 55.193-62.257 59.123 52.415-55.193 62.257zM539.603 720.854l-59.175 52.415-55.166-62.282 59.175-52.415 55.166 62.282zM480.431 773.265c-102.841 91.113-267.689 91.113-370.53 0l55.172-62.275c71.35 63.213 188.835 63.213 260.185 0l55.172 62.275zM109.889 773.255c-116.647-103.419-116.661-273.069 0.009-376.449l55.178 62.271c-79.296 70.262-79.309 181.599 0.009 251.923l-55.196 62.255zM109.895 396.81l374.532-331.939 55.184 62.259-374.532 331.945-55.184-62.265zM539.612 64.87l374.532 331.939-55.187 62.265-374.529-331.945 55.184-62.259zM914.15 396.814c116.602 103.373 116.602 273.068 0 376.442l-55.194-62.256c79.258-70.269 79.258-181.661 0-251.93l55.194-62.256z" />
<glyph unicode="&#xe906;" glyph-name="icon-download" d="M104.792 168.16c-4.506 22.528-26.422 37.139-48.951 32.634s-37.14-26.426-32.634-48.954l81.584 16.32zM96 0l-40.792-8.16c3.889-19.443 20.962-33.44 40.792-33.44v41.6zM928 0v-41.6c19.827 0 36.902 13.997 40.794 33.44l-40.794 8.16zM1000.794 151.84c4.506 22.528-10.106 44.448-32.634 48.954s-44.448-10.106-48.954-32.634l81.587-16.32zM512 192l-26.632-31.955c15.427-12.858 37.836-12.858 53.263 0l-26.632 31.955zM553.6 896c0 22.975-18.625 41.6-41.6 41.6s-41.6-18.625-41.6-41.6h83.2zM346.632 383.958c-17.65 14.708-43.882 12.324-58.589-5.326s-12.324-43.882 5.326-58.589l53.263 63.916zM730.63 320.042c17.651 14.708 20.038 40.94 5.325 58.589-14.707 17.65-40.934 20.035-58.586 5.326l53.261-63.916zM23.208 151.84l32-160 81.584 16.32-32 160-81.584-16.32zM96-41.6h832v83.2h-832v-83.2zM968.794-8.16l32 160-81.587 16.32-32-160 81.587-16.32zM553.6 192v704h-83.2v-704h83.2zM538.632 223.955l-192 160.003-53.263-63.916 192-159.997 53.263 63.91zM538.632 160.045l191.999 159.997-53.261 63.916-192.001-160.003 53.263-63.91z" />
<glyph unicode="&#xe907;" glyph-name="icon-send" d="M887.168 952.251l-826.102-341.583c-34.804-14.389-58.101-46.668-60.805-84.23-2.701-37.565 15.737-72.845 48.121-92.068l236.76-132.828c36.237 36.239 315.842 235.441 315.842 235.441s-199.201-279.607-235.438-315.844l132.823-236.755c19.224-32.384 54.503-50.829 92.068-48.122 37.638 2.707 69.864 26.067 84.232 60.806l341.581 826.102c15.552 37.612 7.334 78.855-21.446 107.635-28.774 28.78-70.022 37-107.635 21.445z" />
<glyph unicode="&#xe908;" glyph-name="icon-like-fill" d="M886.554 742.127c-87.098 77.164-228.314 77.164-315.411 0l-59.123-52.414-59.176 52.414c-87.096 77.164-228.261 77.164-315.357 0-97.982-86.871-97.982-227.364 0-314.185l374.533-331.942 374.534 331.942c97.926 86.82 97.926 227.364 0 314.185z" />
<glyph unicode="&#xe909;" glyph-name="icon-reply" d="M1023.123 91.482c-3.456 284.659-248.838 516.484-554.172 526.838v149.682c0 35.29-28.684 63.998-63.948 63.998-15.862 0-31.182-6.084-43.048-17.124 0 0-269.656-249.658-347.218-327.51-9.492-9.584-14.738-23.542-14.738-39.354s5.246-29.77 14.738-39.374c77.562-77.83 347.218-327.492 347.218-327.492 11.866-11.040 27.186-17.12 43.048-17.12 35.262 0 63.948 28.704 63.948 63.994v149.184c306.959-4.314 511.586-101.203 511.586-191.846 0-11.795 9.53-21.331 21.312-21.331 0.339-0.045 0.666-0.019 0.832 0 11.782 0 21.318 9.542 21.318 21.331 0 2.125-0.294 4.186-0.877 6.125z" />
<glyph unicode="&#xe90a;" glyph-name="icon-at" d="M757.869 331.962c0-44.858 12.742-62.746 46.080-62.746 74.291 0 121.6 94.786 121.6 252.423 0 240.941-175.36 356.285-394.296 356.285-225.226 0-430.080-151.229-430.080-437.026 0-272.981 179.2-421.647 454.4-421.647 93.438 0 156.158 10.253 252.107 42.291l20.589-85.811c-94.72-30.816-195.949-39.731-273.976-39.731-360.96 0-554.293 198.65-554.293 504.951 0 308.867 224.053 519.049 532.533 519.049 321.278 0 491.467-192.24 491.467-428.055 0-199.93-62.669-352.438-259.789-352.438-89.651 0-148.478 35.885-156.158 115.392-23.040-88.429-84.48-115.392-167.733-115.392-111.36 0-204.8 85.92-204.8 258.881 0 174.298 81.973 281.953 229.173 281.953 78.080 0 126.72-30.758 148.374-79.459l37.173 67.924h107.52v-376.844h0.109zM600.48 501.133c0 70.435-52.533 99.965-96.053 99.965-47.36 0-99.787-38.395-99.787-151.229 0-89.712 39.68-139.693 99.787-139.693 42.24 0 96.053 26.912 96.053 101.245v89.713z" />
<glyph unicode="&#xe90b;" glyph-name="icon-user" d="M512.001 937.6c-146.687 0-265.6-118.913-265.6-265.6s118.913-265.6 265.6-265.6c146.687 0 265.599 118.913 265.599 265.6s-118.912 265.6-265.599 265.6zM329.601 672c0 100.737 81.663 182.4 182.4 182.4s182.399-81.663 182.399-182.4c0-100.737-81.663-182.4-182.399-182.4s-182.4 81.663-182.4 182.4zM479.791 353.158c-27.555 7.335-87.734 19.107-142.174-11.786l-149.433-84.796c-42.522-24.134-69.783-68.378-69.783-117.434v-44.314c0-77.619 65.996-136.429 142.171-136.429h502.859c76.173 0 142.17 58.81 142.17 136.429v44.314c0 49.056-27.264 93.299-69.786 117.434l-149.427 84.796c-54.442 30.892-114.622 19.121-142.177 11.786-19.989-5.313-44.43-5.313-64.419 0zM378.679 269.011c24.266 13.773 56.148 10.022 79.722 3.744l0.897-0.237c33.789-8.806 72.582-8.723 106.283 0.23 23.574 6.278 55.474 10.035 79.744-3.738l149.427-84.8c17.926-10.176 27.648-27.59 27.648-45.069v-44.314c0-27.13-24.064-53.229-58.97-53.229h-502.859c-34.905 0-58.971 26.099-58.971 53.229v44.314c0 17.478 9.717 34.893 27.645 45.069l149.434 84.8z" />
<glyph unicode="&#xe90c;" glyph-name="chevron-right" d="M414.165 140.502l256 256c16.683 16.683 16.683 43.691 0 60.331l-256 256c-16.683 16.683-43.691 16.683-60.331 0s-16.683-43.691 0-60.331l225.835-225.835-225.835-225.835c-16.683-16.683-16.683-43.691 0-60.331s43.691-16.683 60.331 0z" />
<glyph unicode="&#xe90d;" glyph-name="chevron-left" d="M670.165 200.832l-225.835 225.835 225.835 225.835c16.683 16.683 16.683 43.691 0 60.331s-43.691 16.683-60.331 0l-256-256c-16.683-16.683-16.683-43.691 0-60.331l256-256c16.683-16.683 43.691-16.683 60.331 0s16.683 43.691 0 60.331z" />
<glyph unicode="&#xe90e;" glyph-name="chevron-down" d="M225.835 524.502l256-256c16.683-16.683 43.691-16.683 60.331 0l256 256c16.683 16.683 16.683 43.691 0 60.331s-43.691 16.683-60.331 0l-225.835-225.835-225.835 225.835c-16.683 16.683-43.691 16.683-60.331 0s-16.683-43.691 0-60.331z" />
<glyph unicode="&#xe90f;" glyph-name="chevron-up" d="M798.165 328.832l-256 256c-16.683 16.683-43.691 16.683-60.331 0l-256-256c-16.683-16.683-16.683-43.691 0-60.331s43.691-16.683 60.331 0l225.835 225.835 225.835-225.835c16.683-16.683 43.691-16.683 60.331 0s16.683 43.691 0 60.331z" />
<glyph unicode="&#xe910;" glyph-name="check" d="M823.168 712.832l-439.168-439.168-183.168 183.168c-16.683 16.683-43.691 16.683-60.331 0s-16.683-43.691 0-60.331l213.333-213.333c16.683-16.683 43.691-16.683 60.331 0l469.333 469.333c16.683 16.683 16.683 43.691 0 60.331s-43.691 16.683-60.331 0z" />
<glyph unicode="&#xe9e1;" glyph-name="smile" d="M512-64c282.77 0 512 229.23 512 512s-229.23 512-512 512-512-229.23-512-512 229.23-512 512-512zM512 864c229.75 0 416-186.25 416-416s-186.25-416-416-416-416 186.25-416 416 186.25 416 416 416zM256 640c0 35.346 28.654 64 64 64s64-28.654 64-64c0-35.346-28.654-64-64-64s-64 28.654-64 64zM640 640c0 35.346 28.654 64 64 64s64-28.654 64-64c0-35.346-28.654-64-64-64s-64 28.654-64 64zM704.098 332.74l82.328-49.396c-55.962-93.070-157.916-155.344-274.426-155.344s-218.464 62.274-274.426 155.344l82.328 49.396c39.174-65.148 110.542-108.74 192.098-108.74s152.924 43.592 192.098 108.74z" />
<glyph unicode="&#xea3a;" glyph-name="arrow-up2" d="M877.254 557.254l-320 320c-24.992 24.994-65.514 24.994-90.508 0l-320-320c-24.994-24.994-24.994-65.516 0-90.51 24.994-24.996 65.516-24.996 90.51 0l210.744 210.746v-613.49c0-35.346 28.654-64 64-64s64 28.654 64 64v613.49l210.746-210.746c12.496-12.496 28.876-18.744 45.254-18.744s32.758 6.248 45.254 18.746c24.994 24.994 24.994 65.514 0 90.508z" />
<glyph unicode="&#xea3c;" glyph-name="arrow-right2" d="M621.254 82.746l320 320c24.994 24.992 24.994 65.516 0 90.51l-320 320c-24.994 24.992-65.516 24.992-90.51 0-24.994-24.994-24.994-65.516 0-90.51l210.746-210.746h-613.49c-35.346 0-64-28.654-64-64s28.654-64 64-64h613.49l-210.746-210.746c-12.496-12.496-18.744-28.876-18.744-45.254s6.248-32.758 18.744-45.254c24.994-24.994 65.516-24.994 90.51 0z" />
<glyph unicode="&#xea3e;" glyph-name="arrow-down2" d="M877.254 338.746l-320-320c-24.992-24.994-65.514-24.994-90.508 0l-320 320c-24.994 24.994-24.994 65.516 0 90.51 24.994 24.996 65.516 24.996 90.51 0l210.744-210.746v613.49c0 35.346 28.654 64 64 64s64-28.654 64-64v-613.49l210.746 210.746c12.496 12.496 28.876 18.744 45.254 18.744s32.758-6.248 45.254-18.746c24.994-24.994 24.994-65.514 0-90.508z" />
<glyph unicode="&#xea40;" glyph-name="arrow-left2" d="M402.746 82.746l-320 320c-24.994 24.992-24.994 65.516 0 90.51l320 320c24.994 24.992 65.516 24.992 90.51 0 24.994-24.994 24.994-65.516 0-90.51l-210.746-210.746h613.49c35.346 0 64-28.654 64-64s-28.654-64-64-64h-613.49l210.746-210.746c12.496-12.496 18.744-28.876 18.744-45.254s-6.248-32.758-18.744-45.254c-24.994-24.994-65.516-24.994-90.51 0z" />
<glyph unicode="&#xea88;" glyph-name="google" d="M522.2 521.2v-175.6h290.4c-11.8-75.4-87.8-220.8-290.4-220.8-174.8 0-317.4 144.8-317.4 323.2s142.6 323.2 317.4 323.2c99.4 0 166-42.4 204-79l139 133.8c-89.2 83.6-204.8 134-343 134-283 0-512-229-512-512s229-512 512-512c295.4 0 491.6 207.8 491.6 500.2 0 33.6-3.6 59.2-8 84.8l-483.6 0.2z" />
<glyph unicode="&#xea8b;" glyph-name="google-plus" d="M325.8 502.6v-111.8h184.8c-7.4-48-55.8-140.6-184.8-140.6-111.2 0-202 92.2-202 205.8s90.8 205.8 202 205.8c63.4 0 105.6-27 129.8-50.2l88.4 85.2c-56.8 53-130.4 85.2-218.2 85.2-180.2-0.2-325.8-145.8-325.8-326s145.6-325.8 325.8-325.8c188 0 312.8 132.2 312.8 318.4 0 21.4-2.4 37.8-5.2 54h-307.6zM1024 512h-96v96h-96v-96h-96v-96h96v-96h96v96h96z" />
<glyph unicode="&#xea90;" glyph-name="facebook" d="M608 768h160v192h-160c-123.514 0-224-100.486-224-224v-96h-128v-192h128v-512h192v512h160l32 192h-192v96c0 17.346 14.654 32 32 32z" />
<glyph unicode="&#xea92;" glyph-name="instagram" d="M512 867.8c136.8 0 153-0.6 206.8-3 50-2.2 77-10.6 95-17.6 23.8-9.2 41-20.4 58.8-38.2 18-18 29-35 38.4-58.8 7-18 15.4-45.2 17.6-95 2.4-54 3-70.2 3-206.8s-0.6-153-3-206.8c-2.2-50-10.6-77-17.6-95-9.2-23.8-20.4-41-38.2-58.8-18-18-35-29-58.8-38.4-18-7-45.2-15.4-95-17.6-54-2.4-70.2-3-206.8-3s-153 0.6-206.8 3c-50 2.2-77 10.6-95 17.6-23.8 9.2-41 20.4-58.8 38.2-18 18-29 35-38.4 58.8-7 18-15.4 45.2-17.6 95-2.4 54-3 70.2-3 206.8s0.6 153 3 206.8c2.2 50 10.6 77 17.6 95 9.2 23.8 20.4 41 38.2 58.8 18 18 35 29 58.8 38.4 18 7 45.2 15.4 95 17.6 53.8 2.4 70 3 206.8 3zM512 960c-139 0-156.4-0.6-211-3-54.4-2.4-91.8-11.2-124.2-23.8-33.8-13.2-62.4-30.6-90.8-59.2-28.6-28.4-46-57-59.2-90.6-12.6-32.6-21.4-69.8-23.8-124.2-2.4-54.8-3-72.2-3-211.2s0.6-156.4 3-211c2.4-54.4 11.2-91.8 23.8-124.2 13.2-33.8 30.6-62.4 59.2-90.8 28.4-28.4 57-46 90.6-59 32.6-12.6 69.8-21.4 124.2-23.8 54.6-2.4 72-3 211-3s156.4 0.6 211 3c54.4 2.4 91.8 11.2 124.2 23.8 33.6 13 62.2 30.6 90.6 59s46 57 59 90.6c12.6 32.6 21.4 69.8 23.8 124.2 2.4 54.6 3 72 3 211s-0.6 156.4-3 211c-2.4 54.4-11.2 91.8-23.8 124.2-12.6 34-30 62.6-58.6 91-28.4 28.4-57 46-90.6 59-32.6 12.6-69.8 21.4-124.2 23.8-54.8 2.6-72.2 3.2-211.2 3.2v0zM512 711c-145.2 0-263-117.8-263-263s117.8-263 263-263 263 117.8 263 263c0 145.2-117.8 263-263 263zM512 277.4c-94.2 0-170.6 76.4-170.6 170.6s76.4 170.6 170.6 170.6c94.2 0 170.6-76.4 170.6-170.6s-76.4-170.6-170.6-170.6zM846.8 721.4c0-33.91-27.49-61.4-61.4-61.4s-61.4 27.49-61.4 61.4c0 33.91 27.49 61.4 61.4 61.4s61.4-27.49 61.4-61.4z" />
<glyph unicode="&#xea96;" glyph-name="twitter" d="M1024 733.6c-37.6-16.8-78.2-28-120.6-33 43.4 26 76.6 67.2 92.4 116.2-40.6-24-85.6-41.6-133.4-51-38.4 40.8-93 66.2-153.4 66.2-116 0-210-94-210-210 0-16.4 1.8-32.4 5.4-47.8-174.6 8.8-329.4 92.4-433 219.6-18-31-28.4-67.2-28.4-105.6 0-72.8 37-137.2 93.4-174.8-34.4 1-66.8 10.6-95.2 26.2 0-0.8 0-1.8 0-2.6 0-101.8 72.4-186.8 168.6-206-17.6-4.8-36.2-7.4-55.4-7.4-13.6 0-26.6 1.4-39.6 3.8 26.8-83.4 104.4-144.2 196.2-146-72-56.4-162.4-90-261-90-17 0-33.6 1-50.2 3 93.2-59.8 203.6-94.4 322.2-94.4 386.4 0 597.8 320.2 597.8 597.8 0 9.2-0.2 18.2-0.6 27.2 41 29.4 76.6 66.4 104.8 108.6z" />
<glyph unicode="&#xea9d;" glyph-name="youtube" d="M1013.8 652.8c0 0-10 70.6-40.8 101.6-39 40.8-82.6 41-102.6 43.4-143.2 10.4-358.2 10.4-358.2 10.4h-0.4c0 0-215 0-358.2-10.4-20-2.4-63.6-2.6-102.6-43.4-30.8-31-40.6-101.6-40.6-101.6s-10.2-82.8-10.2-165.8v-77.6c0-82.8 10.2-165.8 10.2-165.8s10-70.6 40.6-101.6c39-40.8 90.2-39.4 113-43.8 82-7.8 348.2-10.2 348.2-10.2s215.2 0.4 358.4 10.6c20 2.4 63.6 2.6 102.6 43.4 30.8 31 40.8 101.6 40.8 101.6s10.2 82.8 10.2 165.8v77.6c-0.2 82.8-10.4 165.8-10.4 165.8zM406.2 315.2v287.8l276.6-144.4-276.6-143.4z" />
<glyph unicode="&#xea9f;" glyph-name="twitch" d="M96 960l-96-160v-736h256v-128h128l128 128h160l288 288v608h-864zM832 416l-160-160h-160l-128-128v128h-192v576h640v-416zM608 704h96v-256h-96v256zM416 704h96v-256h-96v256z" />
<glyph unicode="&#xeaa7;" glyph-name="dribbble" d="M512-64c-282.4 0-512 229.6-512 512s229.6 512 512 512c282.4 0 512-229.6 512-512s-229.6-512-512-512v0zM943.8 378c-15 4.8-135.4 40.6-272.4 18.6 57.2-157.2 80.4-285.2 85-311.8 98 66.4 168 171.4 187.4 293.2v0zM682.8 44.8c-6.6 38.4-31.8 172-93.2 331.6-1-0.4-2-0.6-2.8-1-246.8-86-335.4-257-343.2-273 74.2-57.8 167.4-92.4 268.4-92.4 60.6 0 118.4 12.4 170.8 34.8v0zM187 155c10 17 130 215.6 355.4 288.6 5.6 1.8 11.4 3.6 17.2 5.2-11 24.8-23 49.8-35.4 74.2-218.2-65.4-430.2-62.6-449.4-62.4-0.2-4.4-0.2-8.8-0.2-13.4 0-112.2 42.6-214.8 112.4-292.2v0zM84 537c19.6-0.2 199.8-1 404.4 53.2-72.4 128.8-150.6 237.2-162.2 253-122.4-57.8-214-170.6-242.2-306.2v0zM409.6 872.6c12-16.2 91.6-124.4 163.2-256 155.6 58.2 221.4 146.8 229.2 158-77.2 68.6-178.8 110.2-290 110.2-35.2-0.2-69.6-4.4-102.4-12.2v0zM850.6 723.8c-9.2-12.4-82.6-106.4-244.2-172.4 10.2-20.8 20-42 29-63.4 3.2-7.6 6.4-15 9.4-22.6 145.6 18.2 290.2-11 304.6-14-1 103.2-38 198-98.8 272.4v0z" />
<glyph unicode="&#xeaa8;" glyph-name="behance" d="M297 754.8c30.2 0 57.4-2.6 82.2-8 24.8-5.2 45.8-14 63.6-26 17.6-12 31.2-28 41.2-48 9.6-19.8 14.4-44.6 14.4-74 0-31.8-7.2-58.2-21.6-79.4-14.6-21.2-35.8-38.4-64.2-52 38.8-11.2 67.4-30.8 86.6-58.6 19.2-28 28.4-61.6 28.4-101.2 0-32-6.2-59.4-18.4-82.6-12.4-23.4-29.2-42.4-49.8-57-20.8-14.8-44.8-25.6-71.6-32.6-26.6-7-54-10.6-82.4-10.6h-305.4v630h297zM279 500.4c24.6 0 45 5.8 61 17.6 16 11.6 23.6 30.8 23.6 57.2 0 14.6-2.6 26.8-7.8 36.2-5.4 9.4-12.4 16.8-21.4 22-8.8 5.4-18.8 9-30.6 11-11.4 2.2-23.4 3.2-35.6 3.2h-129.6v-147.2h140.4zM286.6 232.2c13.6 0 26.6 1.2 38.8 4 12.4 2.8 23.4 7 32.6 13.4 9.2 6.2 17 14.4 22.6 25.2 5.6 10.6 8.2 24.2 8.2 40.8 0 32.4-9.2 55.6-27.4 69.6-18.2 13.8-42.4 20.6-72.4 20.6h-150.4v-173.4h148zM725.2 234.4c18.8-18.4 45.8-27.6 81-27.6 25.2 0 47.2 6.4 65.4 19.2s29.2 26.4 33.4 40.4h110.4c-17.8-55-44.6-94-81.4-117.6-36.2-23.6-80.6-35.6-132-35.6-36 0-68.2 5.8-97.2 17.2-29 11.6-53.2 27.8-73.6 49-19.8 21.2-35.4 46.4-46.4 76-10.8 29.4-16.4 62-16.4 97.2 0 34.2 5.6 66 16.8 95.4 11.4 29.6 27 55 47.8 76.4s45.2 38.4 74 50.8c28.6 12.4 60.2 18.6 95.2 18.6 38.6 0 72.4-7.4 101.4-22.6 28.8-15 52.6-35.2 71.2-60.4s31.8-54.2 40-86.6c8.2-32.4 11-66.2 8.8-101.6h-329.4c0-35.8 12-70 31-88.2zM869 474c-14.8 16.4-40.2 25.4-70.8 25.4-20 0-36.6-3.4-49.8-10.2-13-6.8-23.6-15.2-31.8-25.2-8-10-13.6-20.8-16.8-32.2-3.2-11-5.2-21.2-5.8-30h204c-3 32-14 55.6-29 72.2zM668.4 704h255.4v-62.2h-255.4v62.2z" />
<glyph unicode="&#xeab0;" glyph-name="github" d="M512.008 947.358c-282.738 0-512.008-229.218-512.008-511.998 0-226.214 146.704-418.132 350.136-485.836 25.586-4.738 34.992 11.11 34.992 24.632 0 12.204-0.48 52.542-0.696 95.324-142.448-30.976-172.504 60.41-172.504 60.41-23.282 59.176-56.848 74.916-56.848 74.916-46.452 31.778 3.51 31.124 3.51 31.124 51.4-3.61 78.476-52.766 78.476-52.766 45.672-78.27 119.776-55.64 149.004-42.558 4.588 33.086 17.852 55.68 32.506 68.464-113.73 12.942-233.276 56.85-233.276 253.032 0 55.898 20.004 101.574 52.76 137.428-5.316 12.9-22.854 64.972 4.952 135.5 0 0 43.006 13.752 140.84-52.49 40.836 11.348 84.636 17.036 128.154 17.234 43.502-0.198 87.336-5.886 128.256-17.234 97.734 66.244 140.656 52.49 140.656 52.49 27.872-70.528 10.35-122.6 5.036-135.5 32.82-35.856 52.694-81.532 52.694-137.428 0-196.654-119.778-239.95-233.79-252.624 18.364-15.89 34.724-47.046 34.724-94.812 0-68.508-0.596-123.644-0.596-140.508 0-13.628 9.222-29.594 35.172-24.566 203.322 67.776 349.842 259.626 349.842 485.768 0 282.78-229.234 511.998-511.992 511.998z" />
<glyph unicode="&#xeabe;" glyph-name="appleinc" d="M791.498 415.908c-1.294 129.682 105.758 191.876 110.542 194.966-60.152 88.020-153.85 100.078-187.242 101.472-79.742 8.074-155.596-46.948-196.066-46.948-40.368 0-102.818 45.754-168.952 44.552-86.916-1.292-167.058-50.538-211.812-128.38-90.304-156.698-23.126-388.84 64.89-515.926 43.008-62.204 94.292-132.076 161.626-129.58 64.842 2.588 89.362 41.958 167.756 41.958s100.428-41.958 169.050-40.67c69.774 1.296 113.982 63.398 156.692 125.796 49.39 72.168 69.726 142.038 70.924 145.626-1.548 0.706-136.060 52.236-137.408 207.134zM662.562 796.478c35.738 43.358 59.86 103.512 53.28 163.522-51.478-2.096-113.878-34.29-150.81-77.55-33.142-38.376-62.148-99.626-54.374-158.436 57.466-4.484 116.128 29.204 151.904 72.464z" />
<glyph unicode="&#xeaca;" glyph-name="linkedin2" d="M384 576h177.106v-90.782h2.532c24.64 44.194 84.958 90.782 174.842 90.782 186.946 0 221.52-116.376 221.52-267.734v-308.266h-184.61v273.278c0 65.184-1.334 149.026-96.028 149.026-96.148 0-110.82-70.986-110.82-144.292v-278.012h-184.542v576zM64 576h192v-576h-192v576zM256 736c0-53.019-42.981-96-96-96s-96 42.981-96 96c0 53.019 42.981 96 96 96s96-42.981 96-96z" />
<glyph unicode="&#xead1;" glyph-name="pinterest" d="M512 891.6c-245 0-443.6-198.6-443.6-443.6 0-188 117-348.4 282-413-3.8 35-7.4 89 1.6 127.2 8 34.6 52 220.4 52 220.4s-13.2 26.6-13.2 65.8c0 61.6 35.8 107.8 80.2 107.8 37.8 0 56.2-28.4 56.2-62.4 0-38-24.2-95-36.8-147.6-10.6-44.2 22-80.2 65.6-80.2 78.8 0 139.4 83.2 139.4 203.2 0 106.2-76.4 180.4-185.2 180.4-126.2 0-200.2-94.6-200.2-192.6 0-38.2 14.6-79 33-101.2 3.6-4.4 4.2-8.2 3-12.8-3.4-14-10.8-44.2-12.4-50.4-2-8.2-6.4-9.8-14.8-6-55.4 25.8-90 106.8-90 171.8 0 140 101.6 268.4 293 268.4 153.8 0 273.4-109.6 273.4-256.2 0-152.8-96.4-276-230.2-276-45 0-87.2 23.4-101.6 51 0 0-22.2-84.6-27.6-105.4-10-38.6-37-86.8-55.2-116.2 41.6-12.8 85.6-19.8 131.4-19.8 245 0 443.6 198.6 443.6 443.6 0 245.2-198.6 443.8-443.6 443.8z" />
</font>
</defs>
</svg>
