<?xml version="1.0" standalone="no"?>
<!DOCTYPE svg PUBLIC "-//W3C//DTD SVG 1.1//EN" "http://www.w3.org/Graphics/SVG/1.1/DTD/svg11.dtd" >
<svg xmlns="http://www.w3.org/2000/svg" xmlns:xlink="http://www.w3.org/1999/xlink" version="1.1">
<metadata>
Created by FontForge 20170731 at Wed May 13 15:39:54 2020
 By Aleksey,,,
</metadata>
<defs>
<font id="IRY-Thin" horiz-adv-x="0" >
  <font-face 
    font-family="IRYThin"
    font-weight="100"
    font-stretch="normal"
    units-per-em="2200"
    panose-1="2 11 5 6 3 8 4 2 2 4"
    ascent="1760"
    descent="-440"
    x-height="1162"
    cap-height="1564"
    bbox="-442 -1087 3066 2690"
    underline-thickness="100"
    underline-position="-950"
    unicode-range="U+0020-FEFF"
  />
<missing-glyph horiz-adv-x="1229" 
d="M102 -362v1806h1024v-1806h-1024zM167 -298h895v1677h-895v-1677z" />
    <glyph glyph-name="uniFDF2" unicode="&#xfedf;&#xfee0;&#xfeea;" horiz-adv-x="2187" arabic-form="isolated" 
d="M2102 332q0 -29 -2.5 -61t-11 -63.5t-24 -61.5t-41.5 -55q-24 -23 -52 -40.5t-64 -28.5t-82 -16.5t-107 -5.5h-21q-41 0 -81 8.5t-75 26t-62.5 45t-43.5 65.5q-18 -38 -42.5 -65t-61.5 -45t-88.5 -26.5t-122.5 -8.5q-48 0 -98.5 6.5t-96.5 37t-84 94t-61 177.5
q-27 110 -47.5 190.5t-37.5 149t-32 134t-31 145.5q-19 -4 -46.5 -9t-55.5 -11t-53.5 -11t-40.5 -9q-130 -30 -187 -130q-27 -48 -37 -108q-8 -46 -8 -96q0 -15 1.5 -56t13.5 -110.5t28.5 -136t35 -127t34.5 -108.5l-59 -18q-29 91 -58 193.5t-45 206.5q-13 83 -13 152
q0 38 7 103t47 136q70 123 226 159q20 5 57 12.5t74 14.5t65 12.5t31 5.5l36 -23l59 -251q13 -56 25 -106.5t23.5 -98.5t23 -95t23.5 -95q22 -86 49.5 -139t61 -82t75.5 -38.5t95 -9.5q65 0 111 9.5t76.5 26.5t48.5 40.5t27.5 52.5t12 62t3.5 69v791l61 8v-797
q0 -140 62 -201t175 -61h21q107 0 171 21.5t97.5 58.5t44 86t10.5 105l-35 944l62 12zM1399 1660v312l61 8v-306zM1692 1605q1 -5 7 -27.5t12 -51.5t10 -59q2 -18 2 -32q0 -12 -1 -21q-6 -52 -41 -90q-43 -46 -109 -46q-54 0 -88.5 17t-54.5 43q-23 -29 -59.5 -44.5
t-86.5 -15.5q-33 0 -61.5 11.5t-48.5 32t-31.5 49t-11.5 62.5v110h61v-110q0 -42 25 -67.5t67 -25.5q20 0 40.5 3.5t37 14t27 28.5t10.5 47v110h62v-110q0 -16 4.5 -32.5t16.5 -30t34 -22t57 -8.5q28 0 45.5 11.5t27 26t13 28t3.5 16.5q1 7 1 15q0 9 -1.5 24.5t-6 39
t-10 46.5t-10.5 40z" />
    <glyph glyph-name="uniFDFC" unicode="&#x631;&#xfef3;&#xfe8e;&#x644;" horiz-adv-x="3220" arabic-form="isolated" 
d="M1299 -80q0 -109 -24.5 -190t-74.5 -139q-29 -35 -69 -61t-88 -44q-103 -38 -249 -38h-72q-117 0 -213.5 52t-156.5 147q-42 66 -61 147q-16 67 -16 141q0 16 1 32q8 205 123 445l56 -27q-104 -217 -117 -397q-2 -26 -2 -50q0 -149 68 -258q51 -81 134 -125.5t184 -44.5
h72q255 0 360 121q83 96 83 289v1508h62v-1508zM2530 -581h-140v62h140q239 0 356.5 122t117.5 372v649h62v-649q0 -261 -123 -402q-136 -154 -413 -154zM2054 -392l89 89l88 -89l-88 -88zM1718 -392l89 89l88 -89l-88 -88zM1667 1428h61v-1096q0 -65 15.5 -115.5t49.5 -85
t87.5 -52.5t128.5 -18h15v-61h-30q-84 0 -145 25.5t-103 65.5q-26 25 -42 55t-24 61.5t-10.5 63.5t-2.5 61v1096zM2488 764q10 -42 21.5 -93t21 -106t16.5 -110.5t9 -106.5v-12q0 -72 -24 -137.5t-72 -114.5q-40 -41 -88.5 -62.5t-101.5 -21.5h-277v61h277q40 0 77.5 17
t68.5 49q39 40 60 97q18 52 18 111v12q-1 49 -7.5 102.5t-16.5 106.5t-21 102.5t-21 91.5z" />
    <glyph glyph-name="uniFEF5" unicode="&#xfedf;&#xfe82;" horiz-adv-x="1302" arabic-form="isolated" 
d="M1084 584q0 -65 -3.5 -123t-13 -109.5t-26 -96t-42.5 -83.5q-30 -43 -70 -74.5t-94 -53.5q-56 -23 -124.5 -34t-154.5 -11h-400v62h400q150 0 245.5 35.5t146.5 110.5q46 67 60 161.5t14 215.5v844h62v-844zM418 263l-61 -4l-70 1134l61 4zM840 1646h-418
q-74 0 -131.5 -6.5t-101.5 -28.5q-46 -23 -77 -65.5t-51 -110.5l-59 17q24 81 63 133t97 81q52 26 115.5 33.5t144.5 7.5h418v-61z" />
    <glyph glyph-name="uniFEF6" unicode="&#xfee0;&#xfe82;" horiz-adv-x="1340" arabic-form="final" 
d="M1079 350q0 -22 3 -51.5t11.5 -62t25.5 -64t44.5 -56t67.5 -40t96 -15.5h28v-61h-28q-154 0 -238 107q-42 54 -60 131q-8 -17 -16 -33.5t-19 -32.5q-30 -43 -70 -74.5t-94 -53.5q-56 -23 -124.5 -34t-154.5 -11h-392v62h392q150 0 245.5 35.5t146.5 110.5
q43 63 57.5 147.5t16.5 193.5v880h62v-1078zM413 263l-61 -4l-72 1134l61 4zM839 1653h-418q-74 0 -131.5 -6.5t-101.5 -28.5q-46 -23 -77 -65.5t-51 -110.5l-59 17q24 81 63 133t97 81q52 26 115.5 33.5t144.5 7.5h418v-61z" />
    <glyph glyph-name="uniFEF7" unicode="&#xfedf;&#xfe84;" horiz-adv-x="1302" arabic-form="isolated" 
d="M1084 584q0 -65 -3.5 -123t-13 -109.5t-26 -96t-42.5 -83.5q-30 -43 -70 -74.5t-94 -53.5q-56 -23 -124.5 -34t-154.5 -11h-400v62h400q150 0 245.5 35.5t146.5 110.5q46 67 60 161.5t14 215.5v844h62v-844zM418 263l-61 -4l-70 1134l61 4zM437 1610l-426 -133l5 66
l215 67q-17 6 -34 15q-29 15 -48.5 33.5t-32.5 37t-20 34.5t-10 26q-8 27 -8 52q0 13 4 37.5t22.5 54.5t47 51.5t60.5 31.5q31 9 62 9q15 0 46.5 -4.5t81.5 -15.5l11 -3l-14 -60l-12 3q-45 11 -84 17q-15 2 -29 2q-23 0 -44 -6q-22 -7 -41 -21.5t-31.5 -34.5t-16.5 -44
q-1 -8 -1 -17q0 -17 5 -34q2 -7 7 -18.5t14.5 -25t23.5 -27t35 -24.5q45 -23 102 -23q43 0 94 13l86 26l18 -59z" />
    <glyph glyph-name="uniFEF8" unicode="&#xfee0;&#xfe84;" horiz-adv-x="1340" arabic-form="final" 
d="M1079 350q0 -22 3 -51.5t11.5 -62t25.5 -64t44.5 -56t67.5 -40t96 -15.5h28v-61h-28q-154 0 -238 107q-42 54 -60 131q-8 -17 -16 -33.5t-19 -32.5q-30 -43 -70 -74.5t-94 -53.5q-56 -23 -124.5 -34t-154.5 -11h-392v62h392q150 0 245.5 35.5t146.5 110.5
q43 63 57.5 147.5t16.5 193.5v880h62v-1078zM413 263l-61 -4l-72 1134l61 4zM460 1634l-426 -133l5 66l215 67q-17 6 -34 15q-29 15 -48.5 33.5t-32.5 37t-20 34.5t-10 26q-8 27 -8 52q0 13 4 37.5t22.5 54.5t47 51.5t60.5 31.5q31 9 62 9q15 0 46.5 -4.5t81.5 -15.5l11 -3
l-14 -60l-12 3q-45 11 -84 17q-15 2 -29 2q-23 0 -44 -6q-22 -7 -41 -21.5t-31.5 -34.5t-16.5 -44q-1 -8 -1 -17q0 -17 5 -34q2 -7 7 -18.5t14.5 -25t23.5 -27t35 -24.5q45 -23 102 -23q43 0 94 13l86 26l18 -59z" />
    <glyph glyph-name="uniFEF9" unicode="&#xfedf;&#xfe88;" horiz-adv-x="1302" arabic-form="isolated" 
d="M1084 584q0 -65 -3.5 -123t-13 -109.5t-26 -96t-42.5 -83.5q-30 -43 -70 -74.5t-94 -53.5q-56 -23 -124.5 -34t-154.5 -11h-400v62h400q150 0 245.5 35.5t146.5 110.5q46 67 60 161.5t14 215.5v844h62v-844zM418 263l-61 -4l-70 1134l61 4zM689 -531l-426 -133l5 66
l215 67q-17 6 -34 15q-29 15 -48.5 33.5t-32.5 37t-20 34.5t-10 26q-8 27 -8 52q0 13 4 37.5t22.5 54.5t47 51.5t60.5 31.5q31 9 62 9q15 0 46.5 -4.5t81.5 -15.5l11 -3l-14 -60l-12 3q-45 11 -84 17q-15 2 -29 2q-23 0 -44 -6q-22 -7 -41 -21.5t-31.5 -34.5t-16.5 -44
q-1 -8 -1 -17q0 -17 5 -34q2 -7 7 -18.5t14.5 -25t23.5 -27t35 -24.5q45 -23 102 -23q43 0 94 13l86 26l18 -59z" />
    <glyph glyph-name="uniFEFA" unicode="&#xfee0;&#xfe88;" horiz-adv-x="1340" arabic-form="final" 
d="M1079 350q0 -22 3 -51.5t11.5 -62t25.5 -64t44.5 -56t67.5 -40t96 -15.5h28v-61h-28q-154 0 -238 107q-42 54 -60 131q-8 -17 -16 -33.5t-19 -32.5q-30 -43 -70 -74.5t-94 -53.5q-56 -23 -124.5 -34t-154.5 -11h-392v62h392q150 0 245.5 35.5t146.5 110.5
q43 63 57.5 147.5t16.5 193.5v880h62v-1078zM413 263l-61 -4l-72 1134l61 4zM684 -528l-426 -133l5 66l215 67q-17 6 -34 15q-29 15 -48.5 33.5t-32.5 37t-20 34.5t-10 26q-8 27 -8 52q0 13 4 37.5t22.5 54.5t47 51.5t60.5 31.5q31 9 62 9q15 0 46.5 -4.5t81.5 -15.5l11 -3
l-14 -60l-12 3q-45 11 -84 17q-15 2 -29 2q-23 0 -44 -6q-22 -7 -41 -21.5t-31.5 -34.5t-16.5 -44q-1 -8 -1 -17q0 -17 5 -34q2 -7 7 -18.5t14.5 -25t23.5 -27t35 -24.5q45 -23 102 -23q43 0 94 13l86 26l18 -59z" />
    <glyph glyph-name="uniFEFB" unicode="&#xfedf;&#xfe8e;" horiz-adv-x="1302" arabic-form="isolated" 
d="M1084 584q0 -65 -3.5 -123t-13 -109.5t-26 -96t-42.5 -83.5q-30 -43 -70 -74.5t-94 -53.5q-56 -23 -124.5 -34t-154.5 -11h-400v62h400q150 0 245.5 35.5t146.5 110.5q46 67 60 161.5t14 215.5v844h62v-844zM418 263l-61 -4l-70 1134l61 4z" />
    <glyph glyph-name="uniFEFC" unicode="&#xfee0;&#xfe8e;" horiz-adv-x="1340" arabic-form="final" 
d="M1079 350q0 -22 3 -51.5t11.5 -62t25.5 -64t44.5 -56t67.5 -40t96 -15.5h28v-61h-28q-154 0 -238 107q-42 54 -60 131q-8 -17 -16 -33.5t-19 -32.5q-30 -43 -70 -74.5t-94 -53.5q-56 -23 -124.5 -34t-154.5 -11h-392v62h392q150 0 245.5 35.5t146.5 110.5
q43 63 57.5 147.5t16.5 193.5v880h62v-1078zM413 263l-61 -4l-72 1134l61 4z" />
    <glyph glyph-name="uni06440671.isol" unicode="&#xfedf;&#xfb51;" horiz-adv-x="1302" 
d="M1084 584q0 -65 -3.5 -123t-13 -109.5t-26 -96t-42.5 -83.5q-30 -43 -70 -74.5t-94 -53.5q-56 -23 -124.5 -34t-154.5 -11h-400v62h400q150 0 245.5 35.5t146.5 110.5q46 67 60 161.5t14 215.5v844h62v-844zM418 263l-61 -4l-70 1134l61 4zM582 1860q37 -57 37 -155
q0 -31 -7.5 -54.5t-19 -41t-26 -29.5t-28.5 -19q-18 -10 -35.5 -15.5t-33 -8.5t-27 -3.5t-16.5 -0.5h-417l23 61h109q9 15 19 32t21 36q1 2 3.5 6t9.5 15.5t21 34t38 61.5q20 30 42.5 56.5t48 46.5t53.5 31.5t59 11.5q41 0 73 -16.5t53 -48.5zM426 1594q8 0 29.5 2.5
t44 13.5t40 33t17.5 62q0 59 -12.5 91t-29 47t-33.5 17.5t-26 2.5q-33 0 -63.5 -21.5t-58 -55.5t-53 -75t-47.5 -80q-11 -21 -22 -37h214z" />
    <glyph glyph-name="uni06440671.fina" unicode="&#xfee0;&#xfb51;" horiz-adv-x="1340" 
d="M1079 350q0 -22 3 -51.5t11.5 -62t25.5 -64t44.5 -56t67.5 -40t96 -15.5h28v-61h-28q-154 0 -238 107q-42 54 -60 131q-8 -17 -16 -33.5t-19 -32.5q-30 -43 -70 -74.5t-94 -53.5q-56 -23 -124.5 -34t-154.5 -11h-392v62h392q150 0 245.5 35.5t146.5 110.5
q43 63 57.5 147.5t16.5 193.5v880h62v-1078zM413 263l-61 -4l-72 1134l61 4zM559 1874q37 -57 37 -155q0 -31 -7.5 -54.5t-19 -41t-26 -29.5t-28.5 -19q-18 -10 -35.5 -15.5t-33 -8.5t-27 -3.5t-16.5 -0.5h-417l23 61h109q9 15 19 32t21 36q1 2 3.5 6t9.5 15.5t21 34
t38 61.5q20 30 42.5 56.5t48 46.5t53.5 31.5t59 11.5q41 0 73 -16.5t53 -48.5zM403 1608q8 0 29.5 2.5t44 13.5t40 33t17.5 62q0 59 -12.5 91t-29 47t-33.5 17.5t-26 2.5q-33 0 -63.5 -21.5t-58 -55.5t-53 -75t-47.5 -80q-11 -21 -22 -37h214z" />
    <glyph glyph-name="uni0621" unicode="&#x621;" horiz-adv-x="1004" arabic-form="isolated" 
d="M90 -13l-18 59l428 130q-67 12 -119 40q-45 23 -76 52.5t-51 58.5t-31 54.5t-16 40.5q-12 39 -12 78q0 18 5 55.5t36 88.5q28 47 71.5 81t95.5 50q36 11 73 13h15q30 0 64 -3.5t73 -12t80 -17.5l18 -4l-14 -60l-19 4q-39 9 -75 17t-69 12q-27 3 -53 3q-7 0 -26 -1
t-49 -10q-39 -12 -74 -38.5t-57.5 -63t-30.5 -81.5q-3 -16 -3 -32q0 -30 10 -61q4 -13 13 -33.5t25.5 -44.5t42 -48.5t62.5 -43.5q78 -40 178 -40q77 0 168 24l20 6v-1l19 6l100 31l18 -59l-100 -31l-31 -9z" />
    <glyph glyph-name="uni0622" unicode="&#x622;" horiz-adv-x="838" arabic-form="isolated" 
d="M455 0h-61v1277h61v-1277zM838 1491h-418q-74 0 -131.5 -6.5t-101.5 -28.5q-46 -23 -77 -65.5t-51 -110.5l-59 17q24 81 63 133t97 81q52 26 115.5 33.5t144.5 7.5h418v-61z" />
    <glyph glyph-name="uni0623" unicode="&#x623;" horiz-adv-x="592" arabic-form="isolated" 
d="M326 0h-61v1277h61v-1277zM457 1516l-426 -133l5 66l215 67q-17 6 -34 15q-29 15 -48.5 33.5t-32.5 37t-20 34.5t-10 26q-8 27 -8 52q0 13 4 37.5t22.5 54.5t47 51.5t60.5 31.5q31 9 62 9q15 0 46.5 -4.5t81.5 -15.5l11 -3l-14 -60l-12 3q-45 11 -84 17q-15 2 -29 2
q-23 0 -44 -6q-22 -7 -41 -21.5t-31.5 -34.5t-16.5 -44q-1 -8 -1 -17q0 -17 5 -34q2 -7 7 -18.5t14.5 -25t23.5 -27t35 -24.5q45 -23 102 -23q43 0 94 13l86 26l18 -59z" />
    <glyph glyph-name="uni0624" unicode="&#x624;" horiz-adv-x="1024" arabic-form="isolated" 
d="M810 61v255q0 239 -87 341q-71 83 -208 83q-54 0 -107.5 -20t-95.5 -64.5t-68.5 -116.5t-26.5 -176q0 -167 119 -245q30 -20 60.5 -31.5t56 -17t44 -7t24.5 -1.5h289zM515 801q168 0 255 -105q102 -120 102 -380v-398q0 -124 -46 -216q-46 -91 -135 -148
q-84 -54 -206 -79.5t-292 -25.5v61q160 0 276.5 24t192 74t112 127t36.5 183v82h-289q-44 0 -103.5 14.5t-115.5 52.5q-25 16 -51 41.5t-47 61.5t-34.5 83.5t-13.5 109.5q0 110 30 196q27 81 80 137q48 51 112 78t137 27zM611 1163l-426 -133l5 66l215 67q-17 6 -34 15
q-29 15 -48.5 33.5t-32.5 37t-20 34.5t-10 26q-8 27 -8 52q0 13 4 37.5t22.5 54.5t47 51.5t60.5 31.5q31 9 62 9q15 0 46.5 -4.5t81.5 -15.5l11 -3l-14 -60l-12 3q-45 11 -84 17q-15 2 -29 2q-23 0 -44 -6q-22 -7 -41 -21.5t-31.5 -34.5t-16.5 -44q-1 -8 -1 -17q0 -17 5 -34
q2 -7 7 -18.5t14.5 -25t23.5 -27t35 -24.5q45 -23 102 -23q43 0 94 13l86 26l18 -59z" />
    <glyph glyph-name="uni0625" unicode="&#x625;" horiz-adv-x="451" arabic-form="isolated" 
d="M261 0h-61v1428h61v-1428zM480 -544l-426 -133l5 66l215 67q-17 6 -34 15q-29 15 -48.5 33.5t-32.5 37t-20 34.5t-10 26q-8 27 -8 52q0 13 4 37.5t22.5 54.5t47 51.5t60.5 31.5q31 9 62 9q15 0 46.5 -4.5t81.5 -15.5l11 -3l-14 -60l-12 3q-45 11 -84 17q-15 2 -29 2
q-23 0 -44 -6q-22 -7 -41 -21.5t-31.5 -34.5t-16.5 -44q-1 -8 -1 -17q0 -17 5 -34q2 -7 7 -18.5t14.5 -25t23.5 -27t35 -24.5q45 -23 102 -23q43 0 94 13l86 26l18 -59z" />
    <glyph glyph-name="uni0626" unicode="&#x626;" horiz-adv-x="1671" arabic-form="isolated" 
d="M1350 809q93 0 191 -27l-17 -59q-89 24 -173 24q-103 0 -194 -35t-161 -103q-44 -43 -74 -94t-46.5 -107t-17.5 -116v-15q0 -53 12 -106q28 -7 54.5 -13.5t52.5 -12.5q139 -34 232.5 -58t149.5 -48q22 -9 43.5 -21.5t37.5 -30.5t24 -41q4 -12 4 -26t-4 -30
q-2 -8 -3 -16.5t-3 -17.5q-7 -33 -14.5 -67.5t-19.5 -69t-29 -68t-43 -63.5q-117 -139 -391 -139h-246q-139 0 -253 61.5t-185 174.5q-24 37 -41.5 79t-29.5 89q-11 48 -16 100q-4 37 -4 76q0 16 1 32q8 239 145 523l55 -27q-62 -128 -96.5 -246.5t-41.5 -225.5
q-2 -31 -2 -60q0 -74 17 -153.5t65 -154.5q62 -99 162.5 -153t223.5 -54h246q91 0 157 15t111.5 40.5t74.5 60.5t47 74.5t28 82.5t18 85q2 9 3.5 17.5t3.5 16.5q2 10 1.5 19.5t-7 19t-21.5 20t-42 21.5q-54 23 -145 46.5t-228 56.5q-29 8 -62 16t-81 19q-20 78 -21 152v8
q0 70 17 136t52 126t86 110q53 52 117.5 87.5t138.5 53.5q67 16 141 16zM538 904l-426 -133l5 66l215 67q-17 6 -34 15q-29 15 -48.5 33.5t-32.5 37t-20 34.5t-10 26q-8 27 -8 52q0 13 4 37.5t22.5 54.5t47 51.5t60.5 31.5q31 9 62 9q15 0 46.5 -4.5t81.5 -15.5l11 -3
l-14 -60l-12 3q-45 11 -84 17q-15 2 -29 2q-23 0 -44 -6q-22 -7 -41 -21.5t-31.5 -34.5t-16.5 -44q-1 -8 -1 -17q0 -17 5 -34q2 -7 7 -18.5t14.5 -25t23.5 -27t35 -24.5q45 -23 102 -23q43 0 94 13l86 26l18 -59z" />
    <glyph glyph-name="uni0627" unicode="&#x627;" horiz-adv-x="451" arabic-form="isolated" 
d="M261 0h-61v1428h61v-1428z" />
    <glyph glyph-name="uni0628" unicode="&#x628;" horiz-adv-x="2103" arabic-form="isolated" 
d="M418 0q-58 1 -110 20.5t-91 55.5q-93 87 -93 239q0 32 5 69t12.5 74.5t16 73t16 63.5t13 46t6.5 20l59 -19v-1l-1 -1q-1 -4 -4 -14q-5 -17 -12.5 -44t-16 -61t-15.5 -70t-12 -71.5t-5 -64.5q0 -70 21 -118t54.5 -78t74.5 -44t82 -14h1263q40 0 77.5 17t68.5 49
q39 40 60 97q18 52 18 111v12q-1 49 -7.5 102.5t-16.5 106.5q-10 51 -20 99l61 9q11 -48 20 -99q9 -55 16 -110.5t9 -106.5v-12q0 -72 -24 -137.5t-72 -114.5q-40 -41 -88.5 -62.5t-101.5 -21.5h-1263zM968 -351l89 89l88 -89l-88 -88z" />
    <glyph glyph-name="uni0629" unicode="&#x629;" horiz-adv-x="1042" arabic-form="isolated" 
d="M523 0q-79 0 -148 25.5t-120.5 69.5t-81.5 102.5t-30 125.5q0 60 17 113.5t42.5 99t54.5 82.5t52 65q5 6 9 11.5t9 10.5q17 21 38 44.5t42 46t40 42t32 33.5q-42 46 -69.5 76t-28.5 31l45 41q1 0 24.5 -25.5t59.5 -65.5t80 -89t85 -96q46 -53 90 -107.5t75 -107.5
q32 -54 47 -102.5t15 -98.5q0 -68 -29.5 -128.5t-85.5 -106.5q-54 -45 -121.5 -68.5t-142.5 -23.5zM520 825q-13 -14 -31.5 -33t-38.5 -40.5t-40 -43.5t-36 -42q-4 -5 -8.5 -10.5t-9.5 -11.5q-23 -27 -49.5 -61t-49.5 -74.5t-38 -87t-15 -98.5q0 -54 25 -101.5t68.5 -83
t101.5 -56t124 -20.5q67 0 125 20.5t101 56.5t67.5 84t24.5 104q0 42 -13.5 83t-40 86t-66.5 95.5t-92 111.5q-26 30 -54 61.5t-55 60.5zM586 1373l89 89l88 -89l-88 -88zM250 1373l89 89l88 -89l-88 -88z" />
    <glyph glyph-name="uni062A" unicode="&#x62a;" horiz-adv-x="2103" arabic-form="isolated" 
d="M418 0q-58 1 -110 20.5t-91 55.5q-93 87 -93 239q0 32 5 69t12.5 74.5t16 73t16 63.5t13 46t6.5 20l59 -19v-1l-1 -1q-1 -4 -4 -14q-5 -17 -12.5 -44t-16 -61t-15.5 -70t-12 -71.5t-5 -64.5q0 -70 21 -118t54.5 -78t74.5 -44t82 -14h1263q40 0 77.5 17t68.5 49
q39 40 60 97q18 52 18 111v12q-1 49 -7.5 102.5t-16.5 106.5q-10 51 -20 99l61 9q11 -48 20 -99q9 -55 16 -110.5t9 -106.5v-12q0 -72 -24 -137.5t-72 -114.5q-40 -41 -88.5 -62.5t-101.5 -21.5h-1263zM1149 925l89 89l88 -89l-88 -88zM813 925l89 89l88 -89l-88 -88z" />
    <glyph glyph-name="uni062B" unicode="&#x62b;" horiz-adv-x="2103" arabic-form="isolated" 
d="M418 0q-58 1 -110 20.5t-91 55.5q-93 87 -93 239q0 32 5 69t12.5 74.5t16 73t16 63.5t13 46t6.5 20l59 -19v-1l-1 -1q-1 -4 -4 -14q-5 -17 -12.5 -44t-16 -61t-15.5 -70t-12 -71.5t-5 -64.5q0 -70 21 -118t54.5 -78t74.5 -44t82 -14h1263q40 0 77.5 17t68.5 49
q39 40 60 97q18 52 18 111v12q-1 49 -7.5 102.5t-16.5 106.5q-10 51 -20 99l61 9q11 -48 20 -99q9 -55 16 -110.5t9 -106.5v-12q0 -72 -24 -137.5t-72 -114.5q-40 -41 -88.5 -62.5t-101.5 -21.5h-1263zM1166 880l89 89l88 -89l-88 -88zM830 880l89 89l88 -89l-88 -88z
M997 1077l89 89l88 -89l-88 -88z" />
    <glyph glyph-name="uni062C" unicode="&#x62c;" horiz-adv-x="1449" arabic-form="isolated" 
d="M1239 -520h-438q-35 0 -84 3t-106 13t-118.5 28.5t-119.5 48.5q-54 29 -97 64t-74 78q-71 98 -77 226l-1 25q0 107 39 189q20 42 48.5 79t70.5 70q37 30 80 54.5t90.5 46.5t99 42t104.5 40q6 2 12 4.5t13 4.5q195 74 335 126.5t214 78.5q-55 24 -124.5 54.5t-142.5 61.5
t-146 61t-135 54t-109 40t-69 19q-14 2 -28 2q-27 0 -58.5 -10t-63.5 -37t-56.5 -69t-38.5 -96l-59 15q17 66 48.5 118t75.5 86q42 32 90 46q31 8 64 8q17 0 35 -2q24 -4 70 -19t106 -38t129 -51t138 -57t133 -57t115 -50t83.5 -36.5t37.5 -16.5l-2 -57q-1 0 -45 -16
t-124.5 -46t-195 -72.5t-256.5 -96.5q-6 -2 -12 -5t-13 -5q-103 -38 -195.5 -78t-161.5 -95q-73 -59 -105 -134q-29 -66 -29 -152q0 -13 1 -26q9 -211 214 -316q80 -42 184 -64.5t216 -22.5h438v-61zM707 20l89 89l88 -89l-88 -88z" />
    <glyph glyph-name="uni062D" unicode="&#x62d;" horiz-adv-x="1449" arabic-form="isolated" 
d="M1239 -520h-438q-35 0 -84 3t-106 13t-118.5 28.5t-119.5 48.5q-54 29 -97 64t-74 78q-71 98 -77 226l-1 25q0 107 39 189q20 42 48.5 79t70.5 70q37 30 80 54.5t90.5 46.5t99 42t104.5 40q6 2 12 4.5t13 4.5q195 74 335 126.5t214 78.5q-55 24 -124.5 54.5t-142.5 61.5
t-146 61t-135 54t-109 40t-69 19q-14 2 -28 2q-27 0 -58.5 -10t-63.5 -37t-56.5 -69t-38.5 -96l-59 15q17 66 48.5 118t75.5 86q42 32 90 46q31 8 64 8q17 0 35 -2q24 -4 70 -19t106 -38t129 -51t138 -57t133 -57t115 -50t83.5 -36.5t37.5 -16.5l-2 -57q-1 0 -45 -16
t-124.5 -46t-195 -72.5t-256.5 -96.5q-6 -2 -12 -5t-13 -5q-103 -38 -195.5 -78t-161.5 -95q-73 -59 -105 -134q-29 -66 -29 -152q0 -13 1 -26q9 -211 214 -316q80 -42 184 -64.5t216 -22.5h438v-61z" />
    <glyph glyph-name="uni062E" unicode="&#x62e;" horiz-adv-x="1449" arabic-form="isolated" 
d="M1239 -520h-438q-35 0 -84 3t-106 13t-118.5 28.5t-119.5 48.5q-54 29 -97 64t-74 78q-71 98 -77 226l-1 25q0 107 39 189q20 42 48.5 79t70.5 70q37 30 80 54.5t90.5 46.5t99 42t104.5 40q6 2 12 4.5t13 4.5q195 74 335 126.5t214 78.5q-55 24 -124.5 54.5t-142.5 61.5
t-146 61t-135 54t-109 40t-69 19q-14 2 -28 2q-27 0 -58.5 -10t-63.5 -37t-56.5 -69t-38.5 -96l-59 15q17 66 48.5 118t75.5 86q42 32 90 46q31 8 64 8q17 0 35 -2q24 -4 70 -19t106 -38t129 -51t138 -57t133 -57t115 -50t83.5 -36.5t37.5 -16.5l-2 -57q-1 0 -45 -16
t-124.5 -46t-195 -72.5t-256.5 -96.5q-6 -2 -12 -5t-13 -5q-103 -38 -195.5 -78t-161.5 -95q-73 -59 -105 -134q-29 -66 -29 -152q0 -13 1 -26q9 -211 214 -316q80 -42 184 -64.5t216 -22.5h438v-61zM376 1421l89 89l88 -89l-88 -88z" />
    <glyph glyph-name="uni062F" unicode="&#x62f;" horiz-adv-x="1064" arabic-form="isolated" 
d="M544 1q-36 0 -73.5 2.5t-75.5 8.5q-75 12 -140.5 33t-113.5 50l-27 15l32 53l26 -16q45 -26 105.5 -45t127 -29t134.5 -11h11q62 0 116 10q75 14 125.5 46t70.5 80q13 31 13 65q0 15 -5.5 47.5t-40.5 84.5q-77 115 -132 198.5t-92.5 141t-60.5 92.5t-35.5 54t-17 25.5
t-4.5 7.5l-17 25l52 33l17 -25q0 -1 4.5 -7.5t17 -26t35.5 -54.5t61 -92.5t92.5 -140t130.5 -197.5q44 -66 54 -131q3 -19 3 -37q0 -45 -18 -87q-27 -63 -89 -104.5t-153 -58.5q-59 -10 -133 -10z" />
    <glyph glyph-name="uni0630" unicode="&#x630;" horiz-adv-x="1064" arabic-form="isolated" 
d="M544 1q-36 0 -73.5 2.5t-75.5 8.5q-75 12 -140.5 33t-113.5 50l-27 15l32 53l26 -16q45 -26 105.5 -45t127 -29t134.5 -11h11q62 0 116 10q75 14 125.5 46t70.5 80q13 31 13 65q0 15 -5.5 47.5t-40.5 84.5q-77 115 -132 198.5t-92.5 141t-60.5 92.5t-35.5 54t-17 25.5
t-4.5 7.5l-17 25l52 33l17 -25q0 -1 4.5 -7.5t17 -26t35.5 -54.5t61 -92.5t92.5 -140t130.5 -197.5q44 -66 54 -131q3 -19 3 -37q0 -45 -18 -87q-27 -63 -89 -104.5t-153 -58.5q-59 -10 -133 -10zM412 1303l89 89l88 -89l-88 -88z" />
    <glyph glyph-name="uni0631" unicode="&#x631;" horiz-adv-x="826" arabic-form="isolated" 
d="M140 -581h-140v62h140q239 0 356.5 122t117.5 372v649h62v-649q0 -261 -123 -402q-136 -154 -413 -154z" />
    <glyph glyph-name="uni0632" unicode="&#x632;" horiz-adv-x="826" arabic-form="isolated" 
d="M140 -581h-140v62h140q239 0 356.5 122t117.5 372v649h62v-649q0 -261 -123 -402q-136 -154 -413 -154zM538 1109l89 89l88 -89l-88 -88z" />
    <glyph glyph-name="uni0633" unicode="&#x633;" horiz-adv-x="2736" arabic-form="isolated" 
d="M1426 141v-222q0 -216 -99 -328q-58 -70 -157 -105q-51 -20 -113.5 -29t-135.5 -9h-239q-136 0 -246.5 59t-179.5 168q-48 77 -70 173q-19 79 -19 166q0 20 1 39q11 243 149 530l55 -27q-63 -130 -98.5 -250.5t-43.5 -228.5q-2 -31 -2 -60q0 -75 16.5 -154.5t63.5 -154.5
q60 -95 157 -147t217 -52h239q130 0 218 30t142 92q83 96 83 288v726h62v-221q0 -208 86 -294q67 -67 200 -67q45 0 89 15t78.5 46t55.5 78.5t21 113.5v329h61v-329q0 -44 11 -88.5t41.5 -81.5t84.5 -60q52 -23 135 -23q40 0 82 14q42 13 76 43t55.5 78.5t21.5 118.5
q0 37 -6 82.5t-15.5 93t-20 92.5t-20 80.5t-16 57t-6.5 22.5l58 18q1 -3 8 -26.5t16.5 -60t21 -82.5t21 -94.5t15.5 -96t6 -86.5q0 -152 -95 -239q-40 -37 -92 -56q-51 -19 -107 -20v-1q-167 0 -255 90q-32 33 -51 75q-27 -53 -66 -88q-44 -39 -98.5 -58t-109.5 -19
q-159 0 -244 86q-24 24 -42 54z" />
    <glyph glyph-name="uni0634" unicode="&#x634;" horiz-adv-x="2736" arabic-form="isolated" 
d="M1426 141v-222q0 -216 -99 -328q-58 -70 -157 -105q-51 -20 -113.5 -29t-135.5 -9h-239q-136 0 -246.5 59t-179.5 168q-48 77 -70 173q-19 79 -19 166q0 20 1 39q11 243 149 530l55 -27q-63 -130 -98.5 -250.5t-43.5 -228.5q-2 -31 -2 -60q0 -75 16.5 -154.5t63.5 -154.5
q60 -95 157 -147t217 -52h239q130 0 218 30t142 92q83 96 83 288v726h62v-221q0 -208 86 -294q67 -67 200 -67q45 0 89 15t78.5 46t55.5 78.5t21 113.5v329h61v-329q0 -44 11 -88.5t41.5 -81.5t84.5 -60q52 -23 135 -23q40 0 82 14q42 13 76 43t55.5 78.5t21.5 118.5
q0 37 -6 82.5t-15.5 93t-20 92.5t-20 80.5t-16 57t-6.5 22.5l58 18q1 -3 8 -26.5t16.5 -60t21 -82.5t21 -94.5t15.5 -96t6 -86.5q0 -152 -95 -239q-40 -37 -92 -56q-51 -19 -107 -20v-1q-167 0 -255 90q-32 33 -51 75q-27 -53 -66 -88q-44 -39 -98.5 -58t-109.5 -19
q-159 0 -244 86q-24 24 -42 54zM2070 1102l89 89l88 -89l-88 -88zM1734 1102l89 89l88 -89l-88 -88zM1901 1299l89 89l88 -89l-88 -88z" />
    <glyph glyph-name="uni0635" unicode="&#x635;" horiz-adv-x="2793" arabic-form="isolated" 
d="M951 -551h-239q-138 0 -250.5 60t-181.5 171q-47 74 -70 168q-12 48 -16 100q-4 37 -4 76q0 16 1 32q5 120 41.5 251t105.5 274l55 -27q-62 -129 -97 -248.5t-42 -225.5q-2 -31 -2 -60q0 -73 16.5 -152.5t63.5 -154.5q60 -97 159.5 -149.5t220.5 -52.5h239q256 0 360 119
q43 49 63 118.5t20 168.5v724h62v-356q0 -45 12 -79.5t32.5 -60t47.5 -42.5t58 -27q20 31 40.5 65t43.5 71q39 65 81.5 133t88.5 132.5t96.5 122t105 100.5t114 68t124.5 25q66 0 128 -32q62 -34 106 -91q49 -63 74.5 -145t25.5 -179q0 -53 -11 -98t-31 -83
q-36 -66 -101 -107q-31 -20 -63.5 -31.5t-61.5 -17.5t-52.5 -7.5t-37.5 -1.5h-572q-62 0 -116.5 18t-96.5 52q-19 14 -35 34v-187q0 -215 -99 -327q-61 -70 -157 -104q-51 -18 -113.5 -27.5t-135.5 -9.5zM1704 61h572q17 0 46 3t62 12.5t66.5 28t60.5 50t44 78.5t17 113
q0 55 -8 99.5t-20.5 79.5t-27.5 61.5t-30 45.5q-38 48 -85.5 73.5t-100.5 25.5q-74 0 -148.5 -44t-154.5 -135q-36 -41 -69.5 -86.5t-65.5 -93.5t-62 -97t-58 -95q-38 -63 -72 -117q8 -1 17 -1.5t17 -0.5z" />
    <glyph glyph-name="uni0636" unicode="&#x636;" horiz-adv-x="2793" arabic-form="isolated" 
d="M951 -551h-239q-138 0 -250.5 60t-181.5 171q-47 74 -70 168q-12 48 -16 100q-4 37 -4 76q0 16 1 32q5 120 41.5 251t105.5 274l55 -27q-62 -129 -97 -248.5t-42 -225.5q-2 -31 -2 -60q0 -73 16.5 -152.5t63.5 -154.5q60 -97 159.5 -149.5t220.5 -52.5h239q256 0 360 119
q43 49 63 118.5t20 168.5v724h62v-356q0 -45 12 -79.5t32.5 -60t47.5 -42.5t58 -27q20 31 40.5 65t43.5 71q39 65 81.5 133t88.5 132.5t96.5 122t105 100.5t114 68t124.5 25q66 0 128 -32q62 -34 106 -91q49 -63 74.5 -145t25.5 -179q0 -53 -11 -98t-31 -83
q-36 -66 -101 -107q-31 -20 -63.5 -31.5t-61.5 -17.5t-52.5 -7.5t-37.5 -1.5h-572q-62 0 -116.5 18t-96.5 52q-19 14 -35 34v-187q0 -215 -99 -327q-61 -70 -157 -104q-51 -18 -113.5 -27.5t-135.5 -9.5zM1704 61h572q17 0 46 3t62 12.5t66.5 28t60.5 50t44 78.5t17 113
q0 55 -8 99.5t-20.5 79.5t-27.5 61.5t-30 45.5q-38 48 -85.5 73.5t-100.5 25.5q-74 0 -148.5 -44t-154.5 -135q-36 -41 -69.5 -86.5t-65.5 -93.5t-62 -97t-58 -95q-38 -63 -72 -117q8 -1 17 -1.5t17 -0.5zM2167 1229l89 89l88 -89l-88 -88z" />
    <glyph glyph-name="uni0637" unicode="&#x637;" horiz-adv-x="1525" arabic-form="isolated" 
d="M956 0h-867v62h253q24 37 49.5 79.5t52.5 89.5q7 12 13.5 24t14.5 24v1148h61v-1045q36 59 75 115.5t81 106.5q165 193 333 193q166 0 250 -126q76 -116 76 -324q0 -98 -41 -171t-121 -118q-35 -20 -71.5 -31.5t-68 -17.5t-55.5 -7.5t-35 -1.5zM415 62h541q14 0 43.5 2
t66.5 11t76 27.5t71 50t52.5 79t20.5 115.5q0 190 -65 290q-66 99 -199 99q-54 0 -104 -23t-97 -62.5t-90.5 -92.5t-84 -112.5t-78 -122.5t-71.5 -123q-21 -37 -41.5 -71.5t-40.5 -66.5z" />
    <glyph glyph-name="uni0638" unicode="&#x638;" horiz-adv-x="1525" arabic-form="isolated" 
d="M956 0h-867v62h253q24 37 49.5 79.5t52.5 89.5q7 12 13.5 24t14.5 24v1148h61v-1045q36 59 75 115.5t81 106.5q165 193 333 193q166 0 250 -126q76 -116 76 -324q0 -98 -41 -171t-121 -118q-35 -20 -71.5 -31.5t-68 -17.5t-55.5 -7.5t-35 -1.5zM415 62h541q14 0 43.5 2
t66.5 11t76 27.5t71 50t52.5 79t20.5 115.5q0 190 -65 290q-66 99 -199 99q-54 0 -104 -23t-97 -62.5t-90.5 -92.5t-84 -112.5t-78 -122.5t-71.5 -123q-21 -37 -41.5 -71.5t-40.5 -66.5zM949 1287l89 89l88 -89l-88 -88z" />
    <glyph glyph-name="uni0639" unicode="&#x639;" horiz-adv-x="1384" arabic-form="isolated" 
d="M616 411q-44 0 -93 -11.5t-97.5 -35t-92.5 -59t-78 -83t-54 -108.5t-20 -134q0 -81 22.5 -145.5t61.5 -113.5t92 -83.5t112.5 -56.5t123.5 -32t126 -10h476v-61h-476q-114 0 -216.5 28.5t-182.5 82.5q-99 67 -150 166t-51 225q0 115 49 216q44 88 122 154
q69 58 155.5 90.5t170.5 32.5h114q-90 36 -157 94q-36 32 -64 69t-46 79q-34 74 -34 147q0 72 30.5 137t87.5 116q53 47 117 72.5t129 25.5q44 0 85 -10t81.5 -27t81 -39t83.5 -47q9 -5 18.5 -10.5t19.5 -11.5l-30 -53q-10 5 -19.5 11t-19.5 11q-42 24 -79.5 45t-74 36.5
t-72.5 24.5t-74 9q-53 0 -107 -22t-97.5 -61t-70.5 -92t-27 -115q0 -66 32.5 -131.5t90.5 -116.5q80 -70 199.5 -105.5t273.5 -35.5h128v-62h-599z" />
    <glyph glyph-name="uni063A" unicode="&#x63a;" horiz-adv-x="1384" arabic-form="isolated" 
d="M616 411q-44 0 -93 -11.5t-97.5 -35t-92.5 -59t-78 -83t-54 -108.5t-20 -134q0 -81 22.5 -145.5t61.5 -113.5t92 -83.5t112.5 -56.5t123.5 -32t126 -10h476v-61h-476q-114 0 -216.5 28.5t-182.5 82.5q-99 67 -150 166t-51 225q0 115 49 216q44 88 122 154
q69 58 155.5 90.5t170.5 32.5h114q-90 36 -157 94q-36 32 -64 69t-46 79q-34 74 -34 147q0 72 30.5 137t87.5 116q53 47 117 72.5t129 25.5q44 0 85 -10t81.5 -27t81 -39t83.5 -47q9 -5 18.5 -10.5t19.5 -11.5l-30 -53q-10 5 -19.5 11t-19.5 11q-42 24 -79.5 45t-74 36.5
t-72.5 24.5t-74 9q-53 0 -107 -22t-97.5 -61t-70.5 -92t-27 -115q0 -66 32.5 -131.5t90.5 -116.5q80 -70 199.5 -105.5t273.5 -35.5h128v-62h-599zM741 1590l89 89l88 -89l-88 -88z" />
    <glyph glyph-name="uni0641" unicode="&#x641;" horiz-adv-x="2127" arabic-form="isolated" 
d="M1678 411q38 0 76.5 3t73 7.5t62 9t42.5 7.5q-1 118 -15 202.5t-37 143.5t-53 94.5t-63.5 54.5t-68 25.5t-66.5 6.5q-72 0 -124 -25.5t-86 -67.5t-50.5 -95t-16.5 -108q0 -258 326 -258zM1471 61q125 0 210 19t139 58q52 38 79 95.5t32 141.5q-19 -3 -47 -7.5t-61.5 -8.5
t-70.5 -6.5t-74 -2.5q-162 0 -260 62q-127 82 -127 257q0 71 21.5 134.5t63.5 111.5q46 55 110.5 83t142.5 28q180 0 272 -147q47 -76 70 -190.5t23 -273.5q0 -228 -138 -327q-63 -45 -156.5 -66.5t-228.5 -21.5h-1034q-58 1 -110 20.5t-91 55.5q-93 87 -93 239q0 32 5 69
t12.5 74.5t16 73t16 63.5t13 46t6.5 20l59 -19l-5 -16q-5 -17 -12.5 -44t-16 -61t-15.5 -70t-12 -71.5t-5 -64.5q0 -70 21 -118t54.5 -78t74.5 -44t82 -14h1034zM1512 1470l89 89l88 -89l-88 -88z" />
    <glyph glyph-name="uni0642" unicode="&#x642;" horiz-adv-x="1620" arabic-form="isolated" 
d="M764 -491q160 0 276 24t192 74t112.5 127t36.5 183v82h-289q-22 0 -48.5 3.5t-55.5 11.5t-58.5 20.5t-57.5 31.5q-25 16 -51 41.5t-47 61.5t-34.5 83.5t-13.5 109.5q0 110 30 196q28 81 80 137q48 51 112 78t137 27q167 0 256 -105q101 -119 101 -380v-398
q0 -126 -45 -216t-135 -148q-84 -54 -206.5 -79.5t-291.5 -25.5h-108q-135 0 -246.5 59.5t-180.5 169.5q-49 78 -71 175q-20 82 -20 174q0 16 1 32q11 243 149 530l55 -27q-56 -117 -87.5 -217.5t-44.5 -184.5q-12 -70 -12 -130q0 -13 1.5 -54t13.5 -96.5t30 -97.5t37 -71
q60 -97 158 -149t217 -52h108zM1381 60v255q0 237 -87 341q-71 83 -209 83q-54 0 -107 -20t-95.5 -64.5t-68.5 -116.5t-26 -176q0 -167 119 -245q30 -20 60.5 -31.5t56 -17t44 -7t24.5 -1.5h289zM1170 1229l89 89l88 -89l-88 -88zM834 1229l89 89l88 -89l-88 -88z" />
    <glyph glyph-name="uni0643" unicode="&#x643;" horiz-adv-x="2057" arabic-form="isolated" 
d="M986 60q95 0 183.5 0.5t167 5t146.5 13t122 25.5q53 16 91 40t63 57.5t36.5 77.5t11.5 100v1049h61v-1049q0 -133 -60 -214.5t-186 -119.5q-55 -17 -122.5 -26.5t-144.5 -14t-163.5 -5.5t-179.5 -1h-158h-90.5h-94.5t-89.5 0.5t-75 0.5h-51.5h-20q-58 0 -109.5 19.5
t-91.5 56.5q-45 42 -69 102.5t-24 135.5q0 31 5 68.5t12.5 75.5t16 73.5t16 63.5t13 46t6.5 20l59 -19l-5 -16q-5 -17 -12.5 -44t-16 -61t-15.5 -70.5t-12 -72t-5 -64.5q0 -70 21.5 -118.5t55 -78.5t75 -43t82.5 -13h551zM1149 922q-51 -17 -90 -34t-68 -34
q-10 -6 -22.5 -15t-23 -19.5t-16.5 -21.5q-4 -9 -4 -18v-6q2 -9 14.5 -15.5t30 -11t38.5 -7.5t39 -6q28 -3 55.5 -7.5t50.5 -12.5q64 -23 69 -75q1 -6 1 -11q0 -31 -24 -56q-21 -22 -56 -36t-78 -22.5t-90.5 -11.5t-92.5 -3h-28l1 62q7 -1 13.5 -1h12.5q123 0 189 17t84 37
q7 8 7 16v3q-1 9 -12.5 15.5t-29.5 11t-39 8t-41 6.5q-26 3 -52.5 7t-49.5 12q-61 21 -72 68q-2 10 -2 21q0 66 96 124q64 39 170 74z" />
    <glyph glyph-name="uni0644" unicode="&#x644;" horiz-adv-x="1335" arabic-form="isolated" 
d="M1149 -80q0 -109 -24.5 -190t-74.5 -139q-29 -35 -69 -61t-88 -44q-103 -38 -249 -38h-72q-117 0 -213.5 52t-156.5 147q-42 66 -61 147q-16 67 -16 141q0 16 1 32q8 205 123 445l56 -27q-104 -217 -117 -397q-2 -26 -2 -50q0 -149 68 -258q51 -81 134 -125.5t184 -44.5
h72q255 0 360 121q83 96 83 289v1508h62v-1508z" />
    <glyph glyph-name="uni0645" unicode="&#x645;" horiz-adv-x="1352" arabic-form="isolated" 
d="M181 -725v1034l83 51l16 -9l17 -9q16 -9 44.5 -24l66.5 -35t82 -42q13 72 26 131.5t27 108.5t30 88.5t34 72.5q94 170 272 170q80 0 149 -43q61 -37 107 -106q41 -63 63 -139.5t22 -156.5q0 -195 -90 -292q-36 -40 -85 -61.5t-106 -21.5q-47 0 -168 50q-47 19 -104 45
t-124 59q-46 22 -89.5 44.5t-80 41.5t-64.5 34t-43 23l-24 -15v-120.5v-149v-164t0.5 -165t0.5 -153v-127v-87v-33.5h-62zM548 212q5 -2 10.5 -5t11.5 -6q98 -48 164 -77t108.5 -44.5t64.5 -20.5t32 -5q31 0 71 12t75 50q73 80 73 251q0 70 -20 139t-55 123q-14 21 -33 42.5
t-44 39t-56.5 28.5t-70.5 11q-74 0 -126 -33t-92 -105q-17 -31 -32.5 -70t-29 -87.5t-26.5 -108.5t-25 -134z" />
    <glyph glyph-name="uni0646" unicode="&#x646;" horiz-adv-x="1600" arabic-form="isolated" 
d="M909 -552h-236q-135 0 -246.5 59.5t-180.5 169.5q-49 78 -71 175q-20 82 -20 174q0 16 1 32q11 243 149 530l55 -27q-56 -117 -87.5 -217.5t-44.5 -184.5q-12 -70 -12 -130q0 -13 1.5 -54t13.5 -96.5t30 -97.5t37 -71q60 -97 158 -149t217 -52h236q254 0 360 122
q83 96 83 288v741h61v-741q0 -215 -98 -328q-61 -71 -157 -105q-105 -38 -249 -38zM770 755l89 89l88 -89l-88 -88z" />
    <glyph glyph-name="uni0647" unicode="&#x647;" horiz-adv-x="1042" arabic-form="isolated" 
d="M523 0q-79 0 -148 25.5t-120.5 69.5t-81.5 102.5t-30 125.5q0 60 17 113.5t42.5 99t54.5 82.5t52 65q5 6 9 11.5t9 10.5q17 21 38 44.5t42 46t40 42t32 33.5q-42 46 -69.5 76t-28.5 31l45 41q1 0 24.5 -25.5t59.5 -65.5t80 -89t85 -96q46 -53 90 -107.5t75 -107.5
q32 -54 47 -102.5t15 -98.5q0 -68 -29.5 -128.5t-85.5 -106.5q-54 -45 -121.5 -68.5t-142.5 -23.5zM520 825q-13 -14 -31.5 -33t-38.5 -40.5t-40 -43.5t-36 -42q-4 -5 -8.5 -10.5t-9.5 -11.5q-23 -27 -49.5 -61t-49.5 -74.5t-38 -87t-15 -98.5q0 -54 25 -101.5t68.5 -83
t101.5 -56t124 -20.5q67 0 125 20.5t101 56.5t67.5 84t24.5 104q0 42 -13.5 83t-40 86t-66.5 95.5t-92 111.5q-26 30 -54 61.5t-55 60.5z" />
    <glyph glyph-name="uni0648" unicode="&#x648;" horiz-adv-x="1024" arabic-form="isolated" 
d="M810 61v255q0 239 -87 341q-71 83 -208 83q-54 0 -107.5 -20t-95.5 -64.5t-68.5 -116.5t-26.5 -176q0 -167 119 -245q30 -20 60.5 -31.5t56 -17t44 -7t24.5 -1.5h289zM515 801q168 0 255 -105q102 -120 102 -380v-398q0 -124 -46 -216q-46 -91 -135 -148
q-84 -54 -206 -79.5t-292 -25.5v61q160 0 276.5 24t192 74t112 127t36.5 183v82h-289q-44 0 -103.5 14.5t-115.5 52.5q-25 16 -51 41.5t-47 61.5t-34.5 83.5t-13.5 109.5q0 110 30 196q27 81 80 137q48 51 112 78t137 27z" />
    <glyph glyph-name="uni0649" unicode="&#x649;" horiz-adv-x="1671" arabic-form="isolated" 
d="M1350 809q93 0 191 -27l-17 -59q-89 24 -173 24q-103 0 -194 -35t-161 -103q-44 -43 -74 -94t-46.5 -107t-17.5 -116v-15q0 -53 12 -106q28 -7 54.5 -13.5t52.5 -12.5q139 -34 232.5 -58t149.5 -48q22 -9 43.5 -21.5t37.5 -30.5t24 -41q4 -12 4 -26t-4 -30
q-2 -8 -3 -16.5t-3 -17.5q-7 -33 -14.5 -67.5t-19.5 -69t-29 -68t-43 -63.5q-117 -139 -391 -139h-246q-139 0 -253 61.5t-185 174.5q-24 37 -41.5 79t-29.5 89q-11 48 -16 100q-4 37 -4 76q0 16 1 32q8 239 145 523l55 -27q-62 -128 -96.5 -246.5t-41.5 -225.5
q-2 -31 -2 -60q0 -74 17 -153.5t65 -154.5q62 -99 162.5 -153t223.5 -54h246q91 0 157 15t111.5 40.5t74.5 60.5t47 74.5t28 82.5t18 85q2 9 3.5 17.5t3.5 16.5q2 10 1.5 19.5t-7 19t-21.5 20t-42 21.5q-54 23 -145 46.5t-228 56.5q-29 8 -62 16t-81 19q-20 78 -21 152v8
q0 70 17 136t52 126t86 110q53 52 117.5 87.5t138.5 53.5q67 16 141 16z" />
    <glyph glyph-name="uni064A" unicode="&#x64a;" horiz-adv-x="1671" arabic-form="isolated" 
d="M1350 809q93 0 191 -27l-17 -59q-89 24 -173 24q-103 0 -194 -35t-161 -103q-44 -43 -74 -94t-46.5 -107t-17.5 -116v-15q0 -53 12 -106q28 -7 54.5 -13.5t52.5 -12.5q139 -34 232.5 -58t149.5 -48q22 -9 43.5 -21.5t37.5 -30.5t24 -41q4 -12 4 -26t-4 -30
q-2 -8 -3 -16.5t-3 -17.5q-7 -33 -14.5 -67.5t-19.5 -69t-29 -68t-43 -63.5q-117 -139 -391 -139h-246q-139 0 -253 61.5t-185 174.5q-24 37 -41.5 79t-29.5 89q-11 48 -16 100q-4 37 -4 76q0 16 1 32q8 239 145 523l55 -27q-62 -128 -96.5 -246.5t-41.5 -225.5
q-2 -31 -2 -60q0 -74 17 -153.5t65 -154.5q62 -99 162.5 -153t223.5 -54h246q91 0 157 15t111.5 40.5t74.5 60.5t47 74.5t28 82.5t18 85q2 9 3.5 17.5t3.5 16.5q2 10 1.5 19.5t-7 19t-21.5 20t-42 21.5q-54 23 -145 46.5t-228 56.5q-29 8 -62 16t-81 19q-20 78 -21 152v8
q0 70 17 136t52 126t86 110q53 52 117.5 87.5t138.5 53.5q67 16 141 16zM923 -818l89 89l88 -89l-88 -88zM587 -818l89 89l88 -89l-88 -88z" />
    <glyph glyph-name="uni066E.init" unicode="&#x66e;" horiz-adv-x="669" 
d="M480 764q10 -42 21.5 -93t21 -106t16.5 -110.5t9 -106.5v-12q0 -72 -24 -137.5t-72 -114.5q-40 -41 -88.5 -62.5t-101.5 -21.5h-277v61h277q40 0 77.5 17t68.5 49q39 40 60 97q18 52 18 111v12q-1 49 -7.5 102.5t-16.5 106.5t-21 102.5t-21 91.5z" />
    <glyph glyph-name="uni066E.medi" unicode="&#x66e;" horiz-adv-x="782" 
d="M504 286q0 -62 22.5 -105t58.5 -69.5t80 -38.5t87 -12h45v-61h-45q-62 0 -116.5 18t-96.5 52q-40 33 -65 79q-16 -31 -38 -55q-89 -94 -276 -94h-175v61h175q87 0 142 20.5t86 52t42.5 70.5t11.5 77v365h62v-360z" />
    <glyph glyph-name="uni066E.fina" unicode="&#x66e;" horiz-adv-x="2241" 
d="M2256 61v-61h-39q-62 0 -116.5 18t-96.5 52q-40 33 -65 79q-16 -31 -38 -55q-88 -93 -270 -94h-1214q-58 0 -109.5 19.5t-91.5 56.5q-93 87 -93 239q0 32 5 69t12.5 74.5t16 73t16 63.5t13 46t6.5 20l59 -19l-5 -16q-5 -17 -12.5 -44t-16 -61t-15.5 -70t-12 -71.5
t-5 -64.5q0 -70 21.5 -118.5t55 -78.5t75 -43.5t82.5 -13.5h1206q87 0 142 20.5t86 52t42.5 70.5t11.5 77v347h62v-342q0 -62 22.5 -105t58.5 -69.5t80 -38.5t87 -12h39z" />
    <glyph glyph-name="uni066F.init" unicode="&#x66f;" horiz-adv-x="1036" 
d="M572 411q38 0 76.5 3t73 7.5t62 9t42.5 7.5q-1 118 -15 202.5t-37 143.5t-53 94.5t-63.5 54.5t-68 25.5t-66.5 6.5q-72 0 -124 -25.5t-86 -67.5t-50.5 -95t-16.5 -108q0 -258 326 -258zM523 1026q180 0 272 -147q47 -76 70 -190.5t23 -273.5q0 -228 -138 -327
q-63 -45 -156.5 -66.5t-228.5 -21.5h-380v61h380q125 0 210 19t139 58q52 38 79 95.5t32 141.5q-19 -3 -47 -7.5t-61.5 -8.5t-70.5 -6.5t-74 -2.5q-162 0 -260 62q-127 82 -127 257q0 71 21.5 134.5t63.5 111.5q46 55 110.5 83t142.5 28z" />
    <glyph glyph-name="uni066F.medi" unicode="&#x66f;" horiz-adv-x="1084" 
d="M573 136q25 10 48 20.5t45 22.5q94 54 142 123t48 150q0 54 -19 106t-55 93.5t-87.5 67t-116.5 25.5q-68 0 -122.5 -20.5t-93.5 -59t-60 -92.5t-21 -120q0 -54 20 -97.5t52 -79t70.5 -62t76.5 -45.5q17 -9 35 -16.5t38 -15.5zM578 805q72 0 135 -27.5t111 -81.5
q45 -49 69.5 -112.5t24.5 -131.5q0 -98 -57 -181.5t-165 -144.5q-8 -5 -17 -9.5t-18 -9.5q81 -22 170 -34t183 -12h85v-61h-85q-121 0 -232.5 18t-208.5 52q-98 -35 -215.5 -52.5t-253.5 -17.5h-119v61h119q108 0 203 11.5t178 34.5q-5 2 -13 6q-119 61 -181 141
q-72 90 -72 198q0 78 25.5 143t74.5 113t114.5 72.5t144.5 24.5z" />
    <glyph glyph-name="uni066F.fina" unicode="&#x66f;" horiz-adv-x="1616" 
d="M781 -491q160 0 276 24t192 74.5t112.5 127.5t36.5 183v82h-289q-22 0 -48.5 3.5t-55.5 11.5t-58.5 20.5t-57.5 31.5q-25 16 -51 41.5t-47 61.5t-34.5 83.5t-13.5 109.5q0 110 30 196q28 81 80 137q48 51 112 78t137 27q167 0 256 -105q101 -119 101 -380v-255h172v-61
h-172v-82q0 -126 -45 -216t-135 -148q-84 -54 -206.5 -80t-291.5 -26h-108q-68 0 -130 15.5t-116.5 45t-100.5 72t-80 97.5q-49 78 -71 175q-20 82 -20 174q0 16 1 32q11 243 149 530l55 -27q-56 -117 -87.5 -217.5t-44.5 -184.5q-12 -70 -12 -130q0 -13 1.5 -54t13.5 -96.5
t30 -97.5t37 -71q60 -97 158 -149.5t217 -52.5h108zM1398 61v255q0 237 -87 341q-71 83 -209 83q-54 0 -107 -20t-95.5 -64.5t-68.5 -116.5t-26 -176q0 -167 119 -245q30 -20 60.5 -31.5t56 -17t44 -7t24.5 -1.5h289z" />
    <glyph glyph-name="uni0671" unicode="&#x671;" horiz-adv-x="592" arabic-form="isolated" 
d="M326 0h-61v1277h61v-1277zM577 1759q37 -57 37 -155q0 -31 -7.5 -54.5t-19 -41t-26 -29.5t-28.5 -19q-18 -10 -35.5 -15.5t-33 -8.5t-27 -3.5t-16.5 -0.5h-417l23 61h109q9 15 19 32t21 36q1 2 3.5 6t9.5 15.5t21 34t38 61.5q20 30 42.5 56.5t48 46.5t53.5 31.5t59 11.5
q41 0 73 -16.5t53 -48.5zM421 1493q8 0 29.5 2.5t44 13.5t40 33t17.5 62q0 59 -12.5 91t-29 47t-33.5 17.5t-26 2.5q-33 0 -63.5 -21.5t-58 -55.5t-53 -75t-47.5 -80q-11 -21 -22 -37h214z" />
    <glyph glyph-name="uni0679" unicode="&#x679;" horiz-adv-x="2103" arabic-form="isolated" 
d="M418 0q-58 1 -110 20.5t-91 55.5q-93 87 -93 239q0 32 5 69t12.5 74.5t16 73t16 63.5t13 46t6.5 20l59 -19v-1l-1 -1q-1 -4 -4 -14q-5 -17 -12.5 -44t-16 -61t-15.5 -70t-12 -71.5t-5 -64.5q0 -70 21 -118t54.5 -78t74.5 -44t82 -14h1263q40 0 77.5 17t68.5 49
q39 40 60 97q18 52 18 111v12q-1 49 -7.5 102.5t-16.5 106.5q-10 51 -20 99l61 9q11 -48 20 -99q9 -55 16 -110.5t9 -106.5v-12q0 -72 -24 -137.5t-72 -114.5q-40 -41 -88.5 -62.5t-101.5 -21.5h-1263zM1368 1008q37 -57 37 -155q0 -31 -7.5 -54.5t-19 -41t-26 -29.5
t-28.5 -19q-18 -10 -35.5 -15.5t-33 -8.5t-27 -3.5t-16.5 -0.5h-390v61h105q9 15 19 32t21 36q2 5 5 9t5 9v495h62v-396q20 30 42.5 56.5t48 46.5t53.5 31.5t59 11.5q41 0 73 -16.5t53 -48.5zM1212 742q8 0 29.5 2.5t44 13.5t40 33t17.5 62q0 59 -12.5 91t-29 47t-33.5 17.5
t-26 2.5q-33 0 -63.5 -21.5t-58 -55.5t-53 -75t-47.5 -80q-11 -21 -22 -37h214z" />
    <glyph glyph-name="uni067E" unicode="&#x67e;" horiz-adv-x="2103" arabic-form="isolated" 
d="M418 0q-58 1 -110 20.5t-91 55.5q-93 87 -93 239q0 32 5 69t12.5 74.5t16 73t16 63.5t13 46t6.5 20l59 -19v-1l-1 -1q-1 -4 -4 -14q-5 -17 -12.5 -44t-16 -61t-15.5 -70t-12 -71.5t-5 -64.5q0 -70 21 -118t54.5 -78t74.5 -44t82 -14h1263q40 0 77.5 17t68.5 49
q39 40 60 97q18 52 18 111v12q-1 49 -7.5 102.5t-16.5 106.5q-10 51 -20 99l61 9q11 -48 20 -99q9 -55 16 -110.5t9 -106.5v-12q0 -72 -24 -137.5t-72 -114.5q-40 -41 -88.5 -62.5t-101.5 -21.5h-1263zM1251 -257l88 -88l-88 -89l-89 89zM915 -257l88 -88l-88 -89l-89 89z
M1082 -454l88 -88l-88 -89l-89 89z" />
    <glyph glyph-name="uni0686" unicode="&#x686;" horiz-adv-x="1449" arabic-form="isolated" 
d="M1239 -520h-438q-35 0 -84 3t-106 13t-118.5 28.5t-119.5 48.5q-54 29 -97 64t-74 78q-71 98 -77 226l-1 25q0 107 39 189q20 42 48.5 79t70.5 70q37 30 80 54.5t90.5 46.5t99 42t104.5 40q6 2 12 4.5t13 4.5q195 74 335 126.5t214 78.5q-55 24 -124.5 54.5t-142.5 61.5
t-146 61t-135 54t-109 40t-69 19q-14 2 -28 2q-27 0 -58.5 -10t-63.5 -37t-56.5 -69t-38.5 -96l-59 15q17 66 48.5 118t75.5 86q42 32 90 46q31 8 64 8q17 0 35 -2q24 -4 70 -19t106 -38t129 -51t138 -57t133 -57t115 -50t83.5 -36.5t37.5 -16.5l-2 -57q-1 0 -45 -16
t-124.5 -46t-195 -72.5t-256.5 -96.5q-6 -2 -12 -5t-13 -5q-103 -38 -195.5 -78t-161.5 -95q-73 -59 -105 -134q-29 -66 -29 -152q0 -13 1 -26q9 -211 214 -316q80 -42 184 -64.5t216 -22.5h438v-61zM982 165l88 -88l-88 -89l-89 89zM646 165l88 -88l-88 -89l-89 89z
M813 -32l88 -88l-88 -89l-89 89z" />
    <glyph glyph-name="uni0688" unicode="&#x688;" horiz-adv-x="1064" arabic-form="isolated" 
d="M544 1q-36 0 -73.5 2.5t-75.5 8.5q-75 12 -140.5 33t-113.5 50l-27 15l32 53l26 -16q45 -26 105.5 -45t127 -29t134.5 -11h11q62 0 116 10q75 14 125.5 46t70.5 80q13 31 13 65q0 15 -5.5 47.5t-40.5 84.5q-77 115 -132 198.5t-92.5 141t-60.5 92.5t-35.5 54t-17 25.5
t-4.5 7.5l-17 25l52 33l17 -25q0 -1 4.5 -7.5t17 -26t35.5 -54.5t61 -92.5t92.5 -140t130.5 -197.5q44 -66 54 -131q3 -19 3 -37q0 -45 -18 -87q-27 -63 -89 -104.5t-153 -58.5q-59 -10 -133 -10zM772 1590q37 -57 37 -155q0 -31 -7.5 -54.5t-19 -41t-26 -29.5t-28.5 -19
q-18 -10 -35.5 -15.5t-33 -8.5t-27 -3.5t-16.5 -0.5h-390v61h105q9 15 19 32t21 36q2 5 5 9t5 9v495h62v-396q20 30 42.5 56.5t48 46.5t53.5 31.5t59 11.5q41 0 73 -16.5t53 -48.5zM616 1324q8 0 29.5 2.5t44 13.5t40 33t17.5 62q0 59 -12.5 91t-29 47t-33.5 17.5t-26 2.5
q-33 0 -63.5 -21.5t-58 -55.5t-53 -75t-47.5 -80q-11 -21 -22 -37h214z" />
    <glyph glyph-name="uni0691" unicode="&#x691;" horiz-adv-x="826" arabic-form="isolated" 
d="M140 -581h-140v62h140q239 0 356.5 122t117.5 372v649h62v-649q0 -261 -123 -402q-136 -154 -413 -154zM824 1240q37 -57 37 -155q0 -31 -7.5 -54.5t-19 -41t-26 -29.5t-28.5 -19q-18 -10 -35.5 -15.5t-33 -8.5t-27 -3.5t-16.5 -0.5h-390v61h105q9 15 19 32t21 36
q2 5 5 9t5 9v495h62v-396q20 30 42.5 56.5t48 46.5t53.5 31.5t59 11.5q41 0 73 -16.5t53 -48.5zM668 974q8 0 29.5 2.5t44 13.5t40 33t17.5 62q0 59 -12.5 91t-29 47t-33.5 17.5t-26 2.5q-33 0 -63.5 -21.5t-58 -55.5t-53 -75t-47.5 -80q-11 -21 -22 -37h214z" />
    <glyph glyph-name="uni0692.fina" unicode="&#x692;" horiz-adv-x="955" 
d="M970 0h-46q-62 0 -116.5 18t-96.5 52q-19 14 -35 34v-129q0 -261 -123 -402q-136 -154 -413 -154h-140v62h140q239 0 356.5 122t117.5 372v649h62v-338q0 -62 22.5 -105t58.5 -69.5t80 -38.5t87 -12h46v-61zM883 1281l-220 -408h-45l-219 408h77l164 -329l168 329h75z
" />
    <glyph glyph-name="uni0695.fina" unicode="&#x695;" horiz-adv-x="955" 
d="M970 0h-46q-62 0 -116.5 18t-96.5 52q-19 14 -35 34v-129q0 -261 -123 -402q-136 -154 -413 -154h-140v62h140q239 0 356.5 122t117.5 372v649h62v-338q0 -62 22.5 -105t58.5 -69.5t80 -38.5t87 -12h46v-61zM613 -679l-220 -408h-45l-219 408h77l164 -329l168 329h75z
" />
    <glyph glyph-name="uni0698" unicode="&#x698;" horiz-adv-x="826" arabic-form="isolated" 
d="M140 -581h-140v62h140q239 0 356.5 122t117.5 372v649h62v-649q0 -261 -123 -402q-136 -154 -413 -154zM702 1071l89 89l88 -89l-88 -88zM366 1071l89 89l88 -89l-88 -88zM533 1268l89 89l88 -89l-88 -88z" />
    <glyph glyph-name="uni06A4.init.1" unicode="&#x6a4;" horiz-adv-x="1036" arabic-form="initial" 
d="M572 411q38 0 76.5 3t73 7.5t62 9t42.5 7.5q-1 118 -15 202.5t-37 143.5t-53 94.5t-63.5 54.5t-68 25.5t-66.5 6.5q-72 0 -124 -25.5t-86 -67.5t-50.5 -95t-16.5 -108q0 -258 326 -258zM523 1026q180 0 272 -147q47 -76 70 -190.5t23 -273.5q0 -228 -138 -327
q-63 -45 -156.5 -66.5t-228.5 -21.5h-380v61h380q125 0 210 19t139 58q52 38 79 95.5t32 141.5q-19 -3 -47 -7.5t-61.5 -8.5t-70.5 -6.5t-74 -2.5q-162 0 -260 62q-127 82 -127 257q0 71 21.5 134.5t63.5 111.5q46 55 110.5 83t142.5 28zM598 1357l89 89l88 -89l-88 -88z
M262 1357l89 89l88 -89l-88 -88zM429 1554l89 89l88 -89l-88 -88z" />
    <glyph glyph-name="uni06A4.medi.1" unicode="&#x6a4;" horiz-adv-x="1084" arabic-form="medial" 
d="M573 136q25 10 48 20.5t45 22.5q94 54 142 123t48 150q0 54 -19 106t-55 93.5t-87.5 67t-116.5 25.5q-68 0 -122.5 -20.5t-93.5 -59t-60 -92.5t-21 -120q0 -54 20 -97.5t52 -79t70.5 -62t76.5 -45.5q17 -9 35 -16.5t38 -15.5zM578 805q72 0 135 -27.5t111 -81.5
q45 -49 69.5 -112.5t24.5 -131.5q0 -98 -57 -181.5t-165 -144.5q-8 -5 -17 -9.5t-18 -9.5q81 -22 170 -34t183 -12h85v-61h-85q-121 0 -232.5 18t-208.5 52q-98 -35 -215.5 -52.5t-253.5 -17.5h-119v61h119q108 0 203 11.5t178 34.5q-5 2 -13 6q-119 61 -181 141
q-72 90 -72 198q0 78 25.5 143t74.5 113t114.5 72.5t144.5 24.5zM645 1178l89 89l88 -89l-88 -88zM309 1178l89 89l88 -89l-88 -88zM476 1375l89 89l88 -89l-88 -88z" />
    <glyph glyph-name="uni06A4.fina.1" unicode="&#x6a4;" horiz-adv-x="2128" arabic-form="final" 
d="M1622 805q72 0 135 -27.5t111 -81.5q45 -49 69.5 -112.5t24.5 -131.5q0 -98 -57 -181.5t-165 -144.5q-8 -5 -17 -9.5t-18 -9.5q81 -22 170 -34t183 -12h85v-61h-85q-121 0 -232.5 18t-208.5 52q-98 -35 -215.5 -52.5t-253.5 -17.5h-711q-58 1 -110 20.5t-91 55.5
q-93 87 -93 239q0 32 5 69t12.5 74.5t16 73t16 63.5t13 46t6.5 20l59 -19l-5 -16q-5 -17 -12.5 -44t-16 -61t-15.5 -70t-12 -71.5t-5 -64.5q0 -70 21 -118t54.5 -78t74.5 -44t82 -14h711q108 0 203 11.5t178 34.5l-13 6q-119 61 -181 141q-72 90 -72 198q0 78 25.5 143
t74.5 113t114.5 72.5t144.5 24.5zM1617 136q25 10 48 20.5t45 22.5q94 54 142 123t48 150q0 54 -19 106t-55 93.5t-87.5 67t-116.5 25.5q-68 0 -122.5 -20.5t-93.5 -59t-60 -92.5t-21 -120q0 -54 20 -97.5t52 -79t70.5 -62t76.5 -45.5q17 -9 35 -16.5t38 -15.5zM1709 1179
l89 89l88 -89l-88 -88zM1373 1179l89 89l88 -89l-88 -88zM1540 1376l89 89l88 -89l-88 -88z" />
    <glyph glyph-name="uni06A8.fina" unicode="&#x6a8;" horiz-adv-x="1616" 
d="M781 -491q160 0 276 24t192 74.5t112.5 127.5t36.5 183v82h-289q-22 0 -48.5 3.5t-55.5 11.5t-58.5 20.5t-57.5 31.5q-25 16 -51 41.5t-47 61.5t-34.5 83.5t-13.5 109.5q0 110 30 196q28 81 80 137q48 51 112 78t137 27q167 0 256 -105q101 -119 101 -380v-255h172v-61
h-172v-82q0 -126 -45 -216t-135 -148q-84 -54 -206.5 -80t-291.5 -26h-108q-68 0 -130 15.5t-116.5 45t-100.5 72t-80 97.5q-49 78 -71 175q-20 82 -20 174q0 16 1 32q11 243 149 530l55 -27q-56 -117 -87.5 -217.5t-44.5 -184.5q-12 -70 -12 -130q0 -13 1.5 -54t13.5 -96.5
t30 -97.5t37 -71q60 -97 158 -149.5t217 -52.5h108zM1398 61v255q0 237 -87 341q-71 83 -209 83q-54 0 -107 -20t-95.5 -64.5t-68.5 -116.5t-26 -176q0 -167 119 -245q30 -20 60.5 -31.5t56 -17t44 -7t24.5 -1.5h289zM1194 1196l89 89l88 -89l-88 -88zM858 1196l89 89
l88 -89l-88 -88zM1025 1393l89 89l88 -89l-88 -88z" />
    <glyph glyph-name="uni06A9" unicode="&#x6a9;" horiz-adv-x="1997" arabic-form="isolated" 
d="M1577 673q124 -132 171 -257q26 -69 26 -130q0 -49 -17 -92q-29 -78 -106.5 -123.5t-193.5 -53.5q-42 -3 -94.5 -6.5t-111 -5.5t-119.5 -3.5t-119 -1.5h-30h-68h-93t-105 0.5t-104 0.5h-91h-64h-25q-58 0 -109.5 19.5t-91.5 56.5q-45 42 -69 102.5t-24 135.5q0 32 5 69
t12.5 75t16 73.5t16 63.5t13 46t6.5 20l59 -19l-5 -16q-5 -17 -12.5 -44t-16 -61t-15.5 -70.5t-12 -72t-5 -64.5q0 -70 21.5 -118.5t55 -78.5t75 -43t82.5 -13h589q32 0 82.5 0.5t115.5 2.5t125 5.5t106 7.5q97 8 160.5 43t86.5 95q13 32 13 70q0 50 -22 109
q-22 57 -61.5 116t-97.5 120q-106 112 -198.5 198.5t-161.5 145t-108.5 88.5t-40.5 31l5 53l931 410l24 -56l-882 -389q30 -23 77.5 -62.5t109.5 -94.5t135 -126t154 -156z" />
    <glyph glyph-name="uni06AA.init" unicode="&#x6aa;" horiz-adv-x="1702" 
d="M991 1182q-1 0 -37 -11.5t-95 -33t-133.5 -54t-152.5 -75.5q-66 -37 -135.5 -84.5t-127 -106t-97 -127t-46.5 -146.5h78.5t152 -0.5t250 -0.5h372.5q103 0 207 -46q45 -20 89.5 -48t84.5 -62q39 -34 71 -70t54.5 -72t34.5 -70t12 -63q0 -26 -9 -47t-27 -35
q-35 -29 -98 -29h-127l-1338 -2l1 62l1337 1h127q41 0 59 15q14 12 14 35q0 29 -19 67.5t-52.5 79.5t-79.5 81t-100.5 71.5t-116 51t-124.5 19.5h-349h-243t-156 0.5t-88.5 0.5h-39.5h-10l-30 31q0 171 141 324q54 60 129 116t170 108q80 44 156 77.5t136 55.5t98 33.5
t41 12.5z" />
    <glyph glyph-name="uni06AA.medi" unicode="&#x6aa;" horiz-adv-x="1953" 
d="M1975 61v-62h-58q-50 0 -89.5 7t-74.5 22t-67 38.5t-67 56.5v-11q0 -53 -35 -82q-37 -29 -99 -29h-126l-1382 -2v62l1382 1h126q42 0 60 15q13 12 13 35q0 33 -24.5 78.5t-68.5 93.5q-38 38 -82.5 74t-94.5 63.5t-105.5 44t-116.5 16.5h-349h-243t-156 0.5t-88.5 0.5
h-39.5h-10l-30 31q0 169 141 324q110 121 300 224q79 44 155 77.5t136 55.5t98 33.5t41 12.5l17 -59q-1 0 -37.5 -11.5t-95.5 -33t-133.5 -54t-152.5 -75.5q-66 -37 -135.5 -84.5t-127 -106t-97 -127t-46.5 -146.5h45h75t111 -0.5t154 -0.5h205h263q103 0 207 -46
q46 -20 90 -48t85 -62q37 -33 71 -71l6 -6t6 -7q64 -70 110 -116.5t87 -74.5t84.5 -39.5t104.5 -11.5h58z" />
    <glyph glyph-name="uni06AA.fina" unicode="&#x6aa;" horiz-adv-x="2511" 
d="M2536 61v-62h-58q-50 0 -89.5 7t-74.5 22t-67 38.5t-67 56.5v-11q0 -53 -35 -82q-37 -29 -99 -29h-126l-975 -2q-102 1 -175 3t-129.5 6t-102.5 10.5t-95 18.5q-47 11 -97.5 31t-93 56t-70 92.5t-27.5 140.5q0 48 10.5 100t23 96.5t23.5 74t12 32.5l57 -23l-10 -28
q-10 -28 -22.5 -69.5t-22.5 -90.5t-10 -92q0 -67 21 -112t55 -74.5t77.5 -46.5t88.5 -27q46 -11 90.5 -17.5t99.5 -10.5t126.5 -5.5t171.5 -2.5l974 1h126q42 0 60 15q13 12 13 35q0 33 -24.5 78.5t-68.5 93.5q-4 4 -5 6q-35 37 -79.5 71.5t-95 61.5t-106.5 43t-113 16h-349
h-243t-156 0.5t-88.5 0.5h-39.5h-10l-30 31q0 169 141 324q110 121 300 224q79 44 155 77.5t136 55.5t98 33.5t41 12.5l17 -59q-1 0 -37.5 -11.5t-95.5 -33t-133.5 -54t-152.5 -75.5q-66 -37 -135.5 -84.5t-127 -106t-97 -127t-46.5 -146.5h45h75t111 -0.5t154 -0.5h205h263
q103 0 207 -46q46 -20 90 -48t85 -62q37 -33 71 -71l6 -6t6 -7q64 -70 110 -116.5t87 -74.5t84.5 -39.5t104.5 -11.5h58z" />
    <glyph glyph-name="uni06AF" unicode="&#x6af;" horiz-adv-x="1997" arabic-form="isolated" 
d="M1577 673q124 -132 171 -257q26 -69 26 -130q0 -49 -17 -92q-29 -78 -106.5 -123.5t-193.5 -53.5q-42 -3 -94.5 -6.5t-111 -5.5t-119.5 -3.5t-119 -1.5h-30h-68h-93t-105 0.5t-104 0.5h-91h-64h-25q-58 0 -109.5 19.5t-91.5 56.5q-45 42 -69 102.5t-24 135.5q0 32 5 69
t12.5 75t16 73.5t16 63.5t13 46t6.5 20l59 -19l-5 -16q-5 -17 -12.5 -44t-16 -61t-15.5 -70.5t-12 -72t-5 -64.5q0 -70 21.5 -118.5t55 -78.5t75 -43t82.5 -13h589q32 0 82.5 0.5t115.5 2.5t125 5.5t106 7.5q97 8 160.5 43t86.5 95q13 32 13 70q0 50 -22 109
q-22 57 -61.5 116t-97.5 120q-106 112 -198.5 198.5t-161.5 145t-108.5 88.5t-40.5 31l5 53l931 410l24 -56l-882 -389q30 -23 77.5 -62.5t109.5 -94.5t135 -126t154 -156zM1017 1429l807 346l27 -58l-839 -358z" />
    <glyph glyph-name="uni06B5.init" unicode="&#x6b5;" horiz-adv-x="573" 
d="M399 332q0 -29 -2.5 -61t-11 -63.5t-24 -61.5t-41.5 -55q-49 -47 -130.5 -69t-204.5 -22v61q122 0 192.5 21.5t106 58.5t45 86t9.5 105v1096h61v-1096zM593 2022l-220 -408h-45l-219 408h77l164 -329l168 329h75z" />
    <glyph glyph-name="uni06B5.medi" unicode="&#x6b5;" horiz-adv-x="641" 
d="M401 323q1 -57 19 -105t49 -83t73.5 -54.5t92.5 -19.5h21v-61h-21q-63 0 -118 27t-96 74q-14 15 -25 32.5t-20 36.5q-9 -22 -22 -42t-32 -37q-49 -47 -130 -69t-205 -22v61q119 0 189 20.5t106 56t46.5 82.5t11.5 101v1107h61v-1105zM607 2013l-220 -408h-45l-219 408h77
l164 -329l168 329h75z" />
    <glyph glyph-name="uni06B5.fina" unicode="&#x6b5;" horiz-adv-x="1419" 
d="M1167 330q0 -59 17 -108.5t48 -85t74 -55t95 -19.5h32v-62h-32q-64 0 -119 24.5t-96 71.5q-10 11 -19 25v-201q0 -109 -24.5 -190t-74.5 -139q-29 -35 -69 -61t-88 -44q-103 -38 -249 -38h-72q-117 0 -213.5 52t-156.5 147q-42 66 -61 147q-16 67 -16 141q0 16 1 32
q8 205 123 445l56 -27q-104 -217 -117 -397q-2 -26 -2 -50q0 -149 68 -258q51 -81 134 -125.5t184 -44.5h72q255 0 360 121q83 96 83 289v1508h62v-1098zM1353 2013l-220 -408h-45l-219 408h77l164 -329l168 329h75z" />
    <glyph glyph-name="uni06BA" unicode="&#x6ba;" horiz-adv-x="1600" arabic-form="isolated" 
d="M909 -552h-236q-135 0 -246.5 59.5t-180.5 169.5q-49 78 -71 175q-20 82 -20 174q0 16 1 32q11 243 149 530l55 -27q-56 -117 -87.5 -217.5t-44.5 -184.5q-12 -70 -12 -130q0 -13 1.5 -54t13.5 -96.5t30 -97.5t37 -71q60 -97 158 -149t217 -52h236q254 0 360 122
q83 96 83 288v741h61v-741q0 -215 -98 -328q-61 -71 -157 -105q-105 -38 -249 -38z" />
    <glyph glyph-name="uni06BE" unicode="&#x6be;" horiz-adv-x="1651" arabic-form="isolated" 
d="M672 126q45 16 81 36q184 98 184 288q0 65 -23 118.5t-60.5 91.5t-84.5 59t-95 21q-80 0 -135.5 -25t-90 -65t-49.5 -88.5t-15 -96.5q0 -60 20.5 -108t58 -88.5t91 -75t118.5 -67.5zM886 978q79 -84 147.5 -157t125 -137t100.5 -120t75 -106q66 -104 74 -191q1 -13 1 -26
q0 -75 -39 -151q-29 -54 -83.5 -92t-126.5 -54q-20 -5 -45 -8t-54 -3q-51 0 -114 12.5t-137 47.5q-37 17 -72.5 33.5t-70.5 33.5q-47 -15 -108 -22q-44 -6 -94 -6q-19 0 -64 2t-122.5 17t-156.5 45l20 56q86 -28 151 -43t117 -20q29 -3 55 -3q21 0 51.5 3t71.5 13
q-34 19 -64 38.5t-56 40.5q-75 60 -110.5 128.5t-35.5 155.5q0 68 22 127.5t64 104.5q48 51 115 77.5t151 26.5q60 0 118 -25t104 -73q50 -50 76 -115t26 -138q0 -112 -55 -201q-55 -86 -161 -141q-17 -9 -36 -18q43 -20 90 -42q67 -31 123.5 -42.5t101.5 -11.5
q25 0 46.5 2.5t38.5 7.5q59 13 103 43t66 72q20 37 28 73q5 23 5 48q0 12 -2.5 36.5t-19 64t-44.5 85.5q-60 96 -172 219.5t-269 289.5z" />
    <glyph glyph-name="uni06C0" unicode="&#x6c0;" horiz-adv-x="1042" arabic-form="isolated" 
d="M523 0q-79 0 -148 25.5t-120.5 69.5t-81.5 102.5t-30 125.5q0 60 17 113.5t42.5 99t54.5 82.5t52 65q5 6 9 11.5t9 10.5q17 21 38 44.5t42 46t40 42t32 33.5q-42 46 -69.5 76t-28.5 31l45 41q1 0 24.5 -25.5t59.5 -65.5t80 -89t85 -96q46 -53 90 -107.5t75 -107.5
q32 -54 47 -102.5t15 -98.5q0 -68 -29.5 -128.5t-85.5 -106.5q-54 -45 -121.5 -68.5t-142.5 -23.5zM520 825q-13 -14 -31.5 -33t-38.5 -40.5t-40 -43.5t-36 -42q-4 -5 -8.5 -10.5t-9.5 -11.5q-23 -27 -49.5 -61t-49.5 -74.5t-38 -87t-15 -98.5q0 -54 25 -101.5t68.5 -83
t101.5 -56t124 -20.5q67 0 125 20.5t101 56.5t67.5 84t24.5 104q0 42 -13.5 83t-40 86t-66.5 95.5t-92 111.5q-26 30 -54 61.5t-55 60.5zM591 1703q19 0 40.5 -2.5t44.5 -8.5l-15 -60q-36 10 -70 10q-62 0 -102 -34q-26 -23 -41 -57t-16 -74q66 -11 104.5 -18t59.5 -12
q8 -2 18 -5t19 -8.5t15 -14.5t6 -23q0 -9 -0.5 -21.5t-3.5 -28t-9 -32t-17 -32.5q-51 -74 -183 -74h-109v61h109q100 0 133 48q11 17 14.5 35.5t3.5 32.5q-18 5 -68.5 14t-125.5 22l-24 3l-2 24q-1 13 -1 25q0 49 18 98t60 84q22 18 56.5 33t85.5 15z" />
    <glyph glyph-name="uni06C1" unicode="&#x6c1;" horiz-adv-x="1042" arabic-form="isolated" 
d="M523 0q-79 0 -148 25.5t-120.5 69.5t-81.5 102.5t-30 125.5q0 60 17 113.5t42.5 99t54.5 82.5t52 65q5 6 9 11.5t9 10.5q17 21 38 44.5t42 46t40 42t32 33.5q-42 46 -69.5 76t-28.5 31l45 41q1 0 24.5 -25.5t59.5 -65.5t80 -89t85 -96q46 -53 90 -107.5t75 -107.5
q32 -54 47 -102.5t15 -98.5q0 -68 -29.5 -128.5t-85.5 -106.5q-54 -45 -121.5 -68.5t-142.5 -23.5zM520 825q-13 -14 -31.5 -33t-38.5 -40.5t-40 -43.5t-36 -42q-4 -5 -8.5 -10.5t-9.5 -11.5q-23 -27 -49.5 -61t-49.5 -74.5t-38 -87t-15 -98.5q0 -54 25 -101.5t68.5 -83
t101.5 -56t124 -20.5q67 0 125 20.5t101 56.5t67.5 84t24.5 104q0 42 -13.5 83t-40 86t-66.5 95.5t-92 111.5q-26 30 -54 61.5t-55 60.5z" />
    <glyph glyph-name="uni06C2.fina" unicode="&#x6c2;" horiz-adv-x="1290" 
d="M708 1018q17 -70 31.5 -132.5t27.5 -118.5t25 -106.5t23.5 -98.5t23 -95t23.5 -95q22 -86 65.5 -145.5t97 -96.5t111.5 -53t111 -16h58v-61h-58q-72 0 -140.5 22t-125.5 64q-66 48 -111 116.5t-67 154.5q-13 48 -24.5 95t-23 95.5t-23.5 99t-25 106.5q-12 50 -25 105
t-27 118q-19 -4 -46.5 -9t-55.5 -11t-53.5 -11t-40.5 -9q-130 -30 -187 -130q-27 -48 -37 -108q-8 -46 -8 -96q0 -15 1.5 -56t13.5 -110.5t28.5 -136t35 -127t34.5 -108.5l-59 -18q-29 91 -58 193.5t-45 206.5q-13 83 -13 152q0 38 7 103t47 136q70 123 226 159
q20 5 57 12.5t74 14.5t65 12.5t31 5.5zM578 1293l-426 -133l5 66l215 67q-17 6 -34 15q-29 15 -48.5 33.5t-32.5 37t-20 34.5t-10 26q-8 27 -8 52q0 13 4 37.5t22.5 54.5t47 51.5t60.5 31.5q31 9 62 9q15 0 46.5 -4.5t81.5 -15.5l11 -3l-14 -60l-12 3q-45 11 -84 17
q-15 2 -29 2q-23 0 -44 -6q-22 -7 -41 -21.5t-31.5 -34.5t-16.5 -44q-1 -8 -1 -17q0 -17 5 -34q2 -7 7 -18.5t14.5 -25t23.5 -27t35 -24.5q45 -23 102 -23q43 0 94 13l86 26l18 -59z" />
    <glyph glyph-name="uni06C3.fina" unicode="&#x6c3;" horiz-adv-x="1290" 
d="M708 1018q17 -70 31.5 -132.5t27.5 -118.5t25 -106.5t23.5 -98.5t23 -95t23.5 -95q22 -86 65.5 -145.5t97 -96.5t111.5 -53t111 -16h58v-61h-58q-72 0 -140.5 22t-125.5 64q-66 48 -111 116.5t-67 154.5q-13 48 -24.5 95t-23 95.5t-23.5 99t-25 106.5q-12 50 -25 105
t-27 118q-19 -4 -46.5 -9t-55.5 -11t-53.5 -11t-40.5 -9q-130 -30 -187 -130q-27 -48 -37 -108q-8 -46 -8 -96q0 -15 1.5 -56t13.5 -110.5t28.5 -136t35 -127t34.5 -108.5l-59 -18q-29 91 -58 193.5t-45 206.5q-13 83 -13 152q0 38 7 103t47 136q70 123 226 159
q20 5 57 12.5t74 14.5t65 12.5t31 5.5zM560 1374l89 89l88 -89l-88 -88zM224 1374l89 89l88 -89l-88 -88z" />
    <glyph glyph-name="uni06C6.fina" unicode="&#x6c6;" horiz-adv-x="1044" arabic-form="final" 
d="M830 61v255q0 237 -87 341q-71 83 -209 83q-54 0 -107 -20t-95.5 -64.5t-68.5 -116.5t-26 -176q0 -167 119 -245q30 -20 60.5 -31.5t56 -17t44 -7t24.5 -1.5h289zM534 801q167 0 256 -105q101 -119 101 -380v-255h168v-61h-168v-82q0 -126 -45 -216t-135 -148
q-84 -54 -206.5 -79.5t-291.5 -25.5v61q160 0 276 24t192 74t112.5 127t36.5 183v82h-289q-22 0 -48.5 3.5t-55.5 11.5t-58.5 20.5t-57.5 31.5q-25 16 -51 41.5t-47 61.5t-34.5 83.5t-13.5 109.5q0 110 30 196q28 81 80 137q48 51 112 78t137 27zM777 1473l-220 -408h-45
l-219 408h77l164 -329l168 329h75z" />
    <glyph glyph-name="uni06CC" unicode="&#x6cc;" horiz-adv-x="1671" arabic-form="isolated" 
d="M1350 809q93 0 191 -27l-17 -59q-89 24 -173 24q-103 0 -194 -35t-161 -103q-44 -43 -74 -94t-46.5 -107t-17.5 -116v-15q0 -53 12 -106q28 -7 54.5 -13.5t52.5 -12.5q139 -34 232.5 -58t149.5 -48q22 -9 43.5 -21.5t37.5 -30.5t24 -41q4 -12 4 -26t-4 -30
q-2 -8 -3 -16.5t-3 -17.5q-7 -33 -14.5 -67.5t-19.5 -69t-29 -68t-43 -63.5q-117 -139 -391 -139h-246q-139 0 -253 61.5t-185 174.5q-24 37 -41.5 79t-29.5 89q-11 48 -16 100q-4 37 -4 76q0 16 1 32q8 239 145 523l55 -27q-62 -128 -96.5 -246.5t-41.5 -225.5
q-2 -31 -2 -60q0 -74 17 -153.5t65 -154.5q62 -99 162.5 -153t223.5 -54h246q91 0 157 15t111.5 40.5t74.5 60.5t47 74.5t28 82.5t18 85q2 9 3.5 17.5t3.5 16.5q2 10 1.5 19.5t-7 19t-21.5 20t-42 21.5q-54 23 -145 46.5t-228 56.5q-29 8 -62 16t-81 19q-20 78 -21 152v8
q0 70 17 136t52 126t86 110q53 52 117.5 87.5t138.5 53.5q67 16 141 16z" />
    <glyph glyph-name="uni06CE.init" unicode="&#x6ce;" horiz-adv-x="873" 
d="M639 764q10 -42 21.5 -93t21 -106t16.5 -110.5t9 -106.5v-12q0 -72 -24 -137.5t-72 -114.5q-40 -41 -88.5 -62.5t-101.5 -21.5h-436v61h436q40 0 77.5 17t68.5 49q39 40 60 97q18 52 18 111v12q-1 49 -7.5 102.5t-16.5 106.5t-21 102.5t-21 91.5zM482 -342l89 89l88 -89
l-88 -88zM146 -342l89 89l88 -89l-88 -88zM614 1437l-220 -408h-45l-219 408h77l164 -329l168 329h75z" />
    <glyph glyph-name="uni06CE.medi" unicode="&#x6ce;" horiz-adv-x="1049" 
d="M655 286q0 -62 22.5 -105t58.5 -69.5t80 -38.5t87 -12h161v-61h-161q-62 0 -116.5 18t-96.5 52q-40 33 -65 79q-16 -31 -38 -55q-89 -94 -276 -94h-326v61h326q87 0 142 20.5t86 52t42.5 70.5t11.5 77v365h62v-360zM561 -334l89 89l88 -89l-88 -88zM225 -334l89 89
l88 -89l-88 -88zM887 1269l-220 -408h-45l-219 408h77l164 -329l168 329h75z" />
    <glyph glyph-name="uni06CE.fina" unicode="&#x6ce;" horiz-adv-x="1779" 
d="M355 557q-62 -130 -97.5 -250.5t-43.5 -227.5q-2 -31 -2 -60q0 -75 16.5 -154.5t63.5 -154.5q60 -96 157.5 -148t217.5 -52h249q217 0 349 50q171 64 171 209q0 65 -27.5 105.5t-87.5 66.5q-29 12 -65 21.5t-83.5 16.5t-108 12.5t-136.5 8.5l1 61h865v-61h-455q4 -2 6 -2
q75 -32 114 -88q38 -56 38 -141q0 -99 -62 -170q-51 -59 -148 -97q-144 -53 -371 -53h-249q-136 0 -247 59.5t-180 168.5q-48 77 -70 173q-19 78 -19 166q0 19 1 39q9 240 148 529zM1187 822l-220 -408h-45l-219 408h77l164 -329l168 329h75z" />
    <glyph glyph-name="uni06D2" unicode="&#x6d2;" horiz-adv-x="1651" arabic-form="isolated" 
d="M891 0h-439q-57 0 -105.5 -19t-84 -52t-55.5 -78t-20 -98q0 -54 20 -99t55 -77.5t84 -50.5t106 -18h1180v-62h-1180q-69 0 -130 22.5t-106 66.5q-44 43 -67 99t-23 119t24 119t69 100q46 44 105.5 66.5t127.5 22.5h439v-61z" />
    <glyph glyph-name="uni06D3" unicode="&#x6d3;" horiz-adv-x="1651" arabic-form="isolated" 
d="M891 0h-439q-57 0 -105.5 -19t-84 -52t-55.5 -78t-20 -98q0 -54 20 -99t55 -77.5t84 -50.5t106 -18h1180v-62h-1180q-69 0 -130 22.5t-106 66.5q-44 43 -67 99t-23 119t24 119t69 100q46 44 105.5 66.5t127.5 22.5h439v-61zM611 469l-426 -133l5 66l215 67q-17 6 -34 15
q-29 15 -48.5 33.5t-32.5 37t-20 34.5t-10 26q-8 27 -8 52q0 13 4 37.5t22.5 54.5t47 51.5t60.5 31.5q31 9 62 9q15 0 46.5 -4.5t81.5 -15.5l11 -3l-14 -60l-12 3q-45 11 -84 17q-15 2 -29 2q-23 0 -44 -6q-22 -7 -41 -21.5t-31.5 -34.5t-16.5 -44q-1 -8 -1 -17q0 -17 5 -34
q2 -7 7 -18.5t14.5 -25t23.5 -27t35 -24.5q45 -23 102 -23q43 0 94 13l86 26l18 -59z" />
    <glyph glyph-name="uniFB51" unicode="&#x671;" horiz-adv-x="647" arabic-form="final" 
d="M308 1274h61v-942q0 -65 15.5 -115.5t49.5 -85t87.5 -52.5t128.5 -18h15v-61h-30q-84 0 -145 25.5t-103 65.5q-26 25 -42 55t-24 61.5t-10.5 63.5t-2.5 61v942zM577 1760q37 -57 37 -155q0 -31 -7.5 -54.5t-19 -41t-26 -29.5t-28.5 -19q-18 -10 -35.5 -15.5t-33 -8.5
t-27 -3.5t-16.5 -0.5h-417l23 61h109q9 15 19 32t21 36q1 2 3.5 6t9.5 15.5t21 34t38 61.5q20 30 42.5 56.5t48 46.5t53.5 31.5t59 11.5q41 0 73 -16.5t53 -48.5zM421 1494q8 0 29.5 2.5t44 13.5t40 33t17.5 62q0 59 -12.5 91t-29 47t-33.5 17.5t-26 2.5q-33 0 -63.5 -21.5
t-58 -55.5t-53 -75t-47.5 -80q-11 -21 -22 -37h214z" />
    <glyph glyph-name="uniFB57" unicode="&#x67e;" horiz-adv-x="2241" arabic-form="final" 
d="M2256 61v-61h-39q-62 0 -116.5 18t-96.5 52q-40 33 -65 79q-16 -31 -38 -55q-88 -93 -270 -94h-1214q-58 0 -109.5 19.5t-91.5 56.5q-93 87 -93 239q0 32 5 69t12.5 74.5t16 73t16 63.5t13 46t6.5 20l59 -19l-5 -16q-5 -17 -12.5 -44t-16 -61t-15.5 -70t-12 -71.5
t-5 -64.5q0 -70 21.5 -118.5t55 -78.5t75 -43.5t82.5 -13.5h1206q87 0 142 20.5t86 52t42.5 70.5t11.5 77v347h62v-342q0 -62 22.5 -105t58.5 -69.5t80 -38.5t87 -12h39zM1250 -256l88 -88l-88 -89l-89 89zM914 -256l88 -88l-88 -89l-89 89zM1081 -453l88 -88l-88 -89
l-89 89z" />
    <glyph glyph-name="uniFB58" unicode="&#x67e;" horiz-adv-x="873" arabic-form="initial" 
d="M639 764q10 -42 21.5 -93t21 -106t16.5 -110.5t9 -106.5v-12q0 -72 -24 -137.5t-72 -114.5q-40 -41 -88.5 -62.5t-101.5 -21.5h-436v61h436q40 0 77.5 17t68.5 49q39 40 60 97q18 52 18 111v12q-1 49 -7.5 102.5t-16.5 106.5t-21 102.5t-21 91.5zM595 -259l88 -88
l-88 -89l-89 89zM259 -259l88 -88l-88 -89l-89 89zM426 -456l88 -88l-88 -89l-89 89z" />
    <glyph glyph-name="uniFB59" unicode="&#x67e;" horiz-adv-x="1049" arabic-form="medial" 
d="M655 286q0 -62 22.5 -105t58.5 -69.5t80 -38.5t87 -12h161v-61h-161q-62 0 -116.5 18t-96.5 52q-40 33 -65 79q-16 -31 -38 -55q-89 -94 -276 -94h-326v61h326q87 0 142 20.5t86 52t42.5 70.5t11.5 77v365h62v-360zM654 -254l88 -88l-88 -89l-89 89zM318 -254l88 -88
l-88 -89l-89 89zM485 -451l88 -88l-88 -89l-89 89z" />
    <glyph glyph-name="uniFB67" unicode="&#x679;" horiz-adv-x="2241" arabic-form="final" 
d="M2256 61v-61h-39q-62 0 -116.5 18t-96.5 52q-40 33 -65 79q-16 -31 -38 -55q-88 -93 -270 -94h-1214q-58 0 -109.5 19.5t-91.5 56.5q-93 87 -93 239q0 32 5 69t12.5 74.5t16 73t16 63.5t13 46t6.5 20l59 -19l-5 -16q-5 -17 -12.5 -44t-16 -61t-15.5 -70t-12 -71.5
t-5 -64.5q0 -70 21.5 -118.5t55 -78.5t75 -43.5t82.5 -13.5h1206q87 0 142 20.5t86 52t42.5 70.5t11.5 77v347h62v-342q0 -62 22.5 -105t58.5 -69.5t80 -38.5t87 -12h39zM1380 1018q37 -57 37 -155q0 -31 -7.5 -54.5t-19 -41t-26 -29.5t-28.5 -19q-18 -10 -35.5 -15.5
t-33 -8.5t-27 -3.5t-16.5 -0.5h-390v61h105q9 15 19 32t21 36q2 5 5 9t5 9v495h62v-396q20 30 42.5 56.5t48 46.5t53.5 31.5t59 11.5q41 0 73 -16.5t53 -48.5zM1224 752q8 0 29.5 2.5t44 13.5t40 33t17.5 62q0 59 -12.5 91t-29 47t-33.5 17.5t-26 2.5q-33 0 -63.5 -21.5
t-58 -55.5t-53 -75t-47.5 -80q-11 -21 -22 -37h214z" />
    <glyph glyph-name="uniFB68" unicode="&#x679;" horiz-adv-x="873" arabic-form="initial" 
d="M639 764q10 -42 21.5 -93t21 -106t16.5 -110.5t9 -106.5v-12q0 -72 -24 -137.5t-72 -114.5q-40 -41 -88.5 -62.5t-101.5 -21.5h-436v61h436q40 0 77.5 17t68.5 49q39 40 60 97q18 52 18 111v12q-1 49 -7.5 102.5t-16.5 106.5t-21 102.5t-21 91.5zM731 1328
q37 -57 37 -155q0 -31 -7.5 -54.5t-19 -41t-26 -29.5t-28.5 -19q-18 -10 -35.5 -15.5t-33 -8.5t-27 -3.5t-16.5 -0.5h-390v61h105q9 15 19 32t21 36q2 5 5 9t5 9v495h62v-396q20 30 42.5 56.5t48 46.5t53.5 31.5t59 11.5q41 0 73 -16.5t53 -48.5zM575 1062q8 0 29.5 2.5
t44 13.5t40 33t17.5 62q0 59 -12.5 91t-29 47t-33.5 17.5t-26 2.5q-33 0 -63.5 -21.5t-58 -55.5t-53 -75t-47.5 -80q-11 -21 -22 -37h214z" />
    <glyph glyph-name="uniFB69" unicode="&#x679;" horiz-adv-x="1049" arabic-form="medial" 
d="M655 286q0 -62 22.5 -105t58.5 -69.5t80 -38.5t87 -12h161v-61h-161q-62 0 -116.5 18t-96.5 52q-40 33 -65 79q-16 -31 -38 -55q-89 -94 -276 -94h-326v61h326q87 0 142 20.5t86 52t42.5 70.5t11.5 77v365h62v-360zM696 1194q37 -57 37 -155q0 -31 -7.5 -54.5t-19 -41
t-26 -29.5t-28.5 -19q-18 -10 -35.5 -15.5t-33 -8.5t-27 -3.5t-16.5 -0.5h-390v61h105q9 15 19 32t21 36q2 5 5 9t5 9v495h62v-396q20 30 42.5 56.5t48 46.5t53.5 31.5t59 11.5q41 0 73 -16.5t53 -48.5zM540 928q8 0 29.5 2.5t44 13.5t40 33t17.5 62q0 59 -12.5 91t-29 47
t-33.5 17.5t-26 2.5q-33 0 -63.5 -21.5t-58 -55.5t-53 -75t-47.5 -80q-11 -21 -22 -37h214z" />
    <glyph glyph-name="uniFB6A" unicode="&#x6a4;" horiz-adv-x="2127" arabic-form="isolated" 
d="M1678 411q38 0 76.5 3t73 7.5t62 9t42.5 7.5q-1 118 -15 202.5t-37 143.5t-53 94.5t-63.5 54.5t-68 25.5t-66.5 6.5q-72 0 -124 -25.5t-86 -67.5t-50.5 -95t-16.5 -108q0 -258 326 -258zM1471 61q125 0 210 19t139 58q52 38 79 95.5t32 141.5q-19 -3 -47 -7.5t-61.5 -8.5
t-70.5 -6.5t-74 -2.5q-162 0 -260 62q-127 82 -127 257q0 71 21.5 134.5t63.5 111.5q46 55 110.5 83t142.5 28q180 0 272 -147q47 -76 70 -190.5t23 -273.5q0 -228 -138 -327q-63 -45 -156.5 -66.5t-228.5 -21.5h-1034q-58 1 -110 20.5t-91 55.5q-93 87 -93 239q0 32 5 69
t12.5 74.5t16 73t16 63.5t13 46t6.5 20l59 -19l-5 -16q-5 -17 -12.5 -44t-16 -61t-15.5 -70t-12 -71.5t-5 -64.5q0 -70 21 -118t54.5 -78t74.5 -44t82 -14h1034zM1711 1425l89 89l88 -89l-88 -88zM1375 1425l89 89l88 -89l-88 -88zM1542 1622l89 89l88 -89l-88 -88z" />
    <glyph glyph-name="uniFB6B" unicode="&#x6a4;" horiz-adv-x="2128" arabic-form="final" 
d="M1622 805q72 0 135 -27.5t111 -81.5q45 -49 69.5 -112.5t24.5 -131.5q0 -98 -57 -181.5t-165 -144.5q-8 -5 -17 -9.5t-18 -9.5q81 -22 170 -34t183 -12h85v-61h-85q-121 0 -232.5 18t-208.5 52q-98 -35 -215.5 -52.5t-253.5 -17.5h-711q-58 1 -110 20.5t-91 55.5
q-93 87 -93 239q0 32 5 69t12.5 74.5t16 73t16 63.5t13 46t6.5 20l59 -19l-5 -16q-5 -17 -12.5 -44t-16 -61t-15.5 -70t-12 -71.5t-5 -64.5q0 -70 21 -118t54.5 -78t74.5 -44t82 -14h711q108 0 203 11.5t178 34.5l-13 6q-119 61 -181 141q-72 90 -72 198q0 78 25.5 143
t74.5 113t114.5 72.5t144.5 24.5zM1617 136q25 10 48 20.5t45 22.5q94 54 142 123t48 150q0 54 -19 106t-55 93.5t-87.5 67t-116.5 25.5q-68 0 -122.5 -20.5t-93.5 -59t-60 -92.5t-21 -120q0 -54 20 -97.5t52 -79t70.5 -62t76.5 -45.5q17 -9 35 -16.5t38 -15.5zM1700 1152
l89 89l88 -89l-88 -88zM1364 1152l89 89l88 -89l-88 -88zM1531 1349l89 89l88 -89l-88 -88z" />
    <glyph glyph-name="uniFB6C" unicode="&#x6a4;" horiz-adv-x="1036" arabic-form="initial" 
d="M572 411q38 0 76.5 3t73 7.5t62 9t42.5 7.5q-1 118 -15 202.5t-37 143.5t-53 94.5t-63.5 54.5t-68 25.5t-66.5 6.5q-72 0 -124 -25.5t-86 -67.5t-50.5 -95t-16.5 -108q0 -258 326 -258zM523 1026q180 0 272 -147q47 -76 70 -190.5t23 -273.5q0 -228 -138 -327
q-63 -45 -156.5 -66.5t-228.5 -21.5h-380v61h380q125 0 210 19t139 58q52 38 79 95.5t32 141.5q-19 -3 -47 -7.5t-61.5 -8.5t-70.5 -6.5t-74 -2.5q-162 0 -260 62q-127 82 -127 257q0 71 21.5 134.5t63.5 111.5q46 55 110.5 83t142.5 28zM612 1330l89 89l88 -89l-88 -88z
M276 1330l89 89l88 -89l-88 -88zM443 1527l89 89l88 -89l-88 -88z" />
    <glyph glyph-name="uniFB6D" unicode="&#x6a4;" horiz-adv-x="1084" arabic-form="medial" 
d="M573 136q25 10 48 20.5t45 22.5q94 54 142 123t48 150q0 54 -19 106t-55 93.5t-87.5 67t-116.5 25.5q-68 0 -122.5 -20.5t-93.5 -59t-60 -92.5t-21 -120q0 -54 20 -97.5t52 -79t70.5 -62t76.5 -45.5q17 -9 35 -16.5t38 -15.5zM578 805q72 0 135 -27.5t111 -81.5
q45 -49 69.5 -112.5t24.5 -131.5q0 -98 -57 -181.5t-165 -144.5q-8 -5 -17 -9.5t-18 -9.5q81 -22 170 -34t183 -12h85v-61h-85q-121 0 -232.5 18t-208.5 52q-98 -35 -215.5 -52.5t-253.5 -17.5h-119v61h119q108 0 203 11.5t178 34.5q-5 2 -13 6q-119 61 -181 141
q-72 90 -72 198q0 78 25.5 143t74.5 113t114.5 72.5t144.5 24.5zM639 1160l89 89l88 -89l-88 -88zM303 1160l89 89l88 -89l-88 -88zM470 1357l89 89l88 -89l-88 -88z" />
    <glyph glyph-name="uniFB7B" unicode="&#x686;" horiz-adv-x="1575" arabic-form="final" 
d="M1596 0h-256q-62 0 -116.5 18t-96.5 52q-48 39 -72.5 94t-24.5 122v78l-343 -128q-6 -2 -12 -5t-13 -5q-103 -38 -195.5 -78t-161.5 -95q-73 -59 -105 -134q-29 -66 -29 -152q0 -13 1 -26q9 -211 214 -316q80 -42 184 -64.5t216 -22.5h438v-61h-438q-35 0 -84 3t-106 13
t-118.5 28.5t-119.5 48.5q-54 29 -97 64t-74 78q-71 98 -77 226l-1 25q0 107 39 189q20 42 48.5 79t70.5 70q37 30 80 54.5t90.5 46.5t99 42t104.5 40l25 9q195 74 335 126.5t214 78.5q-55 24 -124.5 54.5t-142.5 61.5t-146 61t-135 54t-109 40t-69 19q-14 2 -28 2
q-27 0 -58.5 -10t-63.5 -37t-56.5 -69t-38.5 -96l-59 15q17 66 48.5 118t75.5 86q42 32 90 46q31 8 64 8q17 0 35 -2q24 -4 70 -19t106 -38t129 -51t138 -57t133 -57t115 -50t83.5 -36.5t37.5 -16.5l-2 -57l-217 -80v-101q0 -62 22.5 -105t58.5 -69.5t80.5 -38.5t87.5 -12
h256v-61zM920 -53l88 -88l-88 -89l-89 89zM584 -53l88 -88l-88 -89l-89 89zM751 -250l88 -88l-88 -89l-89 89z" />
    <glyph glyph-name="uniFB7C" unicode="&#x686;" horiz-adv-x="1363" arabic-form="initial" 
d="M425 792q18 0 35 -3q24 -4 69.5 -18t103.5 -34.5t125 -45.5t134 -51t129 -51t111 -44.5t80.5 -32.5t36.5 -15l5 -54q-74 -49 -138 -92q-69 -46 -129 -85.5t-117 -72.5t-113.5 -60.5t-117.5 -49.5q-62 -22 -131 -37.5t-148.5 -25.5t-172 -15t-202.5 -5v61q146 0 259.5 8.5
t205 26.5t168 45.5t149.5 65t148.5 86.5t165.5 109q23 15 45.5 29.5t45.5 30.5q-60 24 -130 52.5t-143 57t-144 55t-131 48t-105.5 36t-67.5 17.5q-7 2 -13.5 2h-14.5q-37 0 -70.5 -14.5t-61.5 -42t-49.5 -67t-34.5 -88.5l-59 16q17 66 48 117.5t76 86.5q69 54 153 54z
M853 -269l88 -88l-88 -89l-89 89zM517 -269l88 -88l-88 -89l-89 89zM684 -466l88 -88l-88 -89l-89 89z" />
    <glyph glyph-name="uniFB7D" unicode="&#x686;" horiz-adv-x="1523" arabic-form="medial" 
d="M1538 0h-256q-62 0 -116.5 18t-96.5 52q-87 70 -96 187q-87 -56 -166.5 -99.5t-167.5 -74.5q-62 -22 -131 -37.5t-148.5 -25.5t-172 -15t-202.5 -5v61q146 0 259.5 8.5t205 26.5t168 45.5t149.5 65t148.5 86.5t165.5 109l91 60q-60 24 -130 52.5t-143 57t-144 55t-131 48
t-105.5 36t-67.5 17.5q-7 2 -13.5 2h-14.5q-37 0 -70.5 -14.5t-61.5 -42t-49.5 -67t-34.5 -88.5l-59 16q17 66 48 117.5t76 86.5q69 54 153 54q18 0 35 -3q24 -4 69.5 -18t103.5 -34.5t125 -45.5t134 -51t129 -51t111 -44.5t80.5 -32.5t36.5 -15l5 -54l-138 -92l-83 -55v-10
q0 -62 22.5 -104.5t58.5 -69t80.5 -38.5t87.5 -12h256v-62zM862 -270l88 -88l-88 -89l-89 89zM526 -270l88 -88l-88 -89l-89 89zM693 -467l88 -88l-88 -89l-89 89z" />
    <glyph glyph-name="uniFB89" unicode="&#x688;" horiz-adv-x="1254" arabic-form="final" 
d="M529 -15q-36 0 -73.5 2.5t-75.5 8.5q-75 12 -144 35t-137 63l32 53q54 -32 120 -54.5t135 -34t138 -12.5h11q62 0 116 10q75 14 125.5 46t70.5 80q13 30 13 64q0 13 -5 44.5t-37 82.5q-2 2 -2 3q-2 2 -2 3l-359 544l52 33q4 -7 11.5 -18t22 -33t38.5 -58.5t62 -94.5
t93 -141t131 -198q8 -11 15 -22.5t15 -22.5q39 -59 77.5 -114.5t78 -98.5t80.5 -68.5t86 -25.5h54v-61h-54q-44 0 -83.5 17t-76 47t-70.5 70t-67 87q-2 -17 -6 -32.5t-10 -30.5q-27 -63 -89 -104.5t-153 -58.5q-59 -10 -133 -10zM802 1586q37 -57 37 -155q0 -31 -7.5 -54.5
t-19 -41t-26 -29.5t-28.5 -19q-18 -10 -35.5 -15.5t-33 -8.5t-27 -3.5t-16.5 -0.5h-390v61h105q9 15 19 32t21 36q2 5 5 9t5 9v495h62v-396q20 30 42.5 56.5t48 46.5t53.5 31.5t59 11.5q41 0 73 -16.5t53 -48.5zM646 1320q8 0 29.5 2.5t44 13.5t40 33t17.5 62q0 59 -12.5 91
t-29 47t-33.5 17.5t-26 2.5q-33 0 -63.5 -21.5t-58 -55.5t-53 -75t-47.5 -80q-11 -21 -22 -37h214z" />
    <glyph glyph-name="uniFB8B" unicode="&#x698;" horiz-adv-x="955" arabic-form="final" 
d="M970 0h-46q-62 0 -116.5 18t-96.5 52q-19 14 -35 34v-129q0 -261 -123 -402q-136 -154 -413 -154h-140v62h140q239 0 356.5 122t117.5 372v649h62v-338q0 -62 22.5 -105t58.5 -69.5t80 -38.5t87 -12h46v-61zM702 1075l89 89l88 -89l-88 -88zM366 1075l89 89l88 -89
l-88 -88zM533 1272l89 89l88 -89l-88 -88z" />
    <glyph glyph-name="uniFB8D" unicode="&#x691;" horiz-adv-x="955" arabic-form="final" 
d="M970 0h-46q-62 0 -116.5 18t-96.5 52q-19 14 -35 34v-129q0 -261 -123 -402q-136 -154 -413 -154h-140v62h140q239 0 356.5 122t117.5 372v649h62v-338q0 -62 22.5 -105t58.5 -69.5t80 -38.5t87 -12h46v-61zM807 1225q37 -57 37 -155q0 -31 -7.5 -54.5t-19 -41t-26 -29.5
t-28.5 -19q-18 -10 -35.5 -15.5t-33 -8.5t-27 -3.5t-16.5 -0.5h-390v61h105q9 15 19 32t21 36q2 5 5 9t5 9v495h62v-396q20 30 42.5 56.5t48 46.5t53.5 31.5t59 11.5q41 0 73 -16.5t53 -48.5zM651 959q8 0 29.5 2.5t44 13.5t40 33t17.5 62q0 59 -12.5 91t-29 47t-33.5 17.5
t-26 2.5q-33 0 -63.5 -21.5t-58 -55.5t-53 -75t-47.5 -80q-11 -21 -22 -37h214z" />
    <glyph glyph-name="uniFB8F" unicode="&#x6a9;" horiz-adv-x="2186" arabic-form="final" 
d="M1215 61q140 0 239 42t137 117q21 41 21 90q0 104 -98 241q-26 35 -49 64t-45 59l-309 421l12 46l939 423l25 -56l-904 -408l93 -129q48 -66 94.5 -128t99.5 -133q20 -28 41 -54t43 -56q2 -3 4.5 -6.5t5.5 -6.5q29 -41 62 -83t71 -92q5 -7 9.5 -13t9.5 -12
q60 -81 109.5 -142.5t102.5 -102t117.5 -61t155.5 -20.5v-61q-97 0 -171.5 22.5t-138.5 71.5q-58 45 -109 107t-111 143q2 -18 2 -35q0 -28 -6.5 -58.5t-20.5 -58.5q-47 -95 -168 -145q-55 -23 -121.5 -35t-141.5 -12h-293h-88.5h-105t-107.5 0.5t-94.5 0.5h-67.5h-26
q-58 0 -109.5 19.5t-91.5 56.5q-45 42 -69 102.5t-24 135.5q0 32 5 69t12.5 75t16 73.5t16 63.5t13 46t6.5 20l59 -19l-5 -16q-5 -17 -12.5 -44t-16 -61t-15.5 -70.5t-12 -72t-5 -64.5q0 -70 21.5 -118.5t55 -78.5t75 -43t82.5 -13l487 -1h293z" />
    <glyph glyph-name="uniFB90" unicode="&#x6a9;" horiz-adv-x="1152" arabic-form="initial" 
d="M1107 1564l25 -56l-893 -393q30 -24 79.5 -64.5t113 -97.5t139 -129.5t157.5 -160.5q124 -131 168 -258q22 -63 22 -121q0 -57 -22 -109q-37 -84 -124 -129q-88 -46 -217 -46h-570v61h570q109 0 182.5 35.5t102.5 102.5q17 38 17 83q0 47 -19 102q-20 59 -58.5 118
t-95.5 119q-108 115 -202.5 203.5t-165.5 149t-112.5 92t-42.5 32.5l6 53z" />
    <glyph glyph-name="uniFB91" unicode="&#x6a9;" horiz-adv-x="1248" arabic-form="medial" 
d="M778 387q60 -81 109.5 -142.5t102.5 -102t117.5 -61t155.5 -20.5v-61q-97 0 -171.5 22.5t-138.5 71.5q-58 45 -109 107t-111 143q2 -18 2 -35q0 -28 -6.5 -58.5t-20.5 -58.5q-47 -95 -168 -145q-55 -23 -121.5 -35t-141.5 -12h-293v61h293q140 0 239 42t137 117
q21 41 21 90q0 104 -98 241q-26 35 -49 64t-45 59q-69 94 -126 171t-97.5 132.5t-63 86t-22.5 31.5l12 46l939 423l25 -56l-904 -408q25 -34 47.5 -65.5t45.5 -63.5q48 -66 94.5 -128t99.5 -133q20 -28 41 -54t43 -56q2 -3 4.5 -6.5t5.5 -6.5q29 -41 62 -83t71 -92
q5 -7 9.5 -13t9.5 -12z" />
    <glyph glyph-name="uniFB93" unicode="&#x6af;" horiz-adv-x="2186" arabic-form="final" 
d="M1215 61q140 0 239 42t137 117q21 41 21 90q0 104 -98 241q-26 35 -49 64t-45 59l-309 421l12 46l939 423l25 -56l-904 -408l93 -129q48 -66 94.5 -128t99.5 -133q20 -28 41 -54t43 -56q2 -3 4.5 -6.5t5.5 -6.5q29 -41 62 -83t71 -92q5 -7 9.5 -13t9.5 -12
q60 -81 109.5 -142.5t102.5 -102t117.5 -61t155.5 -20.5v-61q-97 0 -171.5 22.5t-138.5 71.5q-58 45 -109 107t-111 143q2 -18 2 -35q0 -28 -6.5 -58.5t-20.5 -58.5q-47 -95 -168 -145q-55 -23 -121.5 -35t-141.5 -12h-293h-88.5h-105t-107.5 0.5t-94.5 0.5h-67.5h-26
q-58 0 -109.5 19.5t-91.5 56.5q-45 42 -69 102.5t-24 135.5q0 32 5 69t12.5 75t16 73.5t16 63.5t13 46t6.5 20l59 -19l-5 -16q-5 -17 -12.5 -44t-16 -61t-15.5 -70.5t-12 -72t-5 -64.5q0 -70 21.5 -118.5t55 -78.5t75 -43t82.5 -13l487 -1h293zM1212 1422l775 338l26 -57
l-806 -350z" />
    <glyph glyph-name="uniFB94" unicode="&#x6af;" horiz-adv-x="1152" arabic-form="initial" 
d="M1107 1564l25 -56l-893 -393q30 -24 79.5 -64.5t113 -97.5t139 -129.5t157.5 -160.5q124 -131 168 -258q22 -63 22 -121q0 -57 -22 -109q-37 -84 -124 -129q-88 -46 -217 -46h-570v61h570q109 0 182.5 35.5t102.5 102.5q17 38 17 83q0 47 -19 102q-20 59 -58.5 118
t-95.5 119q-108 115 -202.5 203.5t-165.5 149t-112.5 92t-42.5 32.5l6 53zM191 1431l775 338l26 -57l-806 -350z" />
    <glyph glyph-name="uniFB95" unicode="&#x6af;" horiz-adv-x="1248" arabic-form="medial" 
d="M779 387q60 -81 109.5 -142.5t102.5 -102t117.5 -61t155.5 -20.5v-61q-97 0 -171.5 22.5t-138.5 71.5q-58 45 -109 107t-111 143q2 -18 2 -35q0 -28 -6.5 -58.5t-20.5 -58.5q-47 -95 -168 -145q-55 -23 -121.5 -35t-141.5 -12h-293v61h293q140 0 239 42t137 117
q21 41 21 90q0 104 -98 241q-26 35 -49 64t-45 59q-69 94 -126 171t-97.5 132.5t-63 86t-22.5 31.5l12 46l939 423l25 -56l-904 -408q25 -34 47.5 -65.5t45.5 -63.5q48 -66 94.5 -128t99.5 -133q20 -28 41 -54t43 -56q2 -3 4.5 -6.5t5.5 -6.5q29 -41 62 -83t71 -92
q5 -7 9.5 -13t9.5 -12zM241 1421l775 338l26 -57l-806 -350z" />
    <glyph glyph-name="uniFB9F" unicode="&#x6ba;" horiz-adv-x="1679" arabic-form="final" 
d="M911 -552h-236q-67 0 -129 15t-117 44.5t-101 72t-80 97.5q-49 78 -72 175q-19 79 -19 167q0 19 1 39q5 121 42 253.5t106 276.5l56 -27q-56 -117 -87.5 -217.5t-44.5 -184.5q-12 -70 -12 -130q0 -13 1.5 -54t13.5 -96.5t30 -97.5t37 -71q60 -97 158 -149t217 -52h236
q255 0 359 122q84 96 84 288v741h61v-344q0 -56 18 -103t51 -80.5t79 -52t101 -18.5h30v-62h-30q-65 0 -121.5 22.5t-98.5 64.5q-8 8 -15 16t-14 17v-201q0 -215 -98 -328q-61 -71 -157 -105q-105 -38 -249 -38z" />
    <glyph glyph-name="uniFBA5" unicode="&#x6c0;" horiz-adv-x="1250" arabic-form="final" 
d="M1265 0h-41q-26 0 -57.5 3t-66 11t-71 21.5t-71.5 35.5q-137 85 -184 257q-5 17 -9 33t-8 31q-23 -92 -75.5 -159.5t-133.5 -106.5q-31 -15 -69 -23q-30 -6 -63 -6h-17q-90 2 -165 40q-23 12 -48 30t-47.5 44t-40 61.5t-25.5 82.5q-5 29 -5 58q0 60 21 117q31 87 105 160
q73 72 182.5 127.5t249.5 90.5l-30 171l60 12q29 -124 50.5 -217t38.5 -166q12 -51 22 -96.5t20.5 -89t21.5 -87t24 -91.5q17 -64 46 -109.5t64.5 -77t75 -50.5t77 -29t71 -13.5t57.5 -3.5h41v-61zM649 850q-135 -32 -239 -84t-173 -120q-64 -63 -90 -134q-18 -47 -18 -96
q0 -25 5 -51q6 -37 20 -65t32 -49t38 -35.5t38 -23.5q34 -17 70 -25t71 -9h8q30 0 58.5 6t51.5 17q149 72 182 252q6 34 7 65q1 16 1 29q0 14 -1.5 31.5t-3.5 31.5l-2 14h2q-5 22 -10.5 44.5t-10.5 46.5q-8 35 -16.5 73t-19.5 82zM709 1757q19 0 40.5 -2.5t44.5 -8.5
l-15 -60q-36 10 -70 10q-62 0 -102 -34q-26 -23 -41 -57t-16 -74q66 -11 104.5 -18t59.5 -12q8 -2 18 -5t19 -8.5t15 -14.5t6 -23q0 -9 -0.5 -21.5t-3.5 -28t-9 -32t-17 -32.5q-51 -74 -183 -74h-109v61h109q100 0 133 48q11 17 14.5 35.5t3.5 32.5q-18 5 -68.5 14
t-125.5 22l-24 3l-2 24q-1 13 -1 25q0 49 18 98t60 84q22 18 56.5 33t85.5 15z" />
    <glyph glyph-name="uniFBA7" unicode="&#x6c1;" horiz-adv-x="1290" arabic-form="final" 
d="M708 1018q17 -70 31.5 -132.5t27.5 -118.5t25 -106.5t23.5 -98.5t23 -95t23.5 -95q22 -86 65.5 -145.5t97 -96.5t111.5 -53t111 -16h58v-61h-58q-72 0 -140.5 22t-125.5 64q-66 48 -111 116.5t-67 154.5q-13 48 -24.5 95t-23 95.5t-23.5 99t-25 106.5q-12 50 -25 105
t-27 118q-19 -4 -46.5 -9t-55.5 -11t-53.5 -11t-40.5 -9q-130 -30 -187 -130q-27 -48 -37 -108q-8 -46 -8 -96q0 -15 1.5 -56t13.5 -110.5t28.5 -136t35 -127t34.5 -108.5l-59 -18q-29 91 -58 193.5t-45 206.5q-13 83 -13 152q0 38 7 103t47 136q70 123 226 159
q20 5 57 12.5t74 14.5t65 12.5t31 5.5z" />
    <glyph glyph-name="uniFBA8" unicode="&#x6c1;" horiz-adv-x="704" arabic-form="initial" 
d="M480 764q10 -42 21.5 -93t21 -106t16.5 -110.5t9 -106.5v-12q0 -72 -24 -137.5t-72 -114.5q-40 -41 -88.5 -62.5t-101.5 -21.5h-277v61h277q40 0 77.5 17t68.5 49q39 40 60 97q18 52 18 111v12q-1 49 -7.5 102.5t-16.5 106.5t-21 102.5t-21 91.5zM431 -343q-1 0 -24 -9.5
t-53 -31.5q-39 -28 -56 -53t-27 -48q-6 -14 -6 -25q0 -10 7 -21.5t40 -11.5q35 0 59.5 -24.5t24.5 -59.5t-24.5 -59t-59.5 -24q-43 0 -69 20t-39 49.5t-14 64.5v15q0 25 5 48q16 65 49.5 108.5t68.5 69.5t62 37t30 12z" />
    <glyph glyph-name="uniFBA9" unicode="&#x6c1;" horiz-adv-x="1186" arabic-form="medial" 
d="M1202 0h-136q-54 0 -95 -14.5t-71.5 -37t-51 -50t-33.5 -54.5q-26 -53 -36 -116q-8 -43 -8 -87q0 -20 3.5 -62t23 -100.5t52.5 -102.5l-25 -49q-132 0 -239 63.5t-184 188.5q-56 90 -88.5 200.5t-37.5 220.5h-291v61h321l31 -31q0 -42 6 -93t20 -105.5t36 -111t55 -108.5
q21 -35 50.5 -70.5t68 -66t87 -53t107.5 -30.5q-27 52 -41.5 113.5t-15.5 125.5v17q0 54 11.5 112t38.5 111q46 93 124.5 141.5t181.5 48.5h136v-61z" />
    <glyph glyph-name="uniFBAB" unicode="&#x6be;" horiz-adv-x="1651" arabic-form="final" 
d="M921 978q79 -84 147.5 -157t125 -137t100.5 -120t75 -106q66 -104 74 -191q1 -13 1 -26q0 -75 -39 -151q-5 -8 -9.5 -15t-9.5 -14h290v-61h-353q-54 -39 -128 -56q-20 -5 -45 -8t-54 -3q-51 0 -114 12.5t-137 47.5q-37 17 -72.5 33.5t-70.5 33.5q-47 -15 -108 -22
q-44 -6 -94 -6q-19 0 -64 2t-122.5 17t-156.5 45l20 56q86 -28 151 -43t117 -20q29 -3 55 -3q21 0 51.5 3t71.5 13q-34 19 -64 38.5t-56 40.5q-75 60 -110.5 128.5t-35.5 155.5q0 68 22 127.5t64 104.5q48 51 115 77.5t151 26.5q60 0 118 -25t104 -73q50 -50 76 -115
t26 -138q0 -112 -55 -201q-55 -86 -161 -141l-36 -18l90 -42q67 -31 123.5 -42.5t101.5 -11.5q25 0 46.5 2.5t38.5 7.5q59 13 103 43t66 72q20 37 28 73q5 23 5 48q0 12 -2.5 36.5t-19 64t-44.5 85.5q-60 96 -172 219.5t-269 289.5zM707 126q45 16 81 36q184 98 184 288
q0 65 -23 118.5t-60.5 91.5t-84.5 59t-95 21q-80 0 -135.5 -25t-90 -65t-49.5 -88.5t-15 -96.5q0 -60 20.5 -108t58 -88.5t91 -75t118.5 -67.5z" />
    <glyph glyph-name="uniFBAC" unicode="&#x6be;" horiz-adv-x="1492" arabic-form="initial" 
d="M621 126q45 16 81 36q184 98 184 288q0 65 -23 118.5t-60.5 91.5t-84.5 59t-95 21q-80 0 -135.5 -25t-90 -65t-49.5 -88.5t-15 -96.5q0 -60 20.5 -108t58 -88.5t91 -75t118.5 -67.5zM835 978q79 -84 147.5 -157t125 -137t100.5 -120t75 -106q66 -104 74 -191q1 -13 1 -26
q0 -75 -39 -151q-29 -54 -83.5 -92t-126.5 -54q-20 -5 -45 -8t-54 -3q-51 0 -114 12.5t-137 47.5q-37 17 -72.5 33.5t-70.5 33.5q-186 -60 -474 -60h-157v61h157q231 0 395 41q-34 19 -64 38.5t-56 40.5q-75 60 -110.5 128.5t-35.5 155.5q0 68 22 127.5t64 104.5
q48 51 115 77.5t151 26.5q60 0 118 -25t104 -73q50 -50 76 -115t26 -138q0 -112 -55 -201q-55 -86 -161 -141q-17 -9 -36 -18q43 -20 90 -42q67 -31 123.5 -42.5t101.5 -11.5q25 0 46.5 2.5t38.5 7.5q59 13 103 43t66 72q20 37 28 73q5 23 5 48q0 12 -2.5 36.5t-19 64
t-44.5 85.5q-60 96 -172 219.5t-269 289.5z" />
    <glyph glyph-name="uniFBAD" unicode="&#x6be;" horiz-adv-x="1260" arabic-form="medial" 
d="M301 79q68 8 135.5 21.5t130.5 33.5q324 102 324 338q0 23 -4 49.5t-13.5 53t-24.5 51.5t-36 45q-63 60 -168 60q-5 0 -10.5 -0.5t-10.5 -0.5q-111 -6 -186 -90q-36 -41 -63.5 -98.5t-45 -129.5t-24.5 -156q-5 -56 -5 -116q0 -30 1 -61zM645 792q129 0 210 -76
q27 -26 45.5 -57t30 -63.5t16.5 -64.5t5 -59q0 -152 -109 -256q-91 -88 -257 -141q-67 -21 -138 -35t-143 -22q6 -49 24 -99t45.5 -97.5t64 -91t79.5 -79.5q27 -23 62.5 -46t79 -41.5t94.5 -30t110 -11.5h13q-74 95 -98 184q-13 45 -13 86q0 55 22 103q17 39 47.5 70.5
t72.5 53.5q39 21 84.5 31.5t93.5 10.5h189v-61h-189q-42 0 -80 -9t-69.5 -26t-55.5 -41t-37 -54q-17 -37 -17 -79q0 -39 22.5 -106.5t112.5 -167.5l-20 -51q-20 -2 -39 -3.5t-38 -1.5q-94 0 -179 28q-113 37 -208 115q-51 43 -93.5 95t-74.5 112q-26 50 -43 100t-23 100
q-71 -6 -136.5 -8.5t-122.5 -2.5v61q56 0 120.5 2.5t133.5 9.5q-1 27 -1 54q0 62 5.5 133.5t21.5 145.5q39 177 127 275q93 104 228 110q7 1 13 1h12z" />
    <glyph glyph-name="uniFBAF" unicode="&#x6d2;" horiz-adv-x="1314" arabic-form="final" 
d="M1329 0h-877q-57 0 -105.5 -19t-84 -52t-55.5 -78t-20 -98q0 -54 20 -99t55 -77.5t84 -50.5t106 -18h837v-62h-837q-69 0 -130 23t-106 67q-44 43 -67 98.5t-23 118.5t24 119t69 100q46 44 105.5 66.5t127.5 22.5h877v-61z" />
    <glyph glyph-name="uniFBB1" unicode="&#x6d3;" horiz-adv-x="1314" arabic-form="final" 
d="M1329 0h-877q-57 0 -105.5 -19t-84 -52t-55.5 -78t-20 -98q0 -54 20 -99t55 -77.5t84 -50.5t106 -18h837v-62h-837q-69 0 -130 23t-106 67q-44 43 -67 98.5t-23 118.5t24 119t69 100q46 44 105.5 66.5t127.5 22.5h877v-61zM613 441l-426 -133l5 66l215 67q-17 6 -34 15
q-29 15 -48.5 33.5t-32.5 37t-20 34.5t-10 26q-8 27 -8 52q0 13 4 37.5t22.5 54.5t47 51.5t60.5 31.5q31 9 62 9q15 0 46.5 -4.5t81.5 -15.5l11 -3l-14 -60l-12 3q-45 11 -84 17q-15 2 -29 2q-23 0 -44 -6q-22 -7 -41 -21.5t-31.5 -34.5t-16.5 -44q-1 -8 -1 -17q0 -17 5 -34
q2 -7 7 -18.5t14.5 -25t23.5 -27t35 -24.5q45 -23 102 -23q43 0 94 13l86 26l18 -59z" />
    <glyph glyph-name="uniFBE8" unicode="&#x649;" horiz-adv-x="669" arabic-form="initial" 
d="M480 764q10 -42 21.5 -93t21 -106t16.5 -110.5t9 -106.5v-12q0 -72 -24 -137.5t-72 -114.5q-40 -41 -88.5 -62.5t-101.5 -21.5h-277v61h277q40 0 77.5 17t68.5 49q39 40 60 97q18 52 18 111v12q-1 49 -7.5 102.5t-16.5 106.5t-21 102.5t-21 91.5z" />
    <glyph glyph-name="uniFBE9" unicode="&#x649;" horiz-adv-x="782" arabic-form="medial" 
d="M504 286q0 -62 22.5 -105t58.5 -69.5t80 -38.5t87 -12h45v-61h-45q-62 0 -116.5 18t-96.5 52q-40 33 -65 79q-16 -31 -38 -55q-89 -94 -276 -94h-175v61h175q87 0 142 20.5t86 52t42.5 70.5t11.5 77v365h62v-360z" />
    <glyph glyph-name="uniFBFD" unicode="&#x6cc;" horiz-adv-x="1779" arabic-form="final" 
d="M355 557q-62 -130 -97.5 -250.5t-43.5 -227.5q-2 -31 -2 -60q0 -75 16.5 -154.5t63.5 -154.5q60 -96 157.5 -148t217.5 -52h249q217 0 349 50q171 64 171 209q0 65 -27.5 105.5t-87.5 66.5q-29 12 -65 21.5t-83.5 16.5t-108 12.5t-136.5 8.5l1 61h865v-61h-455q4 -2 6 -2
q75 -32 114 -88q38 -56 38 -141q0 -99 -62 -170q-51 -59 -148 -97q-144 -53 -371 -53h-249q-136 0 -247 59.5t-180 168.5q-48 77 -70 173q-19 78 -19 166q0 19 1 39q9 240 148 529z" />
    <glyph glyph-name="uniFBFE" unicode="&#x6cc;" horiz-adv-x="873" arabic-form="initial" 
d="M639 764q10 -42 21.5 -93t21 -106t16.5 -110.5t9 -106.5v-12q0 -72 -24 -137.5t-72 -114.5q-40 -41 -88.5 -62.5t-101.5 -21.5h-436v61h436q40 0 77.5 17t68.5 49q39 40 60 97q18 52 18 111v12q-1 49 -7.5 102.5t-16.5 106.5t-21 102.5t-21 91.5zM480 -389l89 89l88 -89
l-88 -88zM144 -389l89 89l88 -89l-88 -88z" />
    <glyph glyph-name="uniFBFF" unicode="&#x6cc;" horiz-adv-x="1049" arabic-form="medial" 
d="M655 286q0 -62 22.5 -105t58.5 -69.5t80 -38.5t87 -12h161v-61h-161q-62 0 -116.5 18t-96.5 52q-40 33 -65 79q-16 -31 -38 -55q-89 -94 -276 -94h-326v61h326q87 0 142 20.5t86 52t42.5 70.5t11.5 77v365h62v-360zM527 -395l89 89l88 -89l-88 -88zM191 -395l89 89
l88 -89l-88 -88z" />
    <glyph glyph-name="uniFC5E" unicode="&#xfc5e;" arabic-form="isolated" 
d="M262 2023q1 -5 7 -27.5t12 -51.5t10 -59q2 -18 2 -32q0 -12 -1 -21q-6 -52 -41 -90q-43 -46 -109 -46q-54 0 -88.5 17t-54.5 43q-23 -29 -59.5 -44.5t-86.5 -15.5q-33 0 -61.5 11.5t-48.5 32t-31.5 49t-11.5 62.5v110h61v-110q0 -42 25 -67.5t67 -25.5q20 0 40.5 3.5
t37 14t27 28.5t10.5 47v110h62v-110q0 -16 4.5 -32.5t16.5 -30t34 -22t57 -8.5q28 0 45.5 11.5t27 26t13 28t3.5 16.5q1 7 1 15q0 9 -1.5 24.5t-6 39t-10 46.5t-10.5 40zM-222 2133l-29 52q1 1 12.5 13.5t21.5 32t13 44.5v8q0 21 -13 43q-21 36 -70 39q-8 1 -16 1
q-11 0 -23 -3t-13 -3l-17 59q2 1 22 5q13 3 31 3q8 0 18 -1q83 -5 121 -68q22 -37 22 -77q0 -32 -15 -66q49 16 85 31.5t62 30t43.5 27.5t30.5 25q-44 8 -86.5 28t-70.5 52q-26 32 -34 69q-3 14 -3 29q0 24 8 50q11 37 45.5 70.5t77.5 50.5q31 12 62 12q6 0 28 -2t54 -22
q63 -40 72 -120q1 -12 1 -23q0 -24 -5.5 -53t-18 -60.5t-28.5 -57t-31 -40.5q-2 -2 -4.5 -4t-4.5 -4q-15 -15 -37.5 -35t-61.5 -42.5t-99 -46.5t-150 -47zM62 2629q-18 0 -40 -8q-32 -13 -56 -37t-29 -44q-5 -17 -5 -33q0 -32 22 -58q13 -15 32.5 -27t41.5 -20t45 -12
q18 -3 34 -3h8q9 15 17.5 33.5t14.5 38.5t9 41q1 10 1 20t-1 19q-6 52 -44 75q-23 15 -50 15z" />
    <glyph glyph-name="uniFC5F" unicode="&#xfc5f;" arabic-form="isolated" 
d="M273 2085q1 -5 7 -27.5t12 -51.5t10 -59q2 -18 2 -32q0 -12 -1 -21q-6 -52 -41 -90q-43 -46 -109 -46q-54 0 -88.5 17t-54.5 43q-23 -29 -59.5 -44.5t-86.5 -15.5q-33 0 -61.5 11.5t-48.5 32t-31.5 49t-11.5 62.5v110h61v-110q0 -42 25 -67.5t67 -25.5q20 0 40.5 3.5
t37 14t27 28.5t10.5 47v110h62v-110q0 -16 4.5 -32.5t16.5 -30t34 -22t57 -8.5q28 0 45.5 11.5t27 26t13 28t3.5 16.5q1 7 1 15q0 9 -1.5 24.5t-6 39t-10 46.5t-10.5 40zM-221 1293l504 187v-65l-503 -187zM-221 1485l504 187v-65l-503 -187z" />
    <glyph glyph-name="uniFC60" unicode="&#xfc60;" arabic-form="isolated" 
d="M262 2023q1 -5 7 -27.5t12 -51.5t10 -59q2 -18 2 -32q0 -12 -1 -21q-6 -52 -41 -90q-43 -46 -109 -46q-54 0 -88.5 17t-54.5 43q-23 -29 -59.5 -44.5t-86.5 -15.5q-33 0 -61.5 11.5t-48.5 32t-31.5 49t-11.5 62.5v110h61v-110q0 -42 25 -67.5t67 -25.5q20 0 40.5 3.5
t37 14t27 28.5t10.5 47v110h62v-110q0 -16 4.5 -32.5t16.5 -30t34 -22t57 -8.5q28 0 45.5 11.5t27 26t13 28t3.5 16.5q1 7 1 15q0 9 -1.5 24.5t-6 39t-10 46.5t-10.5 40zM-274 2173l504 187v-65l-503 -187z" />
    <glyph glyph-name="uniFC61" unicode="&#xfc61;" arabic-form="isolated" 
d="M262 2023q1 -5 7 -27.5t12 -51.5t10 -59q2 -18 2 -32q0 -12 -1 -21q-6 -52 -41 -90q-43 -46 -109 -46q-54 0 -88.5 17t-54.5 43q-23 -29 -59.5 -44.5t-86.5 -15.5q-33 0 -61.5 11.5t-48.5 32t-31.5 49t-11.5 62.5v110h61v-110q0 -42 25 -67.5t67 -25.5q20 0 40.5 3.5
t37 14t27 28.5t10.5 47v110h62v-110q0 -16 4.5 -32.5t16.5 -30t34 -22t57 -8.5q28 0 45.5 11.5t27 26t13 28t3.5 16.5q1 7 1 15q0 9 -1.5 24.5t-6 39t-10 46.5t-10.5 40zM-268 2102l-16 59q71 19 121.5 37.5t85.5 36t57.5 33.5t37.5 30q-44 8 -86 28t-71 52q-36 44 -36 98
q0 24 7 50q11 37 45.5 70.5t77.5 50.5q31 12 62 12q6 0 28 -2t54 -22q63 -40 72 -120q1 -13 1 -25q0 -23 -5.5 -51.5t-18 -60t-28.5 -57t-31 -40.5l-8 -8q-15 -15 -38 -35t-62 -42.5t-99 -46.5t-150 -47zM17 2598q-19 0 -41 -8q-32 -13 -56 -37t-29 -44q-5 -17 -5 -33
q0 -32 22 -58q13 -15 32.5 -27t41.5 -20t45 -12q18 -3 34 -3h8q9 15 17.5 33.5t14.5 38.5t9 41q1 10 1 20t-1 19q-6 52 -44 75q-23 15 -49 15z" />
    <glyph glyph-name="uniFC62" unicode="&#xfc62;" arabic-form="isolated" 
d="M256 2046q1 -5 7 -27.5t12 -51.5t10 -59q2 -18 2 -32q0 -12 -1 -21q-6 -52 -41 -90q-43 -46 -109 -46q-54 0 -88.5 17t-54.5 43q-23 -29 -59.5 -44.5t-86.5 -15.5q-33 0 -61.5 11.5t-48.5 32t-31.5 49t-11.5 62.5v110h61v-110q0 -42 25 -67.5t67 -25.5q20 0 40.5 3.5
t37 14t27 28.5t10.5 47v110h62v-110q0 -16 4.5 -32.5t16.5 -30t34 -22t57 -8.5q28 0 45.5 11.5t27 26t13 28t3.5 16.5q1 7 1 15q0 9 -1.5 24.5t-6 39t-10 46.5t-10.5 40zM-243 1441l504 187v-65l-503 -187z" />
    <glyph glyph-name="uniFC63" unicode="&#xfc63;" arabic-form="isolated" 
d="M262 2023q1 -5 7 -27.5t12 -51.5t10 -59q2 -18 2 -32q0 -12 -1 -21q-6 -52 -41 -90q-43 -46 -109 -46q-54 0 -88.5 17t-54.5 43q-23 -29 -59.5 -44.5t-86.5 -15.5q-33 0 -61.5 11.5t-48.5 32t-31.5 49t-11.5 62.5v110h61v-110q0 -42 25 -67.5t67 -25.5q20 0 40.5 3.5
t37 14t27 28.5t10.5 47v110h62v-110q0 -16 4.5 -32.5t16.5 -30t34 -22t57 -8.5q28 0 45.5 11.5t27 26t13 28t3.5 16.5q1 7 1 15q0 9 -1.5 24.5t-6 39t-10 46.5t-10.5 40zM-31 2174v415h61v-415h-61z" />
    <glyph glyph-name="uniFE70" unicode="&#xfe70;" arabic-form="isolated" 
d="M-252 1661l504 187v-65l-503 -187zM-252 1853l504 187v-65l-503 -187z" />
    <glyph glyph-name="uniFE72" unicode="&#xfe72;" arabic-form="isolated" 
d="M-222 1594l-29 52q1 1 12.5 13.5t21.5 32t13 44.5v8q0 21 -13 43q-21 36 -70 39q-8 1 -16 1q-11 0 -23 -3t-13 -3l-17 59q2 1 22 5q13 3 31 3q8 0 18 -1q83 -5 121 -68q22 -37 22 -77q0 -32 -15 -66q49 16 85 31.5t62 30t43.5 27.5t30.5 25q-44 8 -86.5 28t-70.5 52
q-26 32 -34 69q-3 14 -3 29q0 24 8 50q11 37 45.5 70.5t77.5 50.5q31 12 62 12q6 0 28 -2t54 -22q63 -40 72 -120q1 -12 1 -23q0 -24 -5.5 -53t-18 -60.5t-28.5 -57t-31 -40.5q-2 -2 -4.5 -4t-4.5 -4q-15 -15 -37.5 -35t-61.5 -42.5t-99 -46.5t-150 -47zM62 2090
q-18 0 -40 -8q-32 -13 -56 -37t-29 -44q-5 -17 -5 -33q0 -32 22 -58q13 -15 32.5 -27t41.5 -20t45 -12q18 -3 34 -3h8q9 15 17.5 33.5t14.5 38.5t9 41q1 10 1 20t-1 19q-6 52 -44 75q-23 15 -50 15z" />
    <glyph glyph-name="uniFE74" unicode="&#xfe74;" arabic-form="isolated" 
d="M-252 -653l504 187v-65l-503 -187zM-252 -461l504 187v-65l-503 -187z" />
    <glyph glyph-name="uniFE76" unicode="&#xfe76;" arabic-form="isolated" 
d="M-252 1661l504 187v-65l-503 -187z" />
    <glyph glyph-name="uniFE78" unicode="&#xfe78;" arabic-form="isolated" 
d="M-268 1555l-16 59q71 19 121.5 37.5t85.5 36t57.5 33.5t37.5 30q-44 8 -86 28t-71 52q-36 44 -36 98q0 24 7 50q11 37 45.5 70.5t77.5 50.5q31 12 62 12q6 0 28 -2t54 -22q63 -40 72 -120q1 -13 1 -25q0 -23 -5.5 -51.5t-18 -60t-28.5 -57t-31 -40.5l-8 -8
q-15 -15 -38 -35t-62 -42.5t-99 -46.5t-150 -47zM17 2051q-19 0 -41 -8q-32 -13 -56 -37t-29 -44q-5 -17 -5 -33q0 -32 22 -58q13 -15 32.5 -27t41.5 -20t45 -12q18 -3 34 -3h8q9 15 17.5 33.5t14.5 38.5t9 41q1 10 1 20t-1 19q-6 52 -44 75q-23 15 -49 15z" />
    <glyph glyph-name="uniFE7A" unicode="&#xfe7a;" arabic-form="isolated" 
d="M-253 -462l504 187v-65l-503 -187z" />
    <glyph glyph-name="uniFE7C" unicode="&#xfe7c;" arabic-form="isolated" 
d="M262 2023q1 -5 7 -27.5t12 -51.5t10 -59q2 -18 2 -32q0 -12 -1 -21q-6 -52 -41 -90q-43 -46 -109 -46q-54 0 -88.5 17t-54.5 43q-23 -29 -59.5 -44.5t-86.5 -15.5q-33 0 -61.5 11.5t-48.5 32t-31.5 49t-11.5 62.5v110h61v-110q0 -42 25 -67.5t67 -25.5q20 0 40.5 3.5
t37 14t27 28.5t10.5 47v110h62v-110q0 -16 4.5 -32.5t16.5 -30t34 -22t57 -8.5q28 0 45.5 11.5t27 26t13 28t3.5 16.5q1 7 1 15q0 9 -1.5 24.5t-6 39t-10 46.5t-10.5 40z" />
    <glyph glyph-name="uniFE7E" unicode="&#xfe7e;" arabic-form="isolated" 
d="M-207 1884q0 41 16 78.5t44 66t65.5 44.5t78.5 16t78.5 -16t66 -44.5t44.5 -66t16 -78.5t-16 -78.5t-44.5 -65.5t-66 -44t-78.5 -16t-78.5 16t-65.5 44t-44 65.5t-16 78.5zM-145 1885q0 -30 11.5 -56t31 -45.5t45.5 -31t56 -11.5t56 11.5t45.5 31t31 45.5t11.5 56
t-11.5 56t-31 45.5t-45.5 31t-56 11.5t-56 -11.5t-45.5 -31t-31 -45.5t-11.5 -56z" />
    <glyph glyph-name="uniFE82" unicode="&#x622;" horiz-adv-x="763" arabic-form="final" 
d="M419 1274h61v-942q0 -65 15.5 -115.5t49.5 -85t87.5 -52.5t128.5 -18h15v-61h-30q-84 0 -145 25.5t-103 65.5q-26 25 -42 55t-24 61.5t-10.5 63.5t-2.5 61v942zM838 1491h-418q-74 0 -131.5 -6.5t-101.5 -28.5q-46 -23 -77 -65.5t-51 -110.5l-59 17q24 81 63 133t97 81
q52 26 115.5 33.5t144.5 7.5h418v-61z" />
    <glyph glyph-name="uniFE84" unicode="&#x623;" horiz-adv-x="650" arabic-form="final" 
d="M308 1274h61v-942q0 -65 15.5 -115.5t49.5 -85t87.5 -52.5t128.5 -18h15v-61h-30q-84 0 -145 25.5t-103 65.5q-26 25 -42 55t-24 61.5t-10.5 63.5t-2.5 61v942zM467 1510l-426 -133l5 66l215 67q-17 6 -34 15q-29 15 -48.5 33.5t-32.5 37t-20 34.5t-10 26q-8 27 -8 52
q0 13 4 37.5t22.5 54.5t47 51.5t60.5 31.5q31 9 62 9q15 0 46.5 -4.5t81.5 -15.5l11 -3l-14 -60l-12 3q-45 11 -84 17q-15 2 -29 2q-23 0 -44 -6q-22 -7 -41 -21.5t-31.5 -34.5t-16.5 -44q-1 -8 -1 -17q0 -17 5 -34q2 -7 7 -18.5t14.5 -25t23.5 -27t35 -24.5q45 -23 102 -23
q43 0 94 13l86 26l18 -59z" />
    <glyph glyph-name="uniFE86" unicode="&#x624;" horiz-adv-x="1044" arabic-form="final" 
d="M830 61v255q0 237 -87 341q-71 83 -209 83q-54 0 -107 -20t-95.5 -64.5t-68.5 -116.5t-26 -176q0 -167 119 -245q30 -20 60.5 -31.5t56 -17t44 -7t24.5 -1.5h289zM534 801q167 0 256 -105q101 -119 101 -380v-255h168v-61h-168v-82q0 -126 -45 -216t-135 -148
q-84 -54 -206.5 -79.5t-291.5 -25.5v61q160 0 276 24t192 74t112.5 127t36.5 183v82h-289q-22 0 -48.5 3.5t-55.5 11.5t-58.5 20.5t-57.5 31.5q-25 16 -51 41.5t-47 61.5t-34.5 83.5t-13.5 109.5q0 110 30 196q28 81 80 137q48 51 112 78t137 27zM610 1161l-426 -133l5 66
l215 67q-17 6 -34 15q-29 15 -48.5 33.5t-32.5 37t-20 34.5t-10 26q-8 27 -8 52q0 13 4 37.5t22.5 54.5t47 51.5t60.5 31.5q31 9 62 9q15 0 46.5 -4.5t81.5 -15.5l11 -3l-14 -60l-12 3q-45 11 -84 17q-15 2 -29 2q-23 0 -44 -6q-22 -7 -41 -21.5t-31.5 -34.5t-16.5 -44
q-1 -8 -1 -17q0 -17 5 -34q2 -7 7 -18.5t14.5 -25t23.5 -27t35 -24.5q45 -23 102 -23q43 0 94 13l86 26l18 -59z" />
    <glyph glyph-name="uniFE88" unicode="&#x625;" horiz-adv-x="542" arabic-form="final" 
d="M200 1428h61v-1096q0 -65 15.5 -115.5t49.5 -85t87.5 -52.5t128.5 -18h15v-61h-30q-84 0 -145 25.5t-103 65.5q-26 25 -42 55t-24 61.5t-10.5 63.5t-2.5 61v1096zM448 -527l-426 -133l5 66l215 67q-17 6 -34 15q-29 15 -48.5 33.5t-32.5 37t-20 34.5t-10 26q-8 27 -8 52
q0 13 4 37.5t22.5 54.5t47 51.5t60.5 31.5q31 9 62 9q15 0 46.5 -4.5t81.5 -15.5l11 -3l-14 -60l-12 3q-45 11 -84 17q-15 2 -29 2q-23 0 -44 -6q-22 -7 -41 -21.5t-31.5 -34.5t-16.5 -44q-1 -8 -1 -17q0 -17 5 -34q2 -7 7 -18.5t14.5 -25t23.5 -27t35 -24.5q45 -23 102 -23
q43 0 94 13l86 26l18 -59z" />
    <glyph glyph-name="uniFE8A" unicode="&#x626;" horiz-adv-x="1779" arabic-form="final" 
d="M355 557q-62 -130 -97.5 -250.5t-43.5 -227.5q-2 -31 -2 -60q0 -75 16.5 -154.5t63.5 -154.5q60 -96 157.5 -148t217.5 -52h249q217 0 349 50q171 64 171 209q0 65 -27.5 105.5t-87.5 66.5q-29 12 -65 21.5t-83.5 16.5t-108 12.5t-136.5 8.5l1 61h865v-61h-455q4 -2 6 -2
q75 -32 114 -88q38 -56 38 -141q0 -99 -62 -170q-51 -59 -148 -97q-144 -53 -371 -53h-249q-136 0 -247 59.5t-180 168.5q-48 77 -70 173q-19 78 -19 166q0 19 1 39q9 240 148 529zM1117 466l-426 -133l5 66l215 67q-17 6 -34 15q-29 15 -48.5 33.5t-32.5 37t-20 34.5
t-10 26q-8 27 -8 52q0 13 4 37.5t22.5 54.5t47 51.5t60.5 31.5q31 9 62 9q15 0 46.5 -4.5t81.5 -15.5l11 -3l-14 -60l-12 3q-45 11 -84 17q-15 2 -29 2q-23 0 -44 -6q-22 -7 -41 -21.5t-31.5 -34.5t-16.5 -44q-1 -8 -1 -17q0 -17 5 -34q2 -7 7 -18.5t14.5 -25t23.5 -27
t35 -24.5q45 -23 102 -23q43 0 94 13l86 26l18 -59z" />
    <glyph glyph-name="uniFE8B" unicode="&#x626;" horiz-adv-x="873" arabic-form="initial" 
d="M639 764q10 -42 21.5 -93t21 -106t16.5 -110.5t9 -106.5v-12q0 -72 -24 -137.5t-72 -114.5q-40 -41 -88.5 -62.5t-101.5 -21.5h-436v61h436q40 0 77.5 17t68.5 49q39 40 60 97q18 52 18 111v12q-1 49 -7.5 102.5t-16.5 106.5t-21 102.5t-21 91.5zM559 1008l-426 -133
l5 66l215 67q-17 6 -34 15q-29 15 -48.5 33.5t-32.5 37t-20 34.5t-10 26q-8 27 -8 52q0 13 4 37.5t22.5 54.5t47 51.5t60.5 31.5q31 9 62 9q15 0 46.5 -4.5t81.5 -15.5l11 -3l-14 -60l-12 3q-45 11 -84 17q-15 2 -29 2q-23 0 -44 -6q-22 -7 -41 -21.5t-31.5 -34.5t-16.5 -44
q-1 -8 -1 -17q0 -17 5 -34q2 -7 7 -18.5t14.5 -25t23.5 -27t35 -24.5q45 -23 102 -23q43 0 94 13l86 26l18 -59z" />
    <glyph glyph-name="uniFE8C" unicode="&#x626;" horiz-adv-x="1049" arabic-form="medial" 
d="M655 286q0 -62 22.5 -105t58.5 -69.5t80 -38.5t87 -12h161v-61h-161q-62 0 -116.5 18t-96.5 52q-40 33 -65 79q-16 -31 -38 -55q-89 -94 -276 -94h-326v61h326q87 0 142 20.5t86 52t42.5 70.5t11.5 77v365h62v-360zM622 951l-426 -133l5 66l215 67q-17 6 -34 15
q-29 15 -48.5 33.5t-32.5 37t-20 34.5t-10 26q-8 27 -8 52q0 13 4 37.5t22.5 54.5t47 51.5t60.5 31.5q31 9 62 9q15 0 46.5 -4.5t81.5 -15.5l11 -3l-14 -60l-12 3q-45 11 -84 17q-15 2 -29 2q-23 0 -44 -6q-22 -7 -41 -21.5t-31.5 -34.5t-16.5 -44q-1 -8 -1 -17q0 -17 5 -34
q2 -7 7 -18.5t14.5 -25t23.5 -27t35 -24.5q45 -23 102 -23q43 0 94 13l86 26l18 -59z" />
    <glyph glyph-name="uniFE8E" unicode="&#x627;" horiz-adv-x="542" arabic-form="final" 
d="M200 1428h61v-1096q0 -65 15.5 -115.5t49.5 -85t87.5 -52.5t128.5 -18h15v-61h-30q-84 0 -145 25.5t-103 65.5q-26 25 -42 55t-24 61.5t-10.5 63.5t-2.5 61v1096z" />
    <glyph glyph-name="uniFE90" unicode="&#x628;" horiz-adv-x="2241" arabic-form="final" 
d="M2256 61v-61h-39q-62 0 -116.5 18t-96.5 52q-40 33 -65 79q-16 -31 -38 -55q-88 -93 -270 -94h-1214q-58 0 -109.5 19.5t-91.5 56.5q-93 87 -93 239q0 32 5 69t12.5 74.5t16 73t16 63.5t13 46t6.5 20l59 -19l-5 -16q-5 -17 -12.5 -44t-16 -61t-15.5 -70t-12 -71.5
t-5 -64.5q0 -70 21.5 -118.5t55 -78.5t75 -43.5t82.5 -13.5h1206q87 0 142 20.5t86 52t42.5 70.5t11.5 77v347h62v-342q0 -62 22.5 -105t58.5 -69.5t80 -38.5t87 -12h39zM989 -364l89 89l88 -89l-88 -88z" />
    <glyph glyph-name="uniFE91" unicode="&#x628;" horiz-adv-x="669" arabic-form="initial" 
d="M480 764q10 -42 21.5 -93t21 -106t16.5 -110.5t9 -106.5v-12q0 -72 -24 -137.5t-72 -114.5q-40 -41 -88.5 -62.5t-101.5 -21.5h-277v61h277q40 0 77.5 17t68.5 49q39 40 60 97q18 52 18 111v12q-1 49 -7.5 102.5t-16.5 106.5t-21 102.5t-21 91.5zM252 -365l89 89l88 -89
l-88 -88z" />
    <glyph glyph-name="uniFE92" unicode="&#x628;" horiz-adv-x="782" arabic-form="medial" 
d="M506 286q0 -62 22.5 -105t58.5 -69.5t80 -38.5t87 -12h45v-61h-45q-62 0 -116.5 18t-96.5 52q-40 33 -65 79q-16 -31 -38 -55q-89 -94 -276 -94h-175v61h175q87 0 142 20.5t86 52t42.5 70.5t11.5 77v365h62v-360zM285 -376l89 89l88 -89l-88 -88z" />
    <glyph glyph-name="uniFE94" unicode="&#x629;" horiz-adv-x="1250" arabic-form="final" 
d="M1265 0h-41q-26 0 -57.5 3t-66 11t-71 21.5t-71.5 35.5q-137 85 -184 257q-5 17 -9 33t-8 31q-23 -92 -75.5 -159.5t-133.5 -106.5q-31 -15 -69 -23q-30 -6 -63 -6h-17q-90 2 -165 40q-23 12 -48 30t-47.5 44t-40 61.5t-25.5 82.5q-5 29 -5 58q0 60 21 117q31 87 105 160
q73 72 182.5 127.5t249.5 90.5l-30 171l60 12q29 -124 50.5 -217t38.5 -166q12 -51 22 -96.5t20.5 -89t21.5 -87t24 -91.5q17 -64 46 -109.5t64.5 -77t75 -50.5t77 -29t71 -13.5t57.5 -3.5h41v-61zM649 850q-135 -32 -239 -84t-173 -120q-64 -63 -90 -134q-18 -47 -18 -96
q0 -25 5 -51q6 -37 20 -65t32 -49t38 -35.5t38 -23.5q34 -17 70 -25t71 -9h8q30 0 58.5 6t51.5 17q149 72 182 252q6 34 7 65q1 16 1 29q0 14 -1.5 31.5t-3.5 31.5l-2 14h2q-5 22 -10.5 44.5t-10.5 46.5q-8 35 -16.5 73t-19.5 82zM732 1463l89 89l88 -89l-88 -88zM396 1463
l89 89l88 -89l-88 -88z" />
    <glyph glyph-name="uniFE96" unicode="&#x62a;" horiz-adv-x="2241" arabic-form="final" 
d="M2256 61v-61h-39q-62 0 -116.5 18t-96.5 52q-40 33 -65 79q-16 -31 -38 -55q-88 -93 -270 -94h-1214q-58 0 -109.5 19.5t-91.5 56.5q-93 87 -93 239q0 32 5 69t12.5 74.5t16 73t16 63.5t13 46t6.5 20l59 -19l-5 -16q-5 -17 -12.5 -44t-16 -61t-15.5 -70t-12 -71.5
t-5 -64.5q0 -70 21.5 -118.5t55 -78.5t75 -43.5t82.5 -13.5h1206q87 0 142 20.5t86 52t42.5 70.5t11.5 77v347h62v-342q0 -62 22.5 -105t58.5 -69.5t80 -38.5t87 -12h39zM1149 925l89 89l88 -89l-88 -88zM813 925l89 89l88 -89l-88 -88z" />
    <glyph glyph-name="uniFE97" unicode="&#x62a;" horiz-adv-x="873" arabic-form="initial" 
d="M639 764q10 -42 21.5 -93t21 -106t16.5 -110.5t9 -106.5v-12q0 -72 -24 -137.5t-72 -114.5q-40 -41 -88.5 -62.5t-101.5 -21.5h-436v61h436q40 0 77.5 17t68.5 49q39 40 60 97q18 52 18 111v12q-1 49 -7.5 102.5t-16.5 106.5t-21 102.5t-21 91.5zM509 1185l89 89l88 -89
l-88 -88zM173 1185l89 89l88 -89l-88 -88z" />
    <glyph glyph-name="uniFE98" unicode="&#x62a;" horiz-adv-x="1049" arabic-form="medial" 
d="M655 286q0 -62 22.5 -105t58.5 -69.5t80 -38.5t87 -12h161v-61h-161q-62 0 -116.5 18t-96.5 52q-40 33 -65 79q-16 -31 -38 -55q-89 -94 -276 -94h-326v61h326q87 0 142 20.5t86 52t42.5 70.5t11.5 77v365h62v-360zM613 1100l89 89l88 -89l-88 -88zM277 1100l89 89
l88 -89l-88 -88z" />
    <glyph glyph-name="uniFE9A" unicode="&#x62b;" horiz-adv-x="2241" arabic-form="final" 
d="M2256 61v-61h-39q-62 0 -116.5 18t-96.5 52q-40 33 -65 79q-16 -31 -38 -55q-88 -93 -270 -94h-1214q-58 0 -109.5 19.5t-91.5 56.5q-93 87 -93 239q0 32 5 69t12.5 74.5t16 73t16 63.5t13 46t6.5 20l59 -19l-5 -16q-5 -17 -12.5 -44t-16 -61t-15.5 -70t-12 -71.5
t-5 -64.5q0 -70 21.5 -118.5t55 -78.5t75 -43.5t82.5 -13.5h1206q87 0 142 20.5t86 52t42.5 70.5t11.5 77v347h62v-342q0 -62 22.5 -105t58.5 -69.5t80 -38.5t87 -12h39zM1166 880l89 89l88 -89l-88 -88zM830 880l89 89l88 -89l-88 -88zM997 1077l89 89l88 -89l-88 -88z" />
    <glyph glyph-name="uniFE9B" unicode="&#x62b;" horiz-adv-x="873" arabic-form="initial" 
d="M639 764q10 -42 21.5 -93t21 -106t16.5 -110.5t9 -106.5v-12q0 -72 -24 -137.5t-72 -114.5q-40 -41 -88.5 -62.5t-101.5 -21.5h-436v61h436q40 0 77.5 17t68.5 49q39 40 60 97q18 52 18 111v12q-1 49 -7.5 102.5t-16.5 106.5t-21 102.5t-21 91.5zM490 1156l89 89l88 -89
l-88 -88zM154 1156l89 89l88 -89l-88 -88zM321 1353l89 89l88 -89l-88 -88z" />
    <glyph glyph-name="uniFE9C" unicode="&#x62b;" horiz-adv-x="1049" arabic-form="medial" 
d="M655 286q0 -62 22.5 -105t58.5 -69.5t80 -38.5t87 -12h161v-61h-161q-62 0 -116.5 18t-96.5 52q-40 33 -65 79q-16 -31 -38 -55q-89 -94 -276 -94h-326v61h326q87 0 142 20.5t86 52t42.5 70.5t11.5 77v365h62v-360zM569 1077l89 89l88 -89l-88 -88zM233 1077l89 89
l88 -89l-88 -88zM400 1274l89 89l88 -89l-88 -88z" />
    <glyph glyph-name="uniFE9E" unicode="&#x62c;" horiz-adv-x="1575" arabic-form="final" 
d="M1596 0h-256q-62 0 -116.5 18t-96.5 52q-48 39 -72.5 94t-24.5 122v78l-343 -128q-6 -2 -12 -5t-13 -5q-103 -38 -195.5 -78t-161.5 -95q-73 -59 -105 -134q-29 -66 -29 -152q0 -13 1 -26q9 -211 214 -316q80 -42 184 -64.5t216 -22.5h438v-61h-438q-35 0 -84 3t-106 13
t-118.5 28.5t-119.5 48.5q-54 29 -97 64t-74 78q-71 98 -77 226l-1 25q0 107 39 189q20 42 48.5 79t70.5 70q37 30 80 54.5t90.5 46.5t99 42t104.5 40l25 9q195 74 335 126.5t214 78.5q-55 24 -124.5 54.5t-142.5 61.5t-146 61t-135 54t-109 40t-69 19q-14 2 -28 2
q-27 0 -58.5 -10t-63.5 -37t-56.5 -69t-38.5 -96l-59 15q17 66 48.5 118t75.5 86q42 32 90 46q31 8 64 8q17 0 35 -2q24 -4 70 -19t106 -38t129 -51t138 -57t133 -57t115 -50t83.5 -36.5t37.5 -16.5l-2 -57l-217 -80v-101q0 -62 22.5 -105t58.5 -69.5t80.5 -38.5t87.5 -12
h256v-61zM670 -200l89 89l88 -89l-88 -88z" />
    <glyph glyph-name="uniFE9F" unicode="&#x62c;" horiz-adv-x="1363" arabic-form="initial" 
d="M425 792q18 0 35 -3q24 -4 69.5 -18t103.5 -34.5t125 -45.5t134 -51t129 -51t111 -44.5t80.5 -32.5t36.5 -15l5 -54q-74 -49 -138 -92q-69 -46 -129 -85.5t-117 -72.5t-113.5 -60.5t-117.5 -49.5q-62 -22 -131 -37.5t-148.5 -25.5t-172 -15t-202.5 -5v61q146 0 259.5 8.5
t205 26.5t168 45.5t149.5 65t148.5 86.5t165.5 109q23 15 45.5 29.5t45.5 30.5q-60 24 -130 52.5t-143 57t-144 55t-131 48t-105.5 36t-67.5 17.5q-7 2 -13.5 2h-14.5q-37 0 -70.5 -14.5t-61.5 -42t-49.5 -67t-34.5 -88.5l-59 16q17 66 48 117.5t76 86.5q69 54 153 54z
M583 -360l89 89l88 -89l-88 -88z" />
    <glyph glyph-name="uniFEA0" unicode="&#x62c;" horiz-adv-x="1523" arabic-form="medial" 
d="M1538 0h-256q-62 0 -116.5 18t-96.5 52q-87 70 -96 187q-87 -56 -166.5 -99.5t-167.5 -74.5q-62 -22 -131 -37.5t-148.5 -25.5t-172 -15t-202.5 -5v61q146 0 259.5 8.5t205 26.5t168 45.5t149.5 65t148.5 86.5t165.5 109l91 60q-60 24 -130 52.5t-143 57t-144 55t-131 48
t-105.5 36t-67.5 17.5q-7 2 -13.5 2h-14.5q-37 0 -70.5 -14.5t-61.5 -42t-49.5 -67t-34.5 -88.5l-59 16q17 66 48 117.5t76 86.5q69 54 153 54q18 0 35 -3q24 -4 69.5 -18t103.5 -34.5t125 -45.5t134 -51t129 -51t111 -44.5t80.5 -32.5t36.5 -15l5 -54l-138 -92l-83 -55v-10
q0 -62 22.5 -104.5t58.5 -69t80.5 -38.5t87.5 -12h256v-62zM600 -360l89 89l88 -89l-88 -88z" />
    <glyph glyph-name="uniFEA2" unicode="&#x62d;" horiz-adv-x="1575" arabic-form="final" 
d="M1596 0h-256q-62 0 -116.5 18t-96.5 52q-48 39 -72.5 94t-24.5 122v78l-343 -128q-6 -2 -12 -5t-13 -5q-103 -38 -195.5 -78t-161.5 -95q-73 -59 -105 -134q-29 -66 -29 -152q0 -13 1 -26q9 -211 214 -316q80 -42 184 -64.5t216 -22.5h438v-61h-438q-35 0 -84 3t-106 13
t-118.5 28.5t-119.5 48.5q-54 29 -97 64t-74 78q-71 98 -77 226l-1 25q0 107 39 189q20 42 48.5 79t70.5 70q37 30 80 54.5t90.5 46.5t99 42t104.5 40l25 9q195 74 335 126.5t214 78.5q-55 24 -124.5 54.5t-142.5 61.5t-146 61t-135 54t-109 40t-69 19q-14 2 -28 2
q-27 0 -58.5 -10t-63.5 -37t-56.5 -69t-38.5 -96l-59 15q17 66 48.5 118t75.5 86q42 32 90 46q31 8 64 8q17 0 35 -2q24 -4 70 -19t106 -38t129 -51t138 -57t133 -57t115 -50t83.5 -36.5t37.5 -16.5l-2 -57l-217 -80v-101q0 -62 22.5 -105t58.5 -69.5t80.5 -38.5t87.5 -12
h256v-61z" />
    <glyph glyph-name="uniFEA3" unicode="&#x62d;" horiz-adv-x="1363" arabic-form="initial" 
d="M425 792q18 0 35 -3q24 -4 69.5 -18t103.5 -34.5t125 -45.5t134 -51t129 -51t111 -44.5t80.5 -32.5t36.5 -15l5 -54q-74 -49 -138 -92q-69 -46 -129 -85.5t-117 -72.5t-113.5 -60.5t-117.5 -49.5q-62 -22 -131 -37.5t-148.5 -25.5t-172 -15t-202.5 -5v61q146 0 259.5 8.5
t205 26.5t168 45.5t149.5 65t148.5 86.5t165.5 109q23 15 45.5 29.5t45.5 30.5q-60 24 -130 52.5t-143 57t-144 55t-131 48t-105.5 36t-67.5 17.5q-7 2 -13.5 2h-14.5q-37 0 -70.5 -14.5t-61.5 -42t-49.5 -67t-34.5 -88.5l-59 16q17 66 48 117.5t76 86.5q69 54 153 54z" />
    <glyph glyph-name="uniFEA4" unicode="&#x62d;" horiz-adv-x="1523" arabic-form="medial" 
d="M1538 0h-256q-62 0 -116.5 18t-96.5 52q-87 70 -96 187q-87 -56 -166.5 -99.5t-167.5 -74.5q-62 -22 -131 -37.5t-148.5 -25.5t-172 -15t-202.5 -5v61q146 0 259.5 8.5t205 26.5t168 45.5t149.5 65t148.5 86.5t165.5 109l91 60q-60 24 -130 52.5t-143 57t-144 55t-131 48
t-105.5 36t-67.5 17.5q-7 2 -13.5 2h-14.5q-37 0 -70.5 -14.5t-61.5 -42t-49.5 -67t-34.5 -88.5l-59 16q17 66 48 117.5t76 86.5q69 54 153 54q18 0 35 -3q24 -4 69.5 -18t103.5 -34.5t125 -45.5t134 -51t129 -51t111 -44.5t80.5 -32.5t36.5 -15l5 -54l-138 -92l-83 -55v-10
q0 -62 22.5 -104.5t58.5 -69t80.5 -38.5t87.5 -12h256v-62z" />
    <glyph glyph-name="uniFEA6" unicode="&#x62e;" horiz-adv-x="1575" arabic-form="final" 
d="M1596 0h-256q-62 0 -116.5 18t-96.5 52q-48 39 -72.5 94t-24.5 122v78l-343 -128q-6 -2 -12 -5t-13 -5q-103 -38 -195.5 -78t-161.5 -95q-73 -59 -105 -134q-29 -66 -29 -152q0 -13 1 -26q9 -211 214 -316q80 -42 184 -64.5t216 -22.5h438v-61h-438q-35 0 -84 3t-106 13
t-118.5 28.5t-119.5 48.5q-54 29 -97 64t-74 78q-71 98 -77 226l-1 25q0 107 39 189q20 42 48.5 79t70.5 70q37 30 80 54.5t90.5 46.5t99 42t104.5 40l25 9q195 74 335 126.5t214 78.5q-55 24 -124.5 54.5t-142.5 61.5t-146 61t-135 54t-109 40t-69 19q-14 2 -28 2
q-27 0 -58.5 -10t-63.5 -37t-56.5 -69t-38.5 -96l-59 15q17 66 48.5 118t75.5 86q42 32 90 46q31 8 64 8q17 0 35 -2q24 -4 70 -19t106 -38t129 -51t138 -57t133 -57t115 -50t83.5 -36.5t37.5 -16.5l-2 -57l-217 -80v-101q0 -62 22.5 -105t58.5 -69.5t80.5 -38.5t87.5 -12
h256v-61zM370 1214l89 89l88 -89l-88 -88z" />
    <glyph glyph-name="uniFEA7" unicode="&#x62e;" horiz-adv-x="1363" arabic-form="initial" 
d="M425 792q18 0 35 -3q24 -4 69.5 -18t103.5 -34.5t125 -45.5t134 -51t129 -51t111 -44.5t80.5 -32.5t36.5 -15l5 -54q-74 -49 -138 -92q-69 -46 -129 -85.5t-117 -72.5t-113.5 -60.5t-117.5 -49.5q-62 -22 -131 -37.5t-148.5 -25.5t-172 -15t-202.5 -5v61q146 0 259.5 8.5
t205 26.5t168 45.5t149.5 65t148.5 86.5t165.5 109q23 15 45.5 29.5t45.5 30.5q-60 24 -130 52.5t-143 57t-144 55t-131 48t-105.5 36t-67.5 17.5q-7 2 -13.5 2h-14.5q-37 0 -70.5 -14.5t-61.5 -42t-49.5 -67t-34.5 -88.5l-59 16q17 66 48 117.5t76 86.5q69 54 153 54z
M310 1152l89 89l88 -89l-88 -88z" />
    <glyph glyph-name="uniFEA8" unicode="&#x62e;" horiz-adv-x="1523" arabic-form="medial" 
d="M1538 0h-256q-62 0 -116.5 18t-96.5 52q-87 70 -96 187q-87 -56 -166.5 -99.5t-167.5 -74.5q-62 -22 -131 -37.5t-148.5 -25.5t-172 -15t-202.5 -5v61q146 0 259.5 8.5t205 26.5t168 45.5t149.5 65t148.5 86.5t165.5 109l91 60q-60 24 -130 52.5t-143 57t-144 55t-131 48
t-105.5 36t-67.5 17.5q-7 2 -13.5 2h-14.5q-37 0 -70.5 -14.5t-61.5 -42t-49.5 -67t-34.5 -88.5l-59 16q17 66 48 117.5t76 86.5q69 54 153 54q18 0 35 -3q24 -4 69.5 -18t103.5 -34.5t125 -45.5t134 -51t129 -51t111 -44.5t80.5 -32.5t36.5 -15l5 -54l-138 -92l-83 -55v-10
q0 -62 22.5 -104.5t58.5 -69t80.5 -38.5t87.5 -12h256v-62zM315 1143l89 89l88 -89l-88 -88z" />
    <glyph glyph-name="uniFEAA" unicode="&#x62f;" horiz-adv-x="1254" arabic-form="final" 
d="M529 -15q-36 0 -73.5 2.5t-75.5 8.5q-75 12 -144 35t-137 63l32 53q54 -32 120 -54.5t135 -34t138 -12.5h11q62 0 116 10q75 14 125.5 46t70.5 80q13 30 13 64q0 13 -5 44.5t-37 82.5q-2 2 -2 3q-2 2 -2 3l-359 544l52 33q4 -7 11.5 -18t22 -33t38.5 -58.5t62 -94.5
t93 -141t131 -198q8 -11 15 -22.5t15 -22.5q39 -59 77.5 -114.5t78 -98.5t80.5 -68.5t86 -25.5h54v-61h-54q-44 0 -83.5 17t-76 47t-70.5 70t-67 87q-2 -17 -6 -32.5t-10 -30.5q-27 -63 -89 -104.5t-153 -58.5q-59 -10 -133 -10z" />
    <glyph glyph-name="uniFEAC" unicode="&#x630;" horiz-adv-x="1254" arabic-form="final" 
d="M529 -15q-36 0 -73.5 2.5t-75.5 8.5q-75 12 -144 35t-137 63l32 53q54 -32 120 -54.5t135 -34t138 -12.5h11q62 0 116 10q75 14 125.5 46t70.5 80q13 30 13 64q0 13 -5 44.5t-37 82.5q-2 2 -2 3q-2 2 -2 3l-359 544l52 33q4 -7 11.5 -18t22 -33t38.5 -58.5t62 -94.5
t93 -141t131 -198q8 -11 15 -22.5t15 -22.5q39 -59 77.5 -114.5t78 -98.5t80.5 -68.5t86 -25.5h54v-61h-54q-44 0 -83.5 17t-76 47t-70.5 70t-67 87q-2 -17 -6 -32.5t-10 -30.5q-27 -63 -89 -104.5t-153 -58.5q-59 -10 -133 -10zM407 1294l89 89l88 -89l-88 -88z" />
    <glyph glyph-name="uniFEAE" unicode="&#x631;" horiz-adv-x="955" arabic-form="final" 
d="M970 0h-46q-62 0 -116.5 18t-96.5 52q-19 14 -35 34v-129q0 -261 -123 -402q-136 -154 -413 -154h-140v62h140q239 0 356.5 122t117.5 372v649h62v-338q0 -62 22.5 -105t58.5 -69.5t80 -38.5t87 -12h46v-61z" />
    <glyph glyph-name="uniFEB0" unicode="&#x632;" horiz-adv-x="955" arabic-form="final" 
d="M970 0h-46q-62 0 -116.5 18t-96.5 52q-19 14 -35 34v-129q0 -261 -123 -402q-136 -154 -413 -154h-140v62h140q239 0 356.5 122t117.5 372v649h62v-338q0 -62 22.5 -105t58.5 -69.5t80 -38.5t87 -12h46v-61zM545 1081l89 89l88 -89l-88 -88z" />
    <glyph glyph-name="uniFEB2" unicode="&#x633;" horiz-adv-x="2919" arabic-form="final" 
d="M2887 61h49v-61h-49q-167 0 -255 90q-32 32 -52 75q-20 -42 -50 -73t-66 -51.5t-76.5 -30.5t-80.5 -10q-167 0 -255 90q-32 32 -52 75q-20 -42 -50 -73t-66 -51.5t-76.5 -30.5t-80.5 -10q-159 0 -244 86q-24 24 -42 54v-222q0 -216 -99 -328q-58 -70 -157 -105
q-51 -20 -113.5 -29t-135.5 -9h-239q-136 0 -246.5 59t-179.5 168q-48 77 -70 173q-19 79 -19 166q0 20 1 39q11 243 149 530l55 -27q-63 -130 -98.5 -250.5t-43.5 -228.5q-2 -31 -2 -60q0 -75 16.5 -154.5t63.5 -154.5q60 -95 157 -147t217 -52h239q130 0 218 30t142 92
q83 96 83 288v726h62v-220q0 -209 86 -295q67 -67 200 -67q45 0 89 15t78.5 46t55.5 78.5t21 113.5v329h61v-329q0 -44 11 -88.5t41.5 -81.5t84 -60t138.5 -23q45 0 89 15t78.5 46t55.5 78.5t21 113.5v329h61v-329q0 -44 11 -89t41.5 -81.5t84 -60t138.5 -23.5z" />
    <glyph glyph-name="uniFEB3" unicode="&#x633;" horiz-adv-x="1778" arabic-form="initial" 
d="M743 61q44 0 89 14.5t81.5 44t60.5 75t26 107.5v342h61v-329q0 -44 11 -89t41.5 -81.5t84 -60t138.5 -23.5q41 1 82.5 15t74.5 44t54 78.5t21 117.5q0 37 -6 82.5t-15.5 93t-20 92.5t-20 80.5t-16 57t-6.5 22.5l58 18q1 -3 8 -26.5t16.5 -60t21 -82.5t21 -94.5t15.5 -96
t6 -86.5q0 -152 -95 -239q-39 -36 -90.5 -56t-108.5 -21q-167 0 -255 90q-32 32 -52 75q-20 -42 -52 -73t-71 -51.5t-81.5 -30.5t-82.5 -10q-41 0 -82.5 10t-79 30t-69 51t-51.5 73q-10 -21 -22.5 -40t-28.5 -35q-88 -89 -255 -89h-174v61h174q85 0 138.5 23t84 60
t41.5 81.5t11 88.5v329h61v-329q0 -66 22.5 -113.5t58.5 -78.5t81 -46t90 -15h1z" />
    <glyph glyph-name="uniFEB4" unicode="&#x633;" horiz-adv-x="1776" arabic-form="medial" 
d="M1744 61h47v-61h-47q-167 0 -255 90q-32 32 -52 75q-20 -42 -50 -73t-66.5 -51.5t-77 -30.5t-80.5 -10q-145 7 -226 90q-32 32 -52 75q-20 -42 -50 -73t-66 -51.5t-76.5 -30.5t-80.5 -10q-41 0 -81 10t-76 30.5t-66.5 51.5t-50.5 73q-10 -21 -22.5 -40t-28.5 -35
q-89 -90 -255 -90h-47v61h47v1q85 0 138.5 23t84 60t41.5 81.5t11 88.5v329h61v-329q0 -66 21 -113.5t55.5 -78.5t78.5 -46t89 -15t89 15t78.5 46t55.5 78.5t21 113.5v329h61v-329q0 -42 10 -85t37 -79t75 -60.5t124 -28.5q44 0 87 14t77.5 43.5t56.5 75t24 107.5v342h61
v-329q0 -44 11 -88.5t41.5 -81.5t84 -60t138.5 -23v-1z" />
    <glyph glyph-name="uniFEB6" unicode="&#x634;" horiz-adv-x="2919" arabic-form="final" 
d="M2887 61h49v-61h-49q-167 0 -255 90q-32 32 -52 75q-20 -42 -50 -73t-66 -51.5t-76.5 -30.5t-80.5 -10q-167 0 -255 90q-32 32 -52 75q-20 -42 -50 -73t-66 -51.5t-76.5 -30.5t-80.5 -10q-159 0 -244 86q-24 24 -42 54v-222q0 -216 -99 -328q-58 -70 -157 -105
q-51 -20 -113.5 -29t-135.5 -9h-239q-136 0 -246.5 59t-179.5 168q-48 77 -70 173q-19 79 -19 166q0 20 1 39q11 243 149 530l55 -27q-63 -130 -98.5 -250.5t-43.5 -228.5q-2 -31 -2 -60q0 -75 16.5 -154.5t63.5 -154.5q60 -95 157 -147t217 -52h239q130 0 218 30t142 92
q83 96 83 288v726h62v-220q0 -209 86 -295q67 -67 200 -67q45 0 89 15t78.5 46t55.5 78.5t21 113.5v329h61v-329q0 -44 11 -88.5t41.5 -81.5t84 -60t138.5 -23q45 0 89 15t78.5 46t55.5 78.5t21 113.5v329h61v-329q0 -44 11 -89t41.5 -81.5t84 -60t138.5 -23.5zM2079 1075
l89 89l88 -89l-88 -88zM1743 1075l89 89l88 -89l-88 -88zM1910 1272l89 89l88 -89l-88 -88z" />
    <glyph glyph-name="uniFEB7" unicode="&#x634;" horiz-adv-x="1778" arabic-form="initial" 
d="M743 61q44 0 89 14.5t81.5 44t60.5 75t26 107.5v342h61v-329q0 -44 11 -89t41.5 -81.5t84 -60t138.5 -23.5q41 1 82.5 15t74.5 44t54 78.5t21 117.5q0 37 -6 82.5t-15.5 93t-20 92.5t-20 80.5t-16 57t-6.5 22.5l58 18q1 -3 8 -26.5t16.5 -60t21 -82.5t21 -94.5t15.5 -96
t6 -86.5q0 -152 -95 -239q-39 -36 -90.5 -56t-108.5 -21q-167 0 -255 90q-32 32 -52 75q-20 -42 -52 -73t-71 -51.5t-81.5 -30.5t-82.5 -10q-41 0 -82.5 10t-79 30t-69 51t-51.5 73q-10 -21 -22.5 -40t-28.5 -35q-88 -89 -255 -89h-174v61h174q85 0 138.5 23t84 60
t41.5 81.5t11 88.5v329h61v-329q0 -66 22.5 -113.5t58.5 -78.5t81 -46t90 -15h1zM1102 1111l89 89l88 -89l-88 -88zM766 1111l89 89l88 -89l-88 -88zM933 1308l89 89l88 -89l-88 -88z" />
    <glyph glyph-name="uniFEB8" unicode="&#x634;" horiz-adv-x="1776" arabic-form="medial" 
d="M1744 61h47v-61h-47q-167 0 -255 90q-32 32 -52 75q-20 -42 -50 -73t-66.5 -51.5t-77 -30.5t-80.5 -10q-145 7 -226 90q-32 32 -52 75q-20 -42 -50 -73t-66 -51.5t-76.5 -30.5t-80.5 -10q-41 0 -81 10t-76 30.5t-66.5 51.5t-50.5 73q-10 -21 -22.5 -40t-28.5 -35
q-89 -90 -255 -90h-47v61h47v1q85 0 138.5 23t84 60t41.5 81.5t11 88.5v329h61v-329q0 -66 21 -113.5t55.5 -78.5t78.5 -46t89 -15t89 15t78.5 46t55.5 78.5t21 113.5v329h61v-329q0 -42 10 -85t37 -79t75 -60.5t124 -28.5q44 0 87 14t77.5 43.5t56.5 75t24 107.5v342h61
v-329q0 -44 11 -88.5t41.5 -81.5t84 -60t138.5 -23v-1zM970 1075l89 89l88 -89l-88 -88zM634 1075l89 89l88 -89l-88 -88zM801 1272l89 89l88 -89l-88 -88z" />
    <glyph glyph-name="uniFEBA" unicode="&#x635;" horiz-adv-x="2816" arabic-form="final" 
d="M951 -551h-239q-138 0 -250.5 60t-181.5 171q-47 74 -70 168q-12 48 -16 100q-4 37 -4 76q0 16 1 32q5 120 41.5 251t105.5 274l55 -27q-62 -129 -97 -248.5t-42 -225.5q-2 -31 -2 -60q0 -73 16.5 -152.5t63.5 -154.5q60 -97 159.5 -149.5t220.5 -52.5h239q256 0 360 119
q43 49 63 118.5t20 168.5v724h62v-356q0 -45 12 -79.5t32.5 -60t47.5 -42.5t58 -27q20 31 40.5 65t43.5 71q39 65 81.5 133t88.5 132.5t96.5 122t105 100.5t114 68t124.5 25q66 0 128 -32q62 -34 106 -91q49 -63 74.5 -145t25.5 -179q0 -53 -11 -98t-31 -83
q-34 -64 -96 -104h335v-61h-1127q-62 0 -116.5 18t-96.5 52q-19 14 -35 34v-187q0 -215 -99 -327q-61 -70 -157 -104q-51 -18 -113.5 -27.5t-135.5 -9.5zM1704 61h583q20 0 49 4t61 15t63 30t56 50.5t40.5 77t15.5 108.5q0 55 -8 99.5t-20.5 79.5t-27.5 61.5t-30 45.5
q-38 48 -85.5 73.5t-100.5 25.5q-74 0 -148.5 -44t-154.5 -135q-36 -41 -69.5 -86.5t-65.5 -93.5t-62 -97t-58 -95q-38 -63 -72 -117q8 -1 17 -1.5t17 -0.5z" />
    <glyph glyph-name="uniFEBB" unicode="&#x635;" horiz-adv-x="1792" arabic-form="initial" 
d="M141 0h-156v61h156q87 0 142 20t86 52t42.5 71t11.5 77v363h61v-363q1 -43 12.5 -76.5t31.5 -58.5t46 -42t56 -27q19 30 39 63.5t43 68.5q29 48 59.5 98t63.5 99.5t68 97t73 89.5q91 103 177.5 152.5t174.5 49.5q67 0 127 -32t106 -92q48 -63 72.5 -145t24.5 -180
q0 -104 -40 -181q-34 -66 -97 -107q-30 -20 -61.5 -31.5t-60 -17.5t-52 -7.5t-36.5 -1.5h-578q-63 0 -117.5 18t-96.5 52q-41 34 -65 78q-14 -29 -38 -54q-87 -94 -275 -94zM733 61h578q17 0 44.5 3t59 12.5t64 28t58.5 50t42.5 78.5t16.5 113q0 86 -21.5 159.5t-62.5 127.5
q-37 49 -84 74.5t-100 25.5q-74 0 -149.5 -44.5t-156.5 -136.5q-72 -82 -136.5 -181.5t-121.5 -193.5l-70 -114q10 -1 19.5 -1.5t19.5 -0.5z" />
    <glyph glyph-name="uniFEBC" unicode="&#x635;" horiz-adv-x="1851" arabic-form="medial" 
d="M141 0h-156v61h156q87 0 142 20t86 52t42.5 71t11.5 77v363h61v-363q1 -43 12.5 -76.5t31.5 -58.5t46 -42t56 -27q19 30 39 63.5t43 68.5q29 48 59.5 98t63.5 99.5t68 97t73 89.5q91 103 177.5 152.5t174.5 49.5q67 0 127 -32t106 -92q48 -63 72.5 -145t24.5 -180
q0 -104 -40 -181q-33 -64 -93 -104h341v-61h-1133q-63 0 -117.5 18t-96.5 52q-41 34 -65 78q-14 -29 -38 -54q-87 -94 -275 -94zM733 61h589q19 0 47 4t58.5 15t60.5 30t54 50.5t39 77t15 108.5q0 86 -21.5 159.5t-62.5 127.5q-37 49 -84 74.5t-100 25.5q-74 0 -149.5 -44.5
t-156.5 -136.5q-72 -82 -136.5 -181.5t-121.5 -193.5l-70 -114q10 -1 19.5 -1.5t19.5 -0.5z" />
    <glyph glyph-name="uniFEBE" unicode="&#x636;" horiz-adv-x="2816" arabic-form="final" 
d="M951 -551h-239q-138 0 -250.5 60t-181.5 171q-47 74 -70 168q-12 48 -16 100q-4 37 -4 76q0 16 1 32q5 120 41.5 251t105.5 274l55 -27q-62 -129 -97 -248.5t-42 -225.5q-2 -31 -2 -60q0 -73 16.5 -152.5t63.5 -154.5q60 -97 159.5 -149.5t220.5 -52.5h239q256 0 360 119
q43 49 63 118.5t20 168.5v724h62v-356q0 -45 12 -79.5t32.5 -60t47.5 -42.5t58 -27q20 31 40.5 65t43.5 71q39 65 81.5 133t88.5 132.5t96.5 122t105 100.5t114 68t124.5 25q66 0 128 -32q62 -34 106 -91q49 -63 74.5 -145t25.5 -179q0 -53 -11 -98t-31 -83
q-34 -64 -96 -104h335v-61h-1127q-62 0 -116.5 18t-96.5 52q-19 14 -35 34v-187q0 -215 -99 -327q-61 -70 -157 -104q-51 -18 -113.5 -27.5t-135.5 -9.5zM1704 61h583q20 0 49 4t61 15t63 30t56 50.5t40.5 77t15.5 108.5q0 55 -8 99.5t-20.5 79.5t-27.5 61.5t-30 45.5
q-38 48 -85.5 73.5t-100.5 25.5q-74 0 -148.5 -44t-154.5 -135q-36 -41 -69.5 -86.5t-65.5 -93.5t-62 -97t-58 -95q-38 -63 -72 -117q8 -1 17 -1.5t17 -0.5zM2190 1243l89 89l88 -89l-88 -88z" />
    <glyph glyph-name="uniFEBF" unicode="&#x636;" horiz-adv-x="1792" arabic-form="initial" 
d="M141 0h-156v61h156q87 0 142 20t86 52t42.5 71t11.5 77v363h61v-363q1 -43 12.5 -76.5t31.5 -58.5t46 -42t56 -27q19 30 39 63.5t43 68.5q29 48 59.5 98t63.5 99.5t68 97t73 89.5q91 103 177.5 152.5t174.5 49.5q67 0 127 -32t106 -92q48 -63 72.5 -145t24.5 -180
q0 -104 -40 -181q-34 -66 -97 -107q-30 -20 -61.5 -31.5t-60 -17.5t-52 -7.5t-36.5 -1.5h-578q-63 0 -117.5 18t-96.5 52q-41 34 -65 78q-14 -29 -38 -54q-87 -94 -275 -94zM733 61h578q17 0 44.5 3t59 12.5t64 28t58.5 50t42.5 78.5t16.5 113q0 86 -21.5 159.5t-62.5 127.5
q-37 49 -84 74.5t-100 25.5q-74 0 -149.5 -44.5t-156.5 -136.5q-72 -82 -136.5 -181.5t-121.5 -193.5l-70 -114q10 -1 19.5 -1.5t19.5 -0.5zM1205 1238l89 89l88 -89l-88 -88z" />
    <glyph glyph-name="uniFEC0" unicode="&#x636;" horiz-adv-x="1851" arabic-form="medial" 
d="M141 0h-156v61h156q87 0 142 20t86 52t42.5 71t11.5 77v363h61v-363q1 -43 12.5 -76.5t31.5 -58.5t46 -42t56 -27q19 30 39 63.5t43 68.5q29 48 59.5 98t63.5 99.5t68 97t73 89.5q91 103 177.5 152.5t174.5 49.5q67 0 127 -32t106 -92q48 -63 72.5 -145t24.5 -180
q0 -104 -40 -181q-33 -64 -93 -104h341v-61h-1133q-63 0 -117.5 18t-96.5 52q-41 34 -65 78q-14 -29 -38 -54q-87 -94 -275 -94zM733 61h589q19 0 47 4t58.5 15t60.5 30t54 50.5t39 77t15 108.5q0 86 -21.5 159.5t-62.5 127.5q-37 49 -84 74.5t-100 25.5q-74 0 -149.5 -44.5
t-156.5 -136.5q-72 -82 -136.5 -181.5t-121.5 -193.5l-70 -114q10 -1 19.5 -1.5t19.5 -0.5zM1222 1243l89 89l88 -89l-88 -88z" />
    <glyph glyph-name="uniFEC2" unicode="&#x637;" horiz-adv-x="1598" arabic-form="final" 
d="M1614 0h-1501v61l235 1q24 37 49.5 79.5t52.5 89.5q7 12 13.5 24t14.5 24v1148h61v-1045q36 59 75 115.5t81 106.5q165 193 333 193q166 0 250 -126q76 -116 76 -324q0 -97 -39.5 -169t-116.5 -117h416v-61zM421 62h541q14 0 43.5 2t66.5 11t76 27.5t71 50t52.5 79
t20.5 115.5q0 190 -65 290q-66 99 -199 99q-54 0 -104 -23t-97 -62.5t-90.5 -92.5t-84 -112.5t-78 -122.5t-71.5 -123q-21 -37 -41.5 -71.5t-40.5 -66.5z" />
    <glyph glyph-name="uniFEC3" unicode="&#x637;" horiz-adv-x="1409" arabic-form="initial" 
d="M847 0h-862v61h248q24 37 49.5 80t52.5 90q7 12 13.5 24t14.5 24v1148h61v-1045q36 59 75 115.5t81 106.5q165 193 333 193q166 0 250 -126q76 -116 76 -324q0 -98 -41 -171t-121 -118q-35 -20 -71.5 -31.5t-68 -17.5t-55.5 -7.5t-35 -1.5zM306 61l541 1q14 0 43.5 2
t66.5 11t76 27.5t71 50t52.5 79t20.5 115.5q0 190 -65 290q-66 99 -199 99q-54 0 -104 -23t-97 -62.5t-90.5 -92.5t-84 -112.5t-78 -122.5t-71.5 -123q-21 -37 -41.5 -72t-40.5 -67z" />
    <glyph glyph-name="uniFEC4" unicode="&#x637;" horiz-adv-x="1442" arabic-form="medial" 
d="M1457 0h-1472v61l263 1q24 37 49.5 79.5t52.5 89.5q7 12 13.5 24t14.5 24v1148h61v-1045q36 59 75 115.5t81 106.5q165 193 333 193q166 0 250 -126q76 -116 76 -324q0 -97 -39.5 -169t-116.5 -117h359v-61zM321 62h541q14 0 43.5 2t66.5 11t76 27.5t71 50t52.5 79
t20.5 115.5q0 190 -65 290q-66 99 -199 99q-54 0 -104 -23t-97 -62.5t-90.5 -92.5t-84 -112.5t-78 -122.5t-71.5 -123q-21 -37 -41.5 -71.5t-40.5 -66.5z" />
    <glyph glyph-name="uniFEC6" unicode="&#x638;" horiz-adv-x="1598" arabic-form="final" 
d="M1614 0h-1501v61l235 1q24 37 49.5 79.5t52.5 89.5q7 12 13.5 24t14.5 24v1148h61v-1045q36 59 75 115.5t81 106.5q165 193 333 193q166 0 250 -126q76 -116 76 -324q0 -97 -39.5 -169t-116.5 -117h416v-61zM421 62h541q14 0 43.5 2t66.5 11t76 27.5t71 50t52.5 79
t20.5 115.5q0 190 -65 290q-66 99 -199 99q-54 0 -104 -23t-97 -62.5t-90.5 -92.5t-84 -112.5t-78 -122.5t-71.5 -123q-21 -37 -41.5 -71.5t-40.5 -66.5zM969 1284l89 89l88 -89l-88 -88z" />
    <glyph glyph-name="uniFEC7" unicode="&#x638;" horiz-adv-x="1409" arabic-form="initial" 
d="M847 0h-862v61h248q24 37 49.5 80t52.5 90q7 12 13.5 24t14.5 24v1148h61v-1045q36 59 75 115.5t81 106.5q165 193 333 193q166 0 250 -126q76 -116 76 -324q0 -98 -41 -171t-121 -118q-35 -20 -71.5 -31.5t-68 -17.5t-55.5 -7.5t-35 -1.5zM306 61l541 1q14 0 43.5 2
t66.5 11t76 27.5t71 50t52.5 79t20.5 115.5q0 190 -65 290q-66 99 -199 99q-54 0 -104 -23t-97 -62.5t-90.5 -92.5t-84 -112.5t-78 -122.5t-71.5 -123q-21 -37 -41.5 -72t-40.5 -67zM827 1282l89 89l88 -89l-88 -88z" />
    <glyph glyph-name="uniFEC8" unicode="&#x638;" horiz-adv-x="1442" arabic-form="medial" 
d="M1457 0h-1472v61l263 1q24 37 49.5 79.5t52.5 89.5q7 12 13.5 24t14.5 24v1148h61v-1045q36 59 75 115.5t81 106.5q165 193 333 193q166 0 250 -126q76 -116 76 -324q0 -97 -39.5 -169t-116.5 -117h359v-61zM321 62h541q14 0 43.5 2t66.5 11t76 27.5t71 50t52.5 79
t20.5 115.5q0 190 -65 290q-66 99 -199 99q-54 0 -104 -23t-97 -62.5t-90.5 -92.5t-84 -112.5t-78 -122.5t-71.5 -123q-21 -37 -41.5 -71.5t-40.5 -66.5zM848 1283l89 89l88 -89l-88 -88z" />
    <glyph glyph-name="uniFECA" unicode="&#x639;" horiz-adv-x="1364" arabic-form="final" 
d="M706 297q55 28 106.5 56.5t96.5 59t82 63.5t62 71q16 24 22 47q5 19 5 36q0 3 -0.5 14t-6 26.5t-11.5 26.5q-23 44 -66.5 69.5t-94.5 25.5h-337q-118 0 -167 -60q-33 -41 -36 -108q13 -13 41.5 -41t67.5 -66t86.5 -82.5t97.5 -90.5q14 -13 26.5 -24.5t25.5 -22.5z
M901 853q68 0 126.5 -34.5t89.5 -92.5q25 -47 25 -96q0 -6 -2 -36.5t-36 -81.5q-27 -40 -64.5 -74.5t-82.5 -66t-96 -61t-105 -57.5q73 -64 128 -107q40 -31 65.5 -48t41 -25.5t22 -10t7.5 -1.5h362v-61h-362q-8 0 -20.5 3t-33 13.5t-49.5 29.5t-71 52q-62 49 -149 125
q-5 -3 -9.5 -5.5t-9.5 -4.5q-48 -24 -95.5 -49t-93 -51t-88 -54.5t-78.5 -59.5q-80 -68 -118 -141t-38 -159q0 -193 158 -298q75 -49 179.5 -74t232.5 -25h445v-62h-445q-137 0 -250 28t-196 82q-91 60 -138 148.5t-47 200.5q0 100 43.5 185t133.5 162q77 66 172.5 118.5
t192.5 102.5l-36 32q-59 54 -113.5 105.5t-97 92.5t-68 66.5t-25.5 26.5l-9 21q0 98 51 160q68 82 214 82h337z" />
    <glyph glyph-name="uniFECB" unicode="&#x639;" horiz-adv-x="1179" arabic-form="initial" 
d="M605 797q46 0 85.5 -9t76.5 -24.5t72.5 -36t73.5 -42.5q14 -8 28 -17t29 -17l-31 -53q-15 8 -29.5 17t-28.5 17q-36 22 -69 41t-66 33t-67.5 22t-73.5 8q-55 0 -109.5 -21t-97.5 -60t-70 -93t-27 -120q0 -21 4 -50t16.5 -62t35.5 -68.5t62 -68.5q149 -126 446 -132h158
v-61h-1038v61h537q-85 35 -143 85q-46 39 -73.5 81t-42.5 81.5t-19.5 74t-4.5 59.5q0 73 29.5 138.5t84.5 116.5q53 48 118.5 74t133.5 26z" />
    <glyph glyph-name="uniFECC" unicode="&#x639;" horiz-adv-x="1264" arabic-form="medial" 
d="M1277 0h-361q-35 0 -82.5 21t-111.5 66q-30 19 -63 45q-120 -67 -271 -99.5t-342 -32.5h-61v61h61q94 0 174.5 8t149.5 22.5t127.5 35t108.5 46.5q-26 21 -54 44.5t-57 49.5q-55 48 -105 95t-88 83.5t-60.5 59.5t-23.5 23l-8 9v13q0 119 64 182q66 63 201 63h337
q72 0 131 -33t87 -90q20 -40 20 -83q0 -11 -4 -45t-42 -85q-29 -38 -60 -77t-66 -76.5t-75 -73t-87 -66.5q45 -33 78 -53.5t57 -32t40 -15.5t25 -4h361v-61zM271 562q12 -12 37.5 -37t61 -59t78 -73.5t88.5 -79.5q36 -32 67.5 -58.5t60.5 -48.5q92 58 160 132t130 158
q28 37 33 75q1 9 1 17q0 29 -13 56q-20 42 -64.5 66t-98.5 24h-337q-104 0 -152.5 -40.5t-51.5 -131.5z" />
    <glyph glyph-name="uniFECE" unicode="&#x63a;" horiz-adv-x="1364" arabic-form="final" 
d="M706 297q55 28 106.5 56.5t96.5 59t82 63.5t62 71q16 24 22 47q5 19 5 36q0 3 -0.5 14t-6 26.5t-11.5 26.5q-23 44 -66.5 69.5t-94.5 25.5h-337q-118 0 -167 -60q-33 -41 -36 -108q13 -13 41.5 -41t67.5 -66t86.5 -82.5t97.5 -90.5q14 -13 26.5 -24.5t25.5 -22.5z
M901 853q68 0 126.5 -34.5t89.5 -92.5q25 -47 25 -96q0 -6 -2 -36.5t-36 -81.5q-27 -40 -64.5 -74.5t-82.5 -66t-96 -61t-105 -57.5q73 -64 128 -107q40 -31 65.5 -48t41 -25.5t22 -10t7.5 -1.5h362v-61h-362q-8 0 -20.5 3t-33 13.5t-49.5 29.5t-71 52q-62 49 -149 125
q-5 -3 -9.5 -5.5t-9.5 -4.5q-48 -24 -95.5 -49t-93 -51t-88 -54.5t-78.5 -59.5q-80 -68 -118 -141t-38 -159q0 -193 158 -298q75 -49 179.5 -74t232.5 -25h445v-62h-445q-137 0 -250 28t-196 82q-91 60 -138 148.5t-47 200.5q0 100 43.5 185t133.5 162q77 66 172.5 118.5
t192.5 102.5l-36 32q-59 54 -113.5 105.5t-97 92.5t-68 66.5t-25.5 26.5l-9 21q0 98 51 160q68 82 214 82h337zM624 1296l89 89l88 -89l-88 -88z" />
    <glyph glyph-name="uniFECF" unicode="&#x63a;" horiz-adv-x="1179" arabic-form="initial" 
d="M605 797q46 0 85.5 -9t76.5 -24.5t72.5 -36t73.5 -42.5q14 -8 28 -17t29 -17l-31 -53q-15 8 -29.5 17t-28.5 17q-36 22 -69 41t-66 33t-67.5 22t-73.5 8q-55 0 -109.5 -21t-97.5 -60t-70 -93t-27 -120q0 -21 4 -50t16.5 -62t35.5 -68.5t62 -68.5q149 -126 446 -132h158
v-61h-1038v61h537q-85 35 -143 85q-46 39 -73.5 81t-42.5 81.5t-19.5 74t-4.5 59.5q0 73 29.5 138.5t84.5 116.5q53 48 118.5 74t133.5 26zM525 1264l89 89l88 -89l-88 -88z" />
    <glyph glyph-name="uniFED0" unicode="&#x63a;" horiz-adv-x="1264" arabic-form="medial" 
d="M1277 0h-361q-35 0 -82.5 21t-111.5 66q-30 19 -63 45q-120 -67 -271 -99.5t-342 -32.5h-61v61h61q94 0 174.5 8t149.5 22.5t127.5 35t108.5 46.5q-26 21 -54 44.5t-57 49.5q-55 48 -105 95t-88 83.5t-60.5 59.5t-23.5 23l-8 9v13q0 119 64 182q66 63 201 63h337
q72 0 131 -33t87 -90q20 -40 20 -83q0 -11 -4 -45t-42 -85q-29 -38 -60 -77t-66 -76.5t-75 -73t-87 -66.5q45 -33 78 -53.5t57 -32t40 -15.5t25 -4h361v-61zM271 562q12 -12 37.5 -37t61 -59t78 -73.5t88.5 -79.5q36 -32 67.5 -58.5t60.5 -48.5q92 58 160 132t130 158
q28 37 33 75q1 9 1 17q0 29 -13 56q-20 42 -64.5 66t-98.5 24h-337q-104 0 -152.5 -40.5t-51.5 -131.5zM563 1272l89 89l88 -89l-88 -88z" />
    <glyph glyph-name="uniFED2" unicode="&#x641;" horiz-adv-x="2128" arabic-form="final" 
d="M1622 805q72 0 135 -27.5t111 -81.5q45 -49 69.5 -112.5t24.5 -131.5q0 -98 -57 -181.5t-165 -144.5q-8 -5 -17 -9.5t-18 -9.5q81 -22 170 -34t183 -12h85v-61h-85q-121 0 -232.5 18t-208.5 52q-98 -35 -215.5 -52.5t-253.5 -17.5h-711q-58 1 -110 20.5t-91 55.5
q-93 87 -93 239q0 32 5 69t12.5 74.5t16 73t16 63.5t13 46t6.5 20l59 -19l-5 -16q-5 -17 -12.5 -44t-16 -61t-15.5 -70t-12 -71.5t-5 -64.5q0 -70 21 -118t54.5 -78t74.5 -44t82 -14h711q108 0 203 11.5t178 34.5l-13 6q-119 61 -181 141q-72 90 -72 198q0 78 25.5 143
t74.5 113t114.5 72.5t144.5 24.5zM1617 136q25 10 48 20.5t45 22.5q94 54 142 123t48 150q0 54 -19 106t-55 93.5t-87.5 67t-116.5 25.5q-68 0 -122.5 -20.5t-93.5 -59t-60 -92.5t-21 -120q0 -54 20 -97.5t52 -79t70.5 -62t76.5 -45.5q17 -9 35 -16.5t38 -15.5zM1532 1267
l89 89l88 -89l-88 -88z" />
    <glyph glyph-name="uniFED3" unicode="&#x641;" horiz-adv-x="1036" arabic-form="initial" 
d="M572 411q38 0 76.5 3t73 7.5t62 9t42.5 7.5q-1 118 -15 202.5t-37 143.5t-53 94.5t-63.5 54.5t-68 25.5t-66.5 6.5q-72 0 -124 -25.5t-86 -67.5t-50.5 -95t-16.5 -108q0 -258 326 -258zM523 1026q180 0 272 -147q47 -76 70 -190.5t23 -273.5q0 -228 -138 -327
q-63 -45 -156.5 -66.5t-228.5 -21.5h-380v61h380q125 0 210 19t139 58q52 38 79 95.5t32 141.5q-19 -3 -47 -7.5t-61.5 -8.5t-70.5 -6.5t-74 -2.5q-162 0 -260 62q-127 82 -127 257q0 71 21.5 134.5t63.5 111.5q46 55 110.5 83t142.5 28zM413 1488l89 89l88 -89l-88 -88z
" />
    <glyph glyph-name="uniFED4" unicode="&#x641;" horiz-adv-x="1084" arabic-form="medial" 
d="M573 136q25 10 48 20.5t45 22.5q94 54 142 123t48 150q0 54 -19 106t-55 93.5t-87.5 67t-116.5 25.5q-68 0 -122.5 -20.5t-93.5 -59t-60 -92.5t-21 -120q0 -54 20 -97.5t52 -79t70.5 -62t76.5 -45.5q17 -9 35 -16.5t38 -15.5zM578 805q72 0 135 -27.5t111 -81.5
q45 -49 69.5 -112.5t24.5 -131.5q0 -98 -57 -181.5t-165 -144.5q-8 -5 -17 -9.5t-18 -9.5q81 -22 170 -34t183 -12h85v-61h-85q-121 0 -232.5 18t-208.5 52q-98 -35 -215.5 -52.5t-253.5 -17.5h-119v61h119q108 0 203 11.5t178 34.5q-5 2 -13 6q-119 61 -181 141
q-72 90 -72 198q0 78 25.5 143t74.5 113t114.5 72.5t144.5 24.5zM474 1286l89 89l88 -89l-88 -88z" />
    <glyph glyph-name="uniFED6" unicode="&#x642;" horiz-adv-x="1616" arabic-form="final" 
d="M781 -491q160 0 276 24t192 74.5t112.5 127.5t36.5 183v82h-289q-22 0 -48.5 3.5t-55.5 11.5t-58.5 20.5t-57.5 31.5q-25 16 -51 41.5t-47 61.5t-34.5 83.5t-13.5 109.5q0 110 30 196q28 81 80 137q48 51 112 78t137 27q167 0 256 -105q101 -119 101 -380v-255h172v-61
h-172v-82q0 -126 -45 -216t-135 -148q-84 -54 -206.5 -80t-291.5 -26h-108q-68 0 -130 15.5t-116.5 45t-100.5 72t-80 97.5q-49 78 -71 175q-20 82 -20 174q0 16 1 32q11 243 149 530l55 -27q-56 -117 -87.5 -217.5t-44.5 -184.5q-12 -70 -12 -130q0 -13 1.5 -54t13.5 -96.5
t30 -97.5t37 -71q60 -97 158 -149.5t217 -52.5h108zM1398 61v255q0 237 -87 341q-71 83 -209 83q-54 0 -107 -20t-95.5 -64.5t-68.5 -116.5t-26 -176q0 -167 119 -245q30 -20 60.5 -31.5t56 -17t44 -7t24.5 -1.5h289zM1168 1226l89 89l88 -89l-88 -88zM832 1226l89 89
l88 -89l-88 -88z" />
    <glyph glyph-name="uniFED7" unicode="&#x642;" horiz-adv-x="1036" arabic-form="initial" 
d="M572 411q38 0 76.5 3t73 7.5t62 9t42.5 7.5q-1 118 -15 202.5t-37 143.5t-53 94.5t-63.5 54.5t-68 25.5t-66.5 6.5q-72 0 -124 -25.5t-86 -67.5t-50.5 -95t-16.5 -108q0 -258 326 -258zM523 1026q180 0 272 -147q47 -76 70 -190.5t23 -273.5q0 -228 -138 -327
q-63 -45 -156.5 -66.5t-228.5 -21.5h-380v61h380q125 0 210 19t139 58q52 38 79 95.5t32 141.5q-19 -3 -47 -7.5t-61.5 -8.5t-70.5 -6.5t-74 -2.5q-162 0 -260 62q-127 82 -127 257q0 71 21.5 134.5t63.5 111.5q46 55 110.5 83t142.5 28zM585 1429l89 89l88 -89l-88 -88z
M249 1429l89 89l88 -89l-88 -88z" />
    <glyph glyph-name="uniFED8" unicode="&#x642;" horiz-adv-x="1084" arabic-form="medial" 
d="M573 136q25 10 48 20.5t45 22.5q94 54 142 123t48 150q0 54 -19 106t-55 93.5t-87.5 67t-116.5 25.5q-68 0 -122.5 -20.5t-93.5 -59t-60 -92.5t-21 -120q0 -54 20 -97.5t52 -79t70.5 -62t76.5 -45.5q17 -9 35 -16.5t38 -15.5zM578 805q72 0 135 -27.5t111 -81.5
q45 -49 69.5 -112.5t24.5 -131.5q0 -98 -57 -181.5t-165 -144.5q-8 -5 -17 -9.5t-18 -9.5q81 -22 170 -34t183 -12h85v-61h-85q-121 0 -232.5 18t-208.5 52q-98 -35 -215.5 -52.5t-253.5 -17.5h-119v61h119q108 0 203 11.5t178 34.5q-5 2 -13 6q-119 61 -181 141
q-72 90 -72 198q0 78 25.5 143t74.5 113t114.5 72.5t144.5 24.5zM618 1263l89 89l88 -89l-88 -88zM282 1263l89 89l88 -89l-88 -88z" />
    <glyph glyph-name="uniFEDA" unicode="&#x643;" horiz-adv-x="2145" arabic-form="final" 
d="M986 60q95 0 183.5 0.5t167 5t146.5 13t122 25.5q103 32 151.5 94t50.5 170v1060h61v-1126q0 -59 21.5 -104t57 -75.5t80 -46t90.5 -15.5h43v-61h-43q-61 0 -116 20.5t-98 58.5q-54 46 -78 113q-58 -104 -203 -147q-57 -17 -127 -26.5t-151 -14t-171 -5t-187 -0.5h-553
q-58 0 -109.5 19.5t-91.5 56.5q-45 42 -69 102.5t-24 135.5q0 31 5 68.5t12.5 75.5t16 73.5t16 63.5t13 46t6.5 20l59 -19l-5 -16q-5 -17 -12.5 -44t-16 -61t-15.5 -70.5t-12 -72t-5 -64.5q0 -70 21.5 -118.5t55 -78.5t75 -43t82.5 -13h551zM1149 922q-51 -17 -90 -34
t-68 -34q-10 -6 -22.5 -15t-23 -19.5t-16.5 -21.5q-4 -9 -4 -18v-6q2 -9 14.5 -15.5t30 -11t38.5 -7.5t39 -6q28 -3 55.5 -7.5t50.5 -12.5q64 -23 69 -75q1 -6 1 -11q0 -31 -24 -56q-21 -22 -56 -36t-78 -22.5t-90.5 -11.5t-92.5 -3h-28l1 62q7 -1 13.5 -1h12.5
q123 0 189 17t84 37q7 8 7 16v3q-1 9 -12.5 15.5t-29.5 11t-39 8t-41 6.5q-26 3 -52.5 7t-49.5 12q-61 21 -72 68q-2 10 -2 21q0 66 96 124q64 39 170 74z" />
    <glyph glyph-name="uniFEDB" unicode="&#x643;" horiz-adv-x="1152" arabic-form="initial" 
d="M1107 1564l25 -56l-893 -393q30 -24 79.5 -64.5t113 -97.5t139 -129.5t157.5 -160.5q124 -131 168 -258q22 -63 22 -121q0 -57 -22 -109q-37 -84 -124 -129q-88 -46 -217 -46h-570v61h570q109 0 182.5 35.5t102.5 102.5q17 38 17 83q0 47 -19 102q-20 59 -58.5 118
t-95.5 119q-108 115 -202.5 203.5t-165.5 149t-112.5 92t-42.5 32.5l6 53z" />
    <glyph glyph-name="uniFEDC" unicode="&#x643;" horiz-adv-x="1248" arabic-form="medial" 
d="M778 387q60 -81 109.5 -142.5t102.5 -102t117.5 -61t155.5 -20.5v-61q-97 0 -171.5 22.5t-138.5 71.5q-58 45 -109 107t-111 143q2 -18 2 -35q0 -28 -6.5 -58.5t-20.5 -58.5q-47 -95 -168 -145q-55 -23 -121.5 -35t-141.5 -12h-293v61h293q140 0 239 42t137 117
q21 41 21 90q0 104 -98 241q-26 35 -49 64t-45 59q-69 94 -126 171t-97.5 132.5t-63 86t-22.5 31.5l12 46l939 423l25 -56l-904 -408q25 -34 47.5 -65.5t45.5 -63.5q48 -66 94.5 -128t99.5 -133q20 -28 41 -54t43 -56q2 -3 4.5 -6.5t5.5 -6.5q29 -41 62 -83t71 -92
q5 -7 9.5 -13t9.5 -12z" />
    <glyph glyph-name="uniFEDE" unicode="&#x644;" horiz-adv-x="1416" arabic-form="final" 
d="M1167 330q0 -59 17 -108.5t48 -85t74 -55t95 -19.5h32v-62h-32q-64 0 -119 24.5t-96 71.5q-10 11 -19 25v-201q0 -109 -24.5 -190t-74.5 -139q-29 -35 -69 -61t-88 -44q-103 -38 -249 -38h-72q-117 0 -213.5 52t-156.5 147q-42 66 -61 147q-16 67 -16 141q0 16 1 32
q8 205 123 445l56 -27q-104 -217 -117 -397q-2 -26 -2 -50q0 -149 68 -258q51 -81 134 -125.5t184 -44.5h72q255 0 360 121q83 96 83 289v1508h62v-1098z" />
    <glyph glyph-name="uniFEDF" unicode="&#x644;" horiz-adv-x="573" arabic-form="initial" 
d="M399 332q0 -29 -2.5 -61t-11 -63.5t-24 -61.5t-41.5 -55q-49 -47 -130.5 -69t-204.5 -22v61q122 0 192.5 21.5t106 58.5t45 86t9.5 105v1096h61v-1096z" />
    <glyph glyph-name="uniFEE0" unicode="&#x644;" horiz-adv-x="641" arabic-form="medial" 
d="M401 323q1 -57 19 -105t49 -83t73.5 -54.5t92.5 -19.5h21v-61h-21q-63 0 -118 27t-96 74q-14 15 -25 32.5t-20 36.5q-9 -22 -22 -42t-32 -37q-49 -47 -130 -69t-205 -22v61q119 0 189 20.5t106 56t46.5 82.5t11.5 101v1107h61v-1105z" />
    <glyph glyph-name="uniFEE2" unicode="&#x645;" horiz-adv-x="1476" arabic-form="final" 
d="M1491 0h-29q-15 0 -35.5 2.5t-43.5 9.5t-48 20t-49 35q-45 42 -70 106q-11 -29 -25.5 -53.5t-32.5 -44.5q-37 -40 -85.5 -61.5t-105.5 -21.5q-8 0 -20.5 1.5t-32.5 7t-49.5 16t-71.5 27.5q-48 20 -107.5 47.5t-129.5 62.5q-48 24 -94 47.5t-84.5 43.5t-67.5 35.5
t-45 24.5l-24 -14v-1015h-61v1049l83 51l15 -8l20 -10q19 -11 51.5 -28.5t76 -40t92.5 -47.5q25 144 52.5 239.5t63.5 160.5q94 170 273 170q79 0 148 -43q61 -37 107 -106q41 -63 63 -139.5t22 -156.5v-18q3 -167 81 -237q18 -17 36.5 -26.5t36.5 -15t34 -7t27 -1.5h29v-62
zM575 213l8 -4q102 -51 171.5 -81.5t113.5 -47t66.5 -21.5t32.5 -5q30 0 70 12t75 50q74 82 74 251q0 70 -20 139t-55 123q-14 21 -33 42.5t-44.5 39t-57 28.5t-69.5 11q-75 0 -127 -33t-92 -105q-35 -62 -61.5 -157t-51.5 -242z" />
    <glyph glyph-name="uniFEE3" unicode="&#x645;" horiz-adv-x="1148" arabic-form="initial" 
d="M701 15q37 0 73.5 17.5t65.5 57.5t47 104t18 157q0 66 -21 131t-59 118q-39 54 -87.5 83t-101.5 29q-72 0 -123.5 -26.5t-89.5 -83.5q-35 -52 -56.5 -119t-40.5 -136q-12 -44 -24 -84.5t-27 -78.5q12 -6 23.5 -12t22.5 -12q66 -35 119 -62t98 -45.5t84.5 -28t78.5 -9.5z
M636 773q68 0 129.5 -35t109.5 -102q44 -60 68 -134.5t24 -150.5q0 -196 -81 -301q-35 -47 -83 -71.5t-102 -24.5q-45 0 -89 10.5t-93 30t-104.5 47.5t-122.5 64q-11 5 -21.5 11t-21.5 12q-3 -7 -8 -14q-69 -115 -195 -115h-61l-1 61h62q48 0 82 20.5t61 65.5q26 42 43.5 98
t34.5 118q19 72 42.5 143t62.5 130q92 137 264 137z" />
    <glyph glyph-name="uniFEE4" unicode="&#x645;" horiz-adv-x="1183" arabic-form="medial" 
d="M1185 0q-129 0 -210 58q-41 32 -65 75q-18 -48 -45 -83q-35 -47 -83 -71.5t-103 -24.5q-45 0 -89 10.5t-92.5 30t-104 47.5t-122.5 64l-43 23l-8 -14q-70 -115 -196 -115h-39v61h39q48 0 82.5 20.5t60.5 65.5q26 42 43.5 98t34.5 118q19 72 42.5 143t62.5 130
q92 137 264 137q68 0 129.5 -35t109.5 -102q44 -60 68 -134.5t24 -150.5q0 -23 -1.5 -44.5t-3.5 -41.5h1q0 -66 25.5 -106.5t62.5 -62t79.5 -28.5t76.5 -7h13v-61h-13zM679 15q37 0 73.5 17.5t65.5 57.5t47 104t18 157q0 66 -21 131t-59 118q-39 54 -87.5 83t-101.5 29
q-72 0 -123.5 -26.5t-89.5 -83.5q-35 -52 -56.5 -119t-40.5 -136q-11 -44 -23.5 -84.5t-26.5 -78.5l45 -24q67 -35 120 -62t97.5 -45.5t84 -28t78.5 -9.5z" />
    <glyph glyph-name="uniFEE6" unicode="&#x646;" horiz-adv-x="1679" arabic-form="final" 
d="M911 -552h-236q-67 0 -129 15t-117 44.5t-101 72t-80 97.5q-49 78 -72 175q-19 79 -19 167q0 19 1 39q5 121 42 253.5t106 276.5l56 -27q-56 -117 -87.5 -217.5t-44.5 -184.5q-12 -70 -12 -130q0 -13 1.5 -54t13.5 -96.5t30 -97.5t37 -71q60 -97 158 -149t217 -52h236
q255 0 359 122q84 96 84 288v741h61v-344q0 -56 18 -103t51 -80.5t79 -52t101 -18.5h30v-62h-30q-65 0 -121.5 22.5t-98.5 64.5q-8 8 -15 16t-14 17v-201q0 -215 -98 -328q-61 -71 -157 -105q-105 -38 -249 -38zM769 751l89 89l88 -89l-88 -88z" />
    <glyph glyph-name="uniFEE7" unicode="&#x646;" horiz-adv-x="669" arabic-form="initial" 
d="M480 764q10 -42 21.5 -93t21 -106t16.5 -110.5t9 -106.5v-12q0 -72 -24 -137.5t-72 -114.5q-40 -41 -88.5 -62.5t-101.5 -21.5h-277v61h277q40 0 77.5 17t68.5 49q39 40 60 97q18 52 18 111v12q-1 49 -7.5 102.5t-16.5 106.5t-21 102.5t-21 91.5zM268 1227l89 89l88 -89
l-88 -88z" />
    <glyph glyph-name="uniFEE8" unicode="&#x646;" horiz-adv-x="782" arabic-form="medial" 
d="M504 286q0 -62 22.5 -105t58.5 -69.5t80 -38.5t87 -12h45v-61h-45q-62 0 -116.5 18t-96.5 52q-40 33 -65 79q-16 -31 -38 -55q-89 -94 -276 -94h-175v61h175q87 0 142 20.5t86 52t42.5 70.5t11.5 77v365h62v-360zM315 1137l89 89l88 -89l-88 -88z" />
    <glyph glyph-name="uniFEEA" unicode="&#x647;" horiz-adv-x="1250" arabic-form="final" 
d="M1265 0h-41q-26 0 -57.5 3t-66 11t-71 21.5t-71.5 35.5q-137 85 -184 257q-5 17 -9 33t-8 31q-23 -92 -75.5 -159.5t-133.5 -106.5q-31 -15 -69 -23q-30 -6 -63 -6h-17q-90 2 -165 40q-23 12 -48 30t-47.5 44t-40 61.5t-25.5 82.5q-5 29 -5 58q0 60 21 117q31 87 105 160
q73 72 182.5 127.5t249.5 90.5l-30 171l60 12q29 -124 50.5 -217t38.5 -166q12 -51 22 -96.5t20.5 -89t21.5 -87t24 -91.5q17 -64 46 -109.5t64.5 -77t75 -50.5t77 -29t71 -13.5t57.5 -3.5h41v-61zM649 850q-135 -32 -239 -84t-173 -120q-64 -63 -90 -134q-18 -47 -18 -96
q0 -25 5 -51q6 -37 20 -65t32 -49t38 -35.5t38 -23.5q34 -17 70 -25t71 -9h8q30 0 58.5 6t51.5 17q149 72 182 252q6 34 7 65q1 16 1 29q0 14 -1.5 31.5t-3.5 31.5l-2 14h2q-5 22 -10.5 44.5t-10.5 46.5q-8 35 -16.5 73t-19.5 82z" />
    <glyph glyph-name="uniFEEB" unicode="&#x647;" horiz-adv-x="1492" arabic-form="initial" 
d="M621 126q45 16 81 36q184 98 184 288q0 65 -23 118.5t-60.5 91.5t-84.5 59t-95 21q-80 0 -135.5 -25t-90 -65t-49.5 -88.5t-15 -96.5q0 -60 20.5 -108t58 -88.5t91 -75t118.5 -67.5zM835 978q79 -84 147.5 -157t125 -137t100.5 -120t75 -106q66 -104 74 -191q1 -13 1 -26
q0 -75 -39 -151q-29 -54 -83.5 -92t-126.5 -54q-20 -5 -45 -8t-54 -3q-51 0 -114 12.5t-137 47.5q-37 17 -72.5 33.5t-70.5 33.5q-186 -60 -474 -60h-157v61h157q231 0 395 41q-34 19 -64 38.5t-56 40.5q-75 60 -110.5 128.5t-35.5 155.5q0 68 22 127.5t64 104.5
q48 51 115 77.5t151 26.5q60 0 118 -25t104 -73q50 -50 76 -115t26 -138q0 -112 -55 -201q-55 -86 -161 -141q-17 -9 -36 -18q43 -20 90 -42q67 -31 123.5 -42.5t101.5 -11.5q25 0 46.5 2.5t38.5 7.5q59 13 103 43t66 72q20 37 28 73q5 23 5 48q0 12 -2.5 36.5t-19 64
t-44.5 85.5q-60 96 -172 219.5t-269 289.5z" />
    <glyph glyph-name="uniFEEC" unicode="&#x647;" horiz-adv-x="1260" arabic-form="medial" 
d="M301 79q68 8 135.5 21.5t130.5 33.5q324 102 324 338q0 23 -4 49.5t-13.5 53t-24.5 51.5t-36 45q-63 60 -168 60q-5 0 -10.5 -0.5t-10.5 -0.5q-111 -6 -186 -90q-36 -41 -63.5 -98.5t-45 -129.5t-24.5 -156q-5 -56 -5 -116q0 -30 1 -61zM645 792q129 0 210 -76
q27 -26 45.5 -57t30 -63.5t16.5 -64.5t5 -59q0 -152 -109 -256q-91 -88 -257 -141q-67 -21 -138 -35t-143 -22q6 -49 24 -99t45.5 -97.5t64 -91t79.5 -79.5q27 -23 62.5 -46t79 -41.5t94.5 -30t110 -11.5h13q-74 95 -98 184q-13 45 -13 86q0 55 22 103q17 39 47.5 70.5
t72.5 53.5q39 21 84.5 31.5t93.5 10.5h189v-61h-189q-42 0 -80 -9t-69.5 -26t-55.5 -41t-37 -54q-17 -37 -17 -79q0 -39 22.5 -106.5t112.5 -167.5l-20 -51q-20 -2 -39 -3.5t-38 -1.5q-94 0 -179 28q-113 37 -208 115q-51 43 -93.5 95t-74.5 112q-26 50 -43 100t-23 100
q-71 -6 -136.5 -8.5t-122.5 -2.5v61q56 0 120.5 2.5t133.5 9.5q-1 27 -1 54q0 62 5.5 133.5t21.5 145.5q39 177 127 275q93 104 228 110q7 1 13 1h12z" />
    <glyph glyph-name="uniFEEE" unicode="&#x648;" horiz-adv-x="1044" arabic-form="final" 
d="M830 61v255q0 237 -87 341q-71 83 -209 83q-54 0 -107 -20t-95.5 -64.5t-68.5 -116.5t-26 -176q0 -167 119 -245q30 -20 60.5 -31.5t56 -17t44 -7t24.5 -1.5h289zM534 801q167 0 256 -105q101 -119 101 -380v-255h168v-61h-168v-82q0 -126 -45 -216t-135 -148
q-84 -54 -206.5 -79.5t-291.5 -25.5v61q160 0 276 24t192 74t112.5 127t36.5 183v82h-289q-22 0 -48.5 3.5t-55.5 11.5t-58.5 20.5t-57.5 31.5q-25 16 -51 41.5t-47 61.5t-34.5 83.5t-13.5 109.5q0 110 30 196q28 81 80 137q48 51 112 78t137 27z" />
    <glyph glyph-name="uniFEF0" unicode="&#x649;" horiz-adv-x="1779" arabic-form="final" 
d="M355 557q-62 -130 -97.5 -250.5t-43.5 -227.5q-2 -31 -2 -60q0 -75 16.5 -154.5t63.5 -154.5q60 -96 157.5 -148t217.5 -52h249q217 0 349 50q171 64 171 209q0 65 -27.5 105.5t-87.5 66.5q-29 12 -65 21.5t-83.5 16.5t-108 12.5t-136.5 8.5l1 61h865v-61h-455q4 -2 6 -2
q75 -32 114 -88q38 -56 38 -141q0 -99 -62 -170q-51 -59 -148 -97q-144 -53 -371 -53h-249q-136 0 -247 59.5t-180 168.5q-48 77 -70 173q-19 78 -19 166q0 19 1 39q9 240 148 529z" />
    <glyph glyph-name="uniFEF2" unicode="&#x64a;" horiz-adv-x="1779" arabic-form="final" 
d="M355 557q-62 -130 -97.5 -250.5t-43.5 -227.5q-2 -31 -2 -60q0 -75 16.5 -154.5t63.5 -154.5q60 -96 157.5 -148t217.5 -52h249q217 0 349 50q171 64 171 209q0 65 -27.5 105.5t-87.5 66.5q-29 12 -65 21.5t-83.5 16.5t-108 12.5t-136.5 8.5l1 61h865v-61h-455q4 -2 6 -2
q75 -32 114 -88q38 -56 38 -141q0 -99 -62 -170q-51 -59 -148 -97q-144 -53 -371 -53h-249q-136 0 -247 59.5t-180 168.5q-48 77 -70 173q-19 78 -19 166q0 19 1 39q9 240 148 529zM937 -852l89 89l88 -89l-88 -88zM601 -852l89 89l88 -89l-88 -88z" />
    <glyph glyph-name="uniFEF3" unicode="&#x64a;" horiz-adv-x="873" arabic-form="initial" 
d="M639 764q10 -42 21.5 -93t21 -106t16.5 -110.5t9 -106.5v-12q0 -72 -24 -137.5t-72 -114.5q-40 -41 -88.5 -62.5t-101.5 -21.5h-436v61h436q40 0 77.5 17t68.5 49q39 40 60 97q18 52 18 111v12q-1 49 -7.5 102.5t-16.5 106.5t-21 102.5t-21 91.5zM491 -396l89 89l88 -89
l-88 -88zM155 -396l89 89l88 -89l-88 -88z" />
    <glyph glyph-name="uniFEF4" unicode="&#x64a;" horiz-adv-x="1049" arabic-form="medial" 
d="M655 286q0 -62 22.5 -105t58.5 -69.5t80 -38.5t87 -12h161v-61h-161q-62 0 -116.5 18t-96.5 52q-40 33 -65 79q-16 -31 -38 -55q-89 -94 -276 -94h-326v61h326q87 0 142 20.5t86 52t42.5 70.5t11.5 77v365h62v-360zM539 -400l89 89l88 -89l-88 -88zM203 -400l89 89
l88 -89l-88 -88z" />
    <glyph glyph-name=".notdef" horiz-adv-x="1229" 
d="M102 -362v1806h1024v-1806h-1024zM167 -298h895v1677h-895v-1677z" />
    <glyph glyph-name=".null" 
 />
    <glyph glyph-name="uni000D" horiz-adv-x="602" 
 />
    <glyph glyph-name="uniFEFF" unicode="&#xfeff;" 
 />
    <glyph glyph-name="uniFEFF" 
 />
    <glyph glyph-name="space" unicode=" " horiz-adv-x="696" 
 />
    <glyph glyph-name="space" unicode="&#xa0;" horiz-adv-x="696" 
 />
    <glyph glyph-name="exclam" unicode="!" horiz-adv-x="496" 
d="M288 1524v-1187h-71v1187h71zM164 87l89 89l88 -89l-88 -88z" />
    <glyph glyph-name="quotedbl" unicode="&#x22;" horiz-adv-x="560" 
d="M226 1496l-11 -291h-54q6 288 6 445h59v-154zM442 1496l-11 -291h-54l6 288v157h59v-154z" />
    <glyph glyph-name="numbersign" unicode="#" horiz-adv-x="1204" 
d="M797 440h-391l-79 -440h-61l80 440h-291v56h302l102 563h-323v58h333l81 447h60l-81 -447h392l81 447h60l-81 -447h273v-58h-284l-103 -563h306v-56h-316l-80 -440h-60zM417 496h390l103 563h-392z" />
    <glyph glyph-name="dollar" unicode="$" horiz-adv-x="1204" 
d="M1017 370q0 97 -37 161t-125 118t-260.5 113.5t-254 116t-121 131.5t-39.5 182q0 175 115 281t300 113v200h59v-200q198 -11 305.5 -132t107.5 -329h-58q0 182 -104 293.5t-283 111.5q-174 0 -279 -93.5t-105 -241.5q0 -106 35 -167t116.5 -111t228.5 -100.5t225.5 -89.5
t130 -91t76.5 -115t25 -149q0 -171 -111 -277t-298 -116v-202h-59v200q-228 9 -352.5 130t-124.5 332h58q0 -190 118.5 -297.5t322.5 -107.5q169 0 278.5 97t109.5 239z" />
    <glyph glyph-name="percent" unicode="%" horiz-adv-x="1640" 
d="M122 1263q0 139 84 231.5t209 92.5t208 -93t83 -236v-77q0 -137 -82.5 -229.5t-206.5 -92.5q-126 0 -210.5 91.5t-84.5 236.5v76zM182 1181q0 -112 63.5 -187.5t171.5 -75.5q103 0 166.5 74.5t63.5 193.5v77q0 116 -64 190.5t-168 74.5q-102 0 -167.5 -74.5t-65.5 -197.5
v-75zM935 383q0 139 83 231t208 92t208.5 -92t83.5 -238v-76q0 -139 -83.5 -231t-206.5 -92q-125 0 -209 91.5t-84 236.5v78zM994 300q0 -115 63.5 -189t170.5 -74q105 0 168 74.5t63 193.5v78q0 122 -63 193t-170 71t-169.5 -72.5t-62.5 -195.5v-79zM453 141l-48 33
l764 1222l48 -33z" />
    <glyph glyph-name="ampersand" unicode="&#x26;" horiz-adv-x="1340" 
d="M453 862q-94 116 -135.5 208t-41.5 184q0 151 91 242t237 91q134 0 215 -79t81 -205q0 -146 -202 -314l-167 -133l510 -579q123 172 123 402h60q0 -255 -143 -447l204 -232h-72l-169 189q-210 -210 -454 -210q-216 0 -341 107.5t-125 291.5q0 105 60.5 208t214.5 233z
M590 37q119 0 227 51t190 145l-519 588l-56 -44q-127 -110 -188.5 -205.5t-61.5 -193.5q0 -152 111 -246.5t297 -94.5zM335 1256q0 -170 161 -360l188 149q156 130 156 258q0 99 -66 162.5t-170 63.5q-122 0 -195.5 -76t-73.5 -197z" />
    <glyph glyph-name="quotesingle" unicode="'" horiz-adv-x="365" 
d="M215 1468l-15 -263h-54l10 261v184h59v-182z" />
    <glyph glyph-name="parenleft" unicode="(" horiz-adv-x="616" 
d="M466 1328q-1 -1 -13 -16t-31 -43.5t-43 -68.5t-49 -91q-23 -47 -47 -106t-43.5 -128.5t-32 -148t-12.5 -163.5q0 -84 12.5 -162t32 -147t43.5 -128.5t47 -105.5q25 -50 49 -90t43 -68t31 -43l12 -15l-47 -40q-1 1 -13.5 17t-32.5 45t-45 70.5t-51 94.5q-62 126 -98 253
q-44 161 -44 319q0 159 44 321q36 128 98 254q26 53 51 95t45 71.5t32.5 45.5t14.5 17z" />
    <glyph glyph-name="parenright" unicode=")" horiz-adv-x="616" 
d="M217 1367q1 -1 14 -17t33 -45.5t45 -71.5t51 -95q62 -126 98 -254q44 -162 44 -321q0 -158 -44 -319q-36 -127 -98 -253q-26 -53 -51 -94.5t-45 -70.5t-32.5 -45t-13.5 -17l-47 40l12 15q12 15 31 43t43 68t49 90q23 46 47 105.5t43.5 128.5t32 147t12.5 162
q0 85 -12.5 163.5t-32 148t-43.5 128.5t-47 106q-25 51 -49 91t-43 68.5t-31 43.5t-13 16z" />
    <glyph glyph-name="asterisk" unicode="*" horiz-adv-x="920" 
d="M422 1092l-390 134l20 58l388 -143l2 423h60l-8 -424l378 153l22 -57l-387 -147l268 -340l-51 -36l-260 346l-245 -349l-48 34z" />
    <glyph glyph-name="plus" unicode="+" horiz-adv-x="1236" 
d="M634 754h516v-57h-516v-540h-59v540h-497v57h497v542h59v-542z" />
    <glyph glyph-name="comma" unicode="," horiz-adv-x="411" 
d="M139 -274l-40 34q87 112 94 231l1 180h58v-157q-4 -171 -113 -288z" />
    <glyph glyph-name="hyphen" unicode="-" horiz-adv-x="652" 
d="M570 686h-504v58h504v-58z" />
    <glyph glyph-name="period" unicode="." horiz-adv-x="472" 
d="M158 53q0 24 17 42t42 18t42.5 -18t17.5 -42q0 -25 -17.5 -42t-42.5 -17t-42 17t-17 42z" />
    <glyph glyph-name="slash" unicode="/" horiz-adv-x="840" 
d="M108 -134h-63l653 1698h64z" />
    <glyph glyph-name="zero" unicode="0" horiz-adv-x="1376" 
d="M698 284q60 0 112.5 23t91.5 62t62 92t23 113t-23 112.5t-62 91.5t-91.5 62t-112.5 23t-112.5 -23t-92 -62t-62 -91.5t-22.5 -112.5t22.5 -113t62 -92t92 -62t112.5 -23zM698 924q72 0 136 -27.5t112 -75t75.5 -111.5t27.5 -136q0 -73 -27.5 -137t-75.5 -111.5t-112 -75
t-136 -27.5q-73 0 -137 27.5t-111.5 75t-75 111.5t-27.5 137q0 72 27.5 136t75 111.5t111.5 75t137 27.5z" />
    <glyph glyph-name="one" unicode="1" horiz-adv-x="1376" 
d="M785 0h-61q0 35 0.5 73t1.5 80q2 116 2 260q0 143 -12 305.5t-42 339.5t-88 360l58 19q53 -166 85.5 -340.5t47.5 -369.5q13 -165 12.5 -310t-2.5 -266q-1 -41 -1.5 -78.5t-0.5 -72.5z" />
    <glyph glyph-name="two" unicode="2" horiz-adv-x="1376" 
d="M802 780q-123 0 -226 82q-38 29 -72.5 68t-66.5 89q24 -136 36.5 -263.5t17.5 -244t5.5 -220.5t0.5 -192q-1 -26 -1 -51v-48h-61v99q1 54 1 114q0 61 -1 160t-11.5 249t-35 314.5t-69.5 337.5q-2 5 -3 8.5t-1 4.5q-8 32 -17.5 64t-19.5 65l58 19q11 -33 20 -66t18 -65
l7 -21q6 -21 19 -54t33 -75.5t47 -85.5q138 -227 322 -227q111 0 173 72t62 200q0 29 -4.5 63t-11.5 68t-14.5 65.5t-14.5 56t-11.5 39t-4.5 15.5l58 19q1 -3 11 -36.5t22 -82t21.5 -104.5t9.5 -103q0 -157 -83 -246q-39 -43 -93 -65t-120 -22z" />
    <glyph glyph-name="three" unicode="3" horiz-adv-x="1376" 
d="M1040 779q-98 0 -165 63q-59 52 -97 153q-9 20 -15 44l-6 -30q-47 -210 -228 -233q-17 -3 -33 -3q-125 0 -207 123q16 -115 24 -223t11 -206.5t3 -186.5q0 -89 -1 -165v-115h-62q0 27 0.5 56t0.5 60q1 117 0.5 261.5t-14.5 310.5t-46.5 348.5t-93.5 375.5l59 19
q23 -74 43 -150l14 -52q9 -37 21 -81t28 -87.5t36.5 -84.5t47.5 -72t60.5 -50t76.5 -19q6 0 12 0.5t12 1.5q72 9 114.5 54t61.5 131q16 75 15.5 167.5t-7.5 184.5l-5 49l62 5l4 -44q10 -100 25.5 -195.5t44.5 -171.5q34 -91 83.5 -133.5t120.5 -42.5q51 0 82.5 25t49.5 64.5
t24.5 87.5t6.5 95q0 29 -4 63t-10 67.5t-13.5 65t-13.5 56t-10 39t-4 15.5l58 17q1 -2 5.5 -18t11 -41.5t13.5 -58t13.5 -68t10.5 -71t4 -66.5q0 -155 -55 -242q-60 -92 -169 -92z" />
    <glyph glyph-name="four" unicode="4" horiz-adv-x="1376" 
d="M1265 771q-3 -2 -50 -11q-42 -8 -112 -18.5t-156 -15.5q-48 -3 -94 -3q-51 0 -98 3.5t-91 10.5q-161 24 -269 94q-24 17 -45.5 35t-40.5 39q17 -118 25.5 -229t12.5 -213t4 -193.5v-170.5q0 -26 -0.5 -51t-0.5 -48h-61v99q1 93 0.5 204t-7 236t-21.5 261.5t-44 281.5
q-20 82 -39 164.5t-46 169.5l58 19q28 -88 49 -172.5t38 -167.5q35 -135 152 -212q63 -41 139.5 -62.5t157.5 -29.5q-38 18 -65 40q-128 98 -128 292q0 66 27.5 127t80.5 109q50 47 111.5 72t125.5 25q37 0 68.5 -7t62.5 -19.5t63 -31t71 -41.5q14 -8 29 -17t32 -19l-30 -53
q-17 10 -32.5 19t-29.5 17q-37 22 -66.5 38.5t-56.5 28t-53.5 17.5t-57.5 6q-50 0 -101 -20.5t-91.5 -57t-66 -86t-25.5 -107.5q0 -163 104 -244q38 -30 83 -47t91.5 -25.5t93.5 -8.5h23q35 0 72.5 2.5t74.5 8.5t64 11q23 5 36 7.5t14 2.5z" />
    <glyph glyph-name="five" unicode="5" horiz-adv-x="1376" 
d="M1129 766q112 -218 112 -411q0 -57 -10 -102t-25.5 -79t-35 -58.5t-37.5 -40.5q-29 -25 -58 -40t-55.5 -22.5t-47.5 -10t-34 -2.5q-50 0 -88.5 11t-67.5 28.5t-48.5 39t-32.5 42.5q-3 5 -5.5 9t-4.5 9q-8 -16 -17 -30.5t-20 -27.5q-69 -83 -191 -83q-76 0 -139.5 27
t-110.5 79q-44 49 -67 113.5t-23 137.5q0 176 81 364q32 75 76.5 150.5t100.5 151.5q40 54 78.5 99t71.5 80.5t58 59.5t38 36q-57 52 -92.5 81t-36.5 30l37 49q3 -2 33.5 -27t79.5 -69.5t111.5 -106t127.5 -136.5q152 -178 242 -351zM938 62q34 0 75.5 13.5t78.5 46.5
t62 89.5t25 143.5q0 102 -31 202t-80 193t-109.5 176t-118.5 151q-44 51 -86.5 95t-81.5 81q-11 -9 -35 -32.5t-57 -58t-71.5 -79.5t-78.5 -99q-42 -57 -85.5 -128t-79.5 -151.5t-58.5 -169t-22.5 -180.5q0 -65 20.5 -119.5t57.5 -93.5t88 -61t113 -22q93 0 144 61
q20 25 33 56t20 64v1q8 40 10 81q1 20 1 38t-1.5 42t-4.5 44l-3 20l61 11q0 -3 3 -24t5 -54q1 -17 1 -36t-1 -50.5t-9 -74.5q2 -13 10.5 -42t32 -59t65 -52.5t108.5 -22.5z" />
    <glyph glyph-name="six" unicode="6" horiz-adv-x="1376" 
d="M1145 1048q-22 -20 -41.5 -42.5t-36.5 -38.5q-2 -2 -19 -22.5t-46 -56t-67.5 -86t-83.5 -112.5q-42 -59 -93 -136t-104 -167t-105.5 -190.5t-98.5 -205.5l-56 24q46 107 100 209.5t108 194t105.5 170t94.5 138.5q11 16 22 31.5t22 29.5l-12 -6q-108 -57 -210 -57h-1
q-72 0 -136 27.5t-114 80.5q-44 46 -65 109q-17 51 -17 106q0 14 1 27q5 73 36.5 136t82.5 104q31 24 64 41t68.5 29.5t73.5 21.5t79 18q9 2 18.5 4t18.5 4l14 -60q-10 -2 -19.5 -4t-18.5 -4q-80 -17 -143.5 -36.5t-116.5 -61.5q-41 -32 -66 -84t-29 -112q-1 -13 -1 -26
q0 -43 15 -88t50 -82q14 -15 34 -31t45.5 -28.5t56.5 -21t69 -8.5h1q94 1 195 57t204 166q17 18 38 40.5t42 43.5z" />
    <glyph glyph-name="seven" unicode="7" horiz-adv-x="1376" 
d="M1271 1378q-54 -65 -107 -144.5t-103.5 -170.5t-97 -192.5t-87.5 -209.5q-36 -96 -65.5 -190t-50 -179.5t-31.5 -160t-11 -131.5h-61q0 57 -11 131.5t-31 160.5t-49.5 179.5t-65.5 189.5q-83 218 -184 402t-210 315l47 39q56 -67 110.5 -148.5t105.5 -174.5t98.5 -196.5
t89.5 -214.5q44 -116 77 -226t54 -209q20 99 53 209t78 226q42 111 89.5 214.5t99 196.5t106 174.5t110.5 148.5z" />
    <glyph glyph-name="eight" unicode="8" horiz-adv-x="1376" 
d="M1224 0q-56 67 -110.5 148.5t-106 174.5t-99 196.5t-89.5 214.5q-45 116 -78 226t-53 209q-21 -99 -54 -209t-77 -226q-42 -111 -89.5 -214.5t-98.5 -196.5t-105.5 -174.5t-110.5 -148.5l-47 39q109 131 210 315t184 402q36 96 65.5 189.5t49.5 179.5t31 160.5t11 131.5
h61q0 -57 11 -131.5t31.5 -160t50 -179.5t65.5 -190q41 -108 87.5 -209.5t97 -192.5t103.5 -170.5t107 -144.5z" />
    <glyph glyph-name="nine" unicode="9" horiz-adv-x="1376" 
d="M916 758q-2 66 -2.5 127t-0.5 114q0 210 -96 309q-24 24 -48 38t-45 21t-37 9t-24 2q-50 0 -99.5 -18.5t-89 -60t-64 -108t-24.5 -163.5q0 -64 18 -109t46 -75t62.5 -47.5t66.5 -26t58 -10.5t38 -2h241zM663 1440q29 0 63.5 -8.5t69 -28.5t67 -53t57.5 -82t40 -115.5
t15 -153.5q0 -191 5 -354t14.5 -291.5t23.5 -219.5t32 -139l-58 -21q-18 49 -31 129t-22 177t-14 204.5t-8 212.5h-242q-10 0 -32 1.5t-50.5 7t-61 16.5t-64.5 31q-24 15 -49.5 38t-46 56.5t-33.5 78t-13 102.5q0 97 25 174.5t74 132.5q45 51 106.5 78t132.5 27z" />
    <glyph glyph-name="colon" unicode=":" horiz-adv-x="391" 
d="M129 53q0 24 17 42t42 18t42.5 -18t17.5 -42q0 -25 -17.5 -42t-42.5 -17t-42 17t-17 42zM134 1086q0 25 17.5 42.5t41.5 17.5q25 0 43 -17.5t18 -42.5t-18 -42t-43 -17q-24 0 -41.5 17t-17.5 42z" />
    <glyph glyph-name="semicolon" unicode=";" horiz-adv-x="391" 
d="M135 1086q0 25 17.5 42.5t41.5 17.5q25 0 43 -17.5t18 -42.5t-18 -42t-43 -17q-24 0 -41.5 17t-17.5 42zM127 -274l-40 34q87 112 95 231l1 180h58v-157q-5 -171 -114 -288z" />
    <glyph glyph-name="less" unicode="&#x3c;" horiz-adv-x="1131" 
d="M167 719l820 -371v-63l-899 407v54l899 406v-63z" />
    <glyph glyph-name="equal" unicode="=" horiz-adv-x="1227" 
d="M1054 906h-896v58h896v-58zM1054 468h-896v58h896v-58z" />
    <glyph glyph-name="greater" unicode="&#x3e;" horiz-adv-x="1131" 
d="M937 718l-815 370v64l899 -406v-54l-899 -407v63z" />
    <glyph glyph-name="question" unicode="?" horiz-adv-x="959" 
d="M424 430q2 120 37 197t132 167t135.5 145t56 114t17.5 142q0 155 -82.5 244.5t-227.5 89.5q-155 0 -243.5 -92.5t-90.5 -237.5h-58q2 174 112.5 280.5t279.5 106.5t268.5 -106.5t99.5 -287.5q0 -123 -48 -219t-188 -223q-142 -111 -142 -320h-58zM399 53q0 24 17 42
t42 18q24 0 42 -18t18 -42q0 -25 -18 -42t-42 -17q-25 0 -42 17t-17 42z" />
    <glyph glyph-name="at" unicode="@" horiz-adv-x="2043" 
d="M1902 562q-5 -166 -58.5 -304.5t-140.5 -208.5t-198 -70q-108 0 -174.5 65.5t-78.5 181.5q-118 -247 -357 -247q-146 0 -218 133q-56 106 -56 266q0 43 4 90q26 270 156 431.5t314 161.5q123 0 212 -71l56 -47l-53 -628q-2 -23 -2 -44q0 -101 47.5 -167t152.5 -66
q144 0 232.5 138.5t100.5 385.5q3 48 3 94q0 372 -185 585t-584 213q-240 0 -437 -120t-309.5 -335t-126.5 -486q-2 -34 -2 -68q0 -232 84.5 -433t267.5 -320.5t430 -119.5q96 0 191 23.5t163 62.5l26 -49q-69 -45 -178 -70.5t-207 -25.5q-268 0 -461.5 121t-289.5 348
q-85 200 -85 460q0 35 2 71q13 301 132 529t328 351t477 123q421 0 632 -247q192 -224 192 -625q0 -40 -2 -82zM682 300q12 -125 67.5 -194t143.5 -69q134 0 221 83t142 250l46 544q-74 88 -211 88q-136 0 -239.5 -107.5t-146.5 -296.5q-27 -118 -27 -222q0 -39 4 -76z" />
    <glyph glyph-name="A" unicode="A" horiz-adv-x="1314" 
d="M1039 467h-766l-174 -467h-64l586 1564h71l585 -1564h-63zM294 525h723l-361 969z" />
    <glyph glyph-name="B" unicode="B" horiz-adv-x="1327" 
d="M215 0v1564h411q253 0 382.5 -102.5t129.5 -298.5q0 -141 -72 -234.5t-203 -119.5q148 -19 246.5 -128.5t98.5 -249.5q0 -200 -129 -315.5t-360 -115.5h-504zM273 772v-714h452q199 0 312 98.5t113 272.5q0 148 -109.5 244t-292.5 99h-475zM273 830h375q214 0 322.5 82.5
t108.5 255.5q0 333 -440 338h-366v-676z" />
    <glyph glyph-name="C" unicode="C" horiz-adv-x="1425" 
d="M1278 479q-22 -242 -166 -371t-391 -129q-167 0 -295 84t-199 239.5t-72 354.5v242q0 200 69.5 357.5t199 243.5t297.5 86q245 0 390 -129t167 -370h-58q-24 216 -150 328.5t-349 112.5q-228 0 -368 -172t-140 -461v-230q0 -185 62 -327t178.5 -221.5t267.5 -79.5
q224 0 350.5 110.5t148.5 331.5h58z" />
    <glyph glyph-name="D" unicode="D" horiz-adv-x="1439" 
d="M215 0v1564h433q181 0 328.5 -86t231 -241t85.5 -348v-203q0 -195 -82 -352t-229 -245t-329 -89h-438zM273 1506v-1448h375q164 0 299 80t211 223.5t77 318.5v201q0 175 -74.5 318t-208 224t-296.5 83h-383z" />
    <glyph glyph-name="E" unicode="E" horiz-adv-x="1253" 
d="M1057 776h-784v-718h894v-58h-952v1564h952v-58h-894v-672h784v-58z" />
    <glyph glyph-name="F" unicode="F" horiz-adv-x="1259" 
d="M1074 769h-801v-769h-58v1564h969v-58h-911v-677h801v-60z" />
    <glyph glyph-name="G" unicode="G" horiz-adv-x="1510" 
d="M1317 168q-59 -82 -207.5 -135.5t-326.5 -53.5q-174 0 -310.5 84.5t-213 239.5t-79.5 350v269q0 192 74.5 344.5t208.5 236t302 83.5q233 0 379.5 -119.5t170.5 -325.5h-58q-29 187 -156 287t-336 100q-236 0 -381.5 -169t-145.5 -444v-249q0 -184 68.5 -328
t192.5 -222.5t284 -78.5q157 0 291 46t185 111v456h-478v59h536v-541z" />
    <glyph glyph-name="H" unicode="H" horiz-adv-x="1545" 
d="M1330 0h-58v776h-999v-776h-58v1564h58v-730h999v730h58v-1564z" />
    <glyph glyph-name="I" unicode="I" horiz-adv-x="574" 
d="M316 0h-58v1564h58v-1564z" />
    <glyph glyph-name="J" unicode="J" horiz-adv-x="1208" 
d="M941 1564h58v-1089q0 -227 -123.5 -361.5t-327.5 -134.5q-219 0 -335 117t-116 335h58q0 -191 98 -292.5t295 -101.5q172 0 281 114.5t112 312.5v1100z" />
    <glyph glyph-name="K" unicode="K" horiz-adv-x="1396" 
d="M523 823l-250 -231v-592h-58v1564h58v-904l258 252l648 652h84l-697 -701l751 -863h-75z" />
    <glyph glyph-name="L" unicode="L" horiz-adv-x="1135" 
d="M274 58h802v-58h-861v1564h59v-1506z" />
    <glyph glyph-name="M" unicode="M" horiz-adv-x="1886" 
d="M298 1564l643 -1479l646 1479h84v-1564h-58v1478l-648 -1478h-47l-645 1471v-1471h-58v1564h83z" />
    <glyph glyph-name="N" unicode="N" horiz-adv-x="1557" 
d="M1342 0h-58l-1010 1465v-1465h-59v1564h59l1010 -1462v1462h58v-1564z" />
    <glyph glyph-name="O" unicode="O" horiz-adv-x="1465" 
d="M1322 665q0 -203 -72.5 -359.5t-206.5 -241.5t-309 -85q-265 0 -428 187.5t-163 507.5v225q0 202 72.5 359t207.5 242.5t309 85.5q175 0 309.5 -85.5t207.5 -243t73 -358.5v-234zM1264 901q0 284 -144 455.5t-388 171.5q-242 0 -386 -170.5t-144 -463.5v-229
q0 -187 65 -330.5t185.5 -220.5t281.5 -77q245 0 387.5 170.5t142.5 466.5v227z" />
    <glyph glyph-name="P" unicode="P" horiz-adv-x="1321" 
d="M273 661v-661h-58v1564h489q239 0 371.5 -121t132.5 -335q0 -213 -129 -329t-368 -118h-438zM273 719h431q211 0 328.5 102t117.5 284q0 189 -117.5 295t-328.5 106h-431v-787z" />
    <glyph glyph-name="Q" unicode="Q" horiz-adv-x="1465" 
d="M1322 665q0 -219 -85 -384.5t-244 -245.5l286 -280l-41 -38l-306 294q-96 -32 -198 -32q-265 0 -428 187.5t-163 507.5v225q0 202 72.5 359t207.5 242.5t309 85.5q175 0 309.5 -85.5t207.5 -243t73 -358.5v-234zM1264 901q0 284 -144 455.5t-388 171.5
q-242 0 -386 -170.5t-144 -463.5v-229q0 -187 65 -330.5t185.5 -220.5t281.5 -77q245 0 387.5 170.5t142.5 466.5v227z" />
    <glyph glyph-name="R" unicode="R" horiz-adv-x="1439" 
d="M810 669h-543v-669h-58v1564h499q235 0 374 -121.5t139 -329.5q0 -160 -99 -280t-253 -149l418 -669v-15h-61zM267 727h494q180 0 291 109.5t111 276.5q0 183 -123 288t-336 105h-437v-779z" />
    <glyph glyph-name="S" unicode="S" horiz-adv-x="1301" 
d="M1152 375q0 100 -47 169t-147.5 122.5t-303.5 109t-304.5 112.5t-148.5 132.5t-47 182.5q0 171 144 277t374 106q151 0 270.5 -59t185 -164.5t65.5 -238.5h-58q0 175 -128.5 289.5t-334.5 114.5t-333 -92t-127 -231q0 -140 110.5 -226t365 -152t372.5 -153
q151 -111 151 -297q0 -118 -67 -209t-189 -140t-275 -49q-170 0 -305 56t-203.5 160.5t-68.5 246.5h58q0 -193 144 -299t375 -106q205 0 338.5 94t133.5 244z" />
    <glyph glyph-name="T" unicode="T" horiz-adv-x="1315" 
d="M1256 1506h-570v-1506h-58v1506h-569v58h1197v-58z" />
    <glyph glyph-name="U" unicode="U" horiz-adv-x="1466" 
d="M1268 1564v-1059q0 -248 -144 -387t-390 -139t-390 139t-145 383v1063h58v-1057q0 -217 130.5 -343.5t346.5 -126.5t346 126.5t130 344.5v1056h58z" />
    <glyph glyph-name="V" unicode="V" horiz-adv-x="1314" 
d="M626 153l31 -95l32 95l525 1411h63l-584 -1564h-71l-584 1564h63z" />
    <glyph glyph-name="W" unicode="W" horiz-adv-x="1993" 
d="M525 97l71 257l370 1210h64l368 -1210l69 -257l73 257l323 1210h63l-421 -1564h-66l-387 1304l-55 166l-53 -166l-391 -1304h-65l-422 1564h64l324 -1210z" />
    <glyph glyph-name="X" unicode="X" horiz-adv-x="1314" 
d="M656 843l505 721h73l-541 -766l562 -798h-72l-527 753l-528 -753h-70l562 798l-542 766h73z" />
    <glyph glyph-name="Y" unicode="Y" horiz-adv-x="1314" 
d="M654 647l548 917h71l-590 -970v-594h-58v594l-590 970h78z" />
    <glyph glyph-name="Z" unicode="Z" horiz-adv-x="1315" 
d="M180 58h1034v-58h-1113v47l998 1460h-955v57h1035v-41z" />
    <glyph glyph-name="bracketleft" unicode="[" horiz-adv-x="472" 
d="M498 1729h-246v-2006h246v-58h-304v2123h304v-59z" />
    <glyph glyph-name="backslash" unicode="\" horiz-adv-x="831" 
d="M61 1564h63l653 -1698h-63z" />
    <glyph glyph-name="bracketright" unicode="]" horiz-adv-x="472" 
d="M-9 1788h304v-2123h-304v58h245v2006h-245v59z" />
    <glyph glyph-name="asciicircum" unicode="^" horiz-adv-x="912" 
d="M447 1485l-286 -702h-63l321 781h56l321 -781h-66z" />
    <glyph glyph-name="underscore" unicode="_" horiz-adv-x="908" 
d="M908 -58h-909v58h909v-58z" />
    <glyph glyph-name="grave" unicode="`" horiz-adv-x="577" 
d="M433 1343h-63l-210 286h71z" />
    <glyph glyph-name="a" unicode="a" horiz-adv-x="1161" 
d="M936 0q-22 74 -22 213q-69 -112 -188 -173t-269 -61q-162 0 -260 87.5t-98 227.5q0 160 144.5 256.5t383.5 98.5h287v170q0 146 -92 226.5t-262 80.5q-159 0 -265.5 -81.5t-106.5 -202.5l-58 2q0 142 124.5 241t305.5 99q188 0 298.5 -94t113.5 -265v-555q0 -192 30 -260
v-10h-66zM457 35q163 0 280.5 73.5t176.5 205.5v276h-268q-250 0 -382 -99q-107 -81 -107 -201q0 -106 85 -180.5t215 -74.5z" />
    <glyph glyph-name="b" unicode="b" horiz-adv-x="1204" 
d="M1073 570q0 -271 -117 -431t-319 -160q-131 0 -234 54t-162 151v-184h-58v1650h58v-699q61 115 161.5 174t232.5 59q204 0 321 -156.5t117 -438.5v-19zM1013 593q0 250 -99.5 391.5t-277.5 141.5q-146 0 -247.5 -75.5t-147.5 -223.5v-533q46 -123 147.5 -190t249.5 -67
q179 0 277 142.5t98 413.5z" />
    <glyph glyph-name="c" unicode="c" horiz-adv-x="1116" 
d="M579 37q158 0 260.5 83.5t112.5 231.5h58q-9 -168 -130.5 -270.5t-300.5 -102.5q-218 0 -346.5 157.5t-128.5 428.5v39q0 264 128.5 422t344.5 158q185 0 305 -110.5t128 -294.5h-58q-8 157 -110.5 252t-264.5 95q-195 0 -305 -140.5t-110 -389.5v-37q0 -244 111.5 -383
t305.5 -139z" />
    <glyph glyph-name="d" unicode="d" horiz-adv-x="1204" 
d="M131 593q0 278 117 434.5t321 156.5q131 0 231.5 -59t163.5 -176v701h58v-1650h-58v186q-60 -99 -163 -153t-234 -54q-202 0 -319 160t-117 439v15zM191 570q0 -247 98 -390t277 -143q144 0 246 63.5t152 187.5v545q-100 293 -396 293q-178 0 -277.5 -141t-99.5 -415z
" />
    <glyph glyph-name="e" unicode="e" horiz-adv-x="1109" 
d="M603 -21q-141 0 -258.5 75.5t-184.5 207.5t-67 293v49q0 161 64.5 295t177.5 209.5t246 75.5q195 0 318.5 -138.5t123.5 -364.5v-61h-872v-64q0 -141 60 -262t164.5 -190t227.5 -69q117 0 199 39.5t145 121.5l41 -29q-130 -188 -385 -188zM581 1126q-170 0 -288 -126.5
t-138 -321.5h810v14q0 118 -50 219.5t-137.5 158t-196.5 56.5z" />
    <glyph glyph-name="f" unicode="f" horiz-adv-x="693" 
d="M273 0v1103h-202v59h202v170q1 161 81 251t223 90q79 0 137 -19l-8 -56q-56 17 -128 17q-115 0 -181 -75t-66 -212v-166h307v-59h-307v-1103h-58z" />
    <glyph glyph-name="g" unicode="g" horiz-adv-x="1206" 
d="M130 593q0 278 117 434.5t321 156.5q130 0 231 -59.5t162 -174.5v212h60v-1142q0 -229 -118.5 -358.5t-321.5 -129.5q-117 0 -214 50.5t-166 144.5l41 39q67 -86 148 -131.5t189 -45.5q179 0 279 109t103 307v179q-60 -99 -162.5 -152t-232.5 -53q-202 0 -319 160
t-117 439v15zM189 570q0 -249 99 -391t277 -142q147 0 250 68t146 191v528q-94 302 -394 302q-179 0 -278.5 -141t-99.5 -415z" />
    <glyph glyph-name="h" unicode="h" horiz-adv-x="1204" 
d="M243 892q57 135 167.5 213.5t244.5 78.5q187 0 278 -106t92 -320v-758h-58v761q-1 186 -76.5 276t-238.5 90q-150 0 -260.5 -107t-148.5 -276v-744h-58v1650h58v-758z" />
    <glyph glyph-name="i" unicode="i" horiz-adv-x="453" 
d="M257 0h-58v1162h58v-1162zM169 1525q0 25 17 43t42 18q24 0 42 -18t18 -43q0 -24 -18 -41.5t-42 -17.5q-25 0 -42 17.5t-17 41.5z" />
    <glyph glyph-name="j" unicode="j" horiz-adv-x="478" 
d="M258 1162v-1301q0 -161 -80.5 -245.5t-225.5 -84.5q-53 0 -106 21l4 56q51 -19 102 -19q120 0 184 71t64 201v1301h58zM175 1525q0 25 17 43t42 18t42.5 -18t17.5 -43q0 -24 -17.5 -41.5t-42.5 -17.5t-42 17.5t-17 41.5z" />
    <glyph glyph-name="k" unicode="k" horiz-adv-x="1041" 
d="M414 628l-3 -2l-168 -145v-481h-58v1650h58v-1105l136 129l529 488h82l-533 -495l567 -667h-75z" />
    <glyph glyph-name="l" unicode="l" horiz-adv-x="453" 
d="M257 0h-58v1650h58v-1650z" />
    <glyph glyph-name="m" unicode="m" horiz-adv-x="1972" 
d="M1016 0h-58v781q-1 175 -76.5 260.5t-241.5 85.5q-191 0 -312 -169q-72 -101 -96 -223v-735h-59v1162h59v-275q59 142 168.5 219.5t242.5 77.5q147 0 239.5 -64.5t121.5 -210.5q52 125 168 200t260 75q188 0 280 -106.5t93 -319.5v-758h-58v754q0 191 -77 283
q-75 90 -234 90h-7q-212 -3 -335 -169q-71 -95 -78 -185v-773z" />
    <glyph glyph-name="n" unicode="n" horiz-adv-x="1204" 
d="M243 892q57 135 167.5 213.5t244.5 78.5q187 0 278 -106t92 -320v-758h-58v761q-1 186 -76.5 276t-238.5 90q-150 0 -260.5 -107t-148.5 -276v-744h-58v1162h58v-270z" />
    <glyph glyph-name="o" unicode="o" horiz-adv-x="1211" 
d="M97 604q0 166 64 299t180.5 207t263.5 74q146 0 262 -72t181 -204t66 -298v-51q0 -168 -63.5 -300t-180 -206t-263.5 -74t-263.5 73t-181 204.5t-65.5 295.5v52zM155 559q0 -145 57.5 -266t160 -188.5t234.5 -67.5q199 0 324 149t125 384v34q0 143 -58 264t-160.5 189.5
t-232.5 68.5q-199 0 -324.5 -151.5t-125.5 -381.5v-34z" />
    <glyph glyph-name="p" unicode="p" horiz-adv-x="1204" 
d="M1073 570q0 -271 -117 -431t-319 -160q-132 0 -235 53.5t-161 147.5v-627h-58v1609h58v-207q60 111 162 170t232 59q204 0 321 -156.5t117 -438.5v-19zM1014 593q0 250 -99.5 391.5t-278.5 141.5q-146 0 -248 -76t-147 -217v-544q45 -120 147.5 -186t249.5 -66
q178 0 277 141.5t99 414.5z" />
    <glyph glyph-name="q" unicode="q" horiz-adv-x="1204" 
d="M131 593q0 278 117 434.5t321 156.5q130 0 232 -59t163 -170v207h58v-1609h-58v627q-63 -97 -165.5 -149t-231.5 -52q-202 0 -319 160t-117 439v15zM191 570q0 -247 98 -390t277 -143q144 0 246 63.5t152 187.5v545q-51 145 -153 219t-243 74q-178 0 -277.5 -141
t-99.5 -415z" />
    <glyph glyph-name="r" unicode="r" horiz-adv-x="736" 
d="M697 1120l-75 7q-148 0 -248 -96t-131 -269v-762h-58v1162h58v-241q47 121 141.5 192t237.5 71q50 0 82 -12z" />
    <glyph glyph-name="s" unicode="s" horiz-adv-x="1095" 
d="M901 285q0 211 -361 288q-217 46 -301.5 118.5t-84.5 199.5t108 210t280 83q188 0 302 -90t114 -242h-59q0 117 -99 195.5t-258 78.5q-152 0 -241 -66.5t-89 -166.5q0 -79 33 -123.5t108.5 -80.5t219.5 -69t227.5 -78.5t121 -107t37.5 -150.5q0 -138 -112.5 -221.5
t-295.5 -83.5q-195 0 -315 88.5t-120 227.5h58q9 -122 108 -190t269 -68q156 0 253 72.5t97 175.5z" />
    <glyph glyph-name="t" unicode="t" horiz-adv-x="696" 
d="M315 1476v-314h264v-59h-264v-825q0 -123 40 -182t135 -59q47 0 115 9l9 -55q-35 -12 -121 -12q-127 0 -181.5 70t-55.5 222v832h-215v59h215v314h59z" />
    <glyph glyph-name="u" unicode="u" horiz-adv-x="1204" 
d="M964 0v188q-52 -97 -151 -153t-250 -56q-190 0 -285 111t-98 324v748h58v-751q3 -184 84.5 -279t238.5 -95q166 0 270.5 78t132.5 230v817h59v-1162h-59z" />
    <glyph glyph-name="v" unicode="v" horiz-adv-x="1051" 
d="M526 92l418 1070h63l-453 -1162h-57l-451 1162h62z" />
    <glyph glyph-name="w" unicode="w" horiz-adv-x="1665" 
d="M393 336l64 -250l340 1076h59l339 -1076l65 250l236 826h68l-338 -1162h-58l-287 873l-55 209l-59 -209l-283 -873h-58l-337 1162h67z" />
    <glyph glyph-name="x" unicode="x" horiz-adv-x="1051" 
d="M525 647l371 515h73l-408 -566l429 -596h-72l-394 546l-393 -546h-72l430 596l-408 566h73z" />
    <glyph glyph-name="y" unicode="y" horiz-adv-x="1051" 
d="M540 90l8 22l402 1050h64l-520 -1364l-26 -64q-83 -203 -277 -203q-62 0 -86 11l-1 55q35 -9 79 -9q91 0 151 53t104 173l71 192l-463 1156h64z" />
    <glyph glyph-name="z" unicode="z" horiz-adv-x="1051" 
d="M172 58h827v-58h-906v47l764 1056h-730v59h809v-51z" />
    <glyph glyph-name="braceleft" unicode="{" horiz-adv-x="709" 
d="M690 -474q-172 54 -257.5 175.5t-85.5 319.5v259q0 303 -269 303v71q269 0 269 301v265q1 199 86.5 320.5t256.5 175.5l16 -49q-301 -98 -301 -459v-244q0 -293 -227 -345q227 -57 227 -345v-246q0 -349 306 -452z" />
    <glyph glyph-name="bar" unicode="|" horiz-adv-x="436" 
d="M252 -290h-58v1854h58v-1854z" />
    <glyph glyph-name="braceright" unicode="}" horiz-adv-x="709" 
d="M0 -424q305 104 305 448v250q0 288 227 345q-227 52 -227 345v243q0 364 -300 460l15 49q172 -54 256.5 -175t86.5 -315v-268q0 -304 269 -304v-71q-269 0 -269 -306v-254q0 -200 -84.5 -321t-258.5 -176z" />
    <glyph glyph-name="asciitilde" unicode="~" horiz-adv-x="1517" 
d="M1338 808q0 -148 -78.5 -240t-209.5 -92q-77 0 -142.5 30t-170 123.5t-158.5 118.5t-119 25q-108 0 -168.5 -69.5t-60.5 -207.5h-59q0 154 76.5 244.5t211.5 90.5q77 0 144.5 -31.5t172 -124.5t158 -117.5t115.5 -24.5q108 0 168 72.5t60 203.5z" />
    <glyph glyph-name="exclamdown" unicode="&#xa1;" horiz-adv-x="436" 
d="M192 748h58v-1134h-58v1134zM272 1126q0 -25 -17.5 -42.5t-41.5 -17.5q-25 0 -42.5 17.5t-17.5 42.5q0 24 17.5 41.5t42.5 17.5q24 0 41.5 -17.5t17.5 -41.5z" />
    <glyph glyph-name="cent" unicode="&#xa2;" horiz-adv-x="1192" 
d="M619 37q158 0 260.5 83.5t112.5 231.5h58q-9 -161 -122 -262.5t-279 -109.5v-243h-59v243q-205 10 -325.5 166t-120.5 419v39q0 258 120.5 413t325.5 166v233h59v-233q175 -12 284 -120.5t117 -283.5h-58q-8 157 -110.5 252t-264.5 95q-195 0 -305 -140.5t-110 -389.5
v-37q0 -244 111 -383t306 -139z" />
    <glyph glyph-name="sterling" unicode="&#xa3;" horiz-adv-x="1235" 
d="M387 717l10 -356v-25q0 -189 -72 -278h814l1 -58h-1034v58h129q52 15 79 102q25 78 25 179v22l-10 356h-227v58h225l-10 341q0 219 106.5 344.5t286.5 125.5q186 0 294 -112t108 -304h-58q0 171 -92 264.5t-252 93.5q-158 0 -246.5 -107.5t-88.5 -304.5l10 -341h397v-58
h-395z" />
    <glyph glyph-name="currency" unicode="&#xa4;" horiz-adv-x="1613" 
d="M1245 168q-87 -90 -201 -139.5t-244 -49.5t-244 49t-202 137l-189 -193l-43 42l193 195q-155 190 -155 444q0 264 165 456l-203 207l43 42l202 -206q184 174 433 174q127 0 237 -47t196 -130l205 210l44 -43l-207 -211q163 -191 163 -452q0 -251 -151 -439l195 -200
l-44 -43zM219 653q0 -165 79 -309t213.5 -226.5t288.5 -82.5t288 82.5t213 226.5t79 309q0 164 -77.5 306.5t-212.5 226t-290 83.5q-154 0 -289.5 -83.5t-213.5 -226t-78 -306.5z" />
    <glyph glyph-name="yen" unicode="&#xa5;" horiz-adv-x="1297" 
d="M1159 1564h71l-525 -838h455v-59h-485v-258h485v-59h-485v-350h-58v350h-484v59h484v258h-484v59h452l-523 838h70l486 -771l25 -55h6l26 55z" />
    <glyph glyph-name="brokenbar" unicode="&#xa6;" horiz-adv-x="428" 
d="M185 -290v808h58v-808h-58zM243 750h-58v814h58v-814z" />
    <glyph glyph-name="section" unicode="&#xa7;" horiz-adv-x="1314" 
d="M1175 463q0 -113 -88 -189t-238 -98q152 -58 215.5 -137t63.5 -199q0 -172 -130.5 -272t-352.5 -100q-243 0 -382 121t-139 342l58 2q0 -193 124.5 -300t338.5 -107q196 0 310 85.5t114 226.5q0 94 -39.5 151.5t-127.5 101.5t-250 87q-291 69 -406.5 165t-115.5 249
q0 117 82.5 193.5t224.5 97.5q-138 55 -198.5 134.5t-60.5 195.5q0 168 132 270.5t354 102.5q231 0 359.5 -121t128.5 -342h-58q0 179 -117.5 292t-312.5 113q-198 0 -313 -83t-115 -229q0 -98 39 -156t127.5 -103t259.5 -93q223 -56 320.5 -106.5t145 -121t47.5 -173.5z
M634 823q-64 14 -116 32q-154 -5 -242 -75.5t-88 -185.5q0 -100 42 -158t143.5 -104.5t370.5 -120.5q169 2 271 71t102 178q0 91 -44 151t-144 108.5t-295 103.5z" />
    <glyph glyph-name="dieresis" unicode="&#xa8;" horiz-adv-x="973" 
d="M198 1526q0 25 17 43t42 18q24 0 42 -18t18 -43q0 -24 -18 -41.5t-42 -17.5q-25 0 -42 17.5t-17 41.5zM676 1526q0 25 17 43t42 18q24 0 42 -18t18 -43q0 -24 -18 -41.5t-42 -17.5q-25 0 -42 17.5t-17 41.5z" />
    <glyph glyph-name="copyright" unicode="&#xa9;" horiz-adv-x="1790" 
d="M1207 662q0 -164 -84 -251t-236 -87q-154 0 -248.5 115.5t-94.5 304.5v81q0 186 95.5 301t247.5 115q154 0 237.5 -89t83.5 -248h-55q0 141 -69 210.5t-197 69.5t-206 -99t-78 -265v-80q0 -160 77.5 -258.5t206.5 -98.5q265 0 265 279h55zM192 783q0 -202 95 -375.5
t258 -272t350 -98.5q189 0 352 100.5t256.5 273t93.5 372.5q0 201 -93.5 372.5t-257 271t-351.5 99.5q-186 0 -349.5 -97.5t-258.5 -270t-95 -375.5zM132 783q0 217 100.5 403t278.5 293t384 107t384 -107t278.5 -293t100.5 -403q0 -214 -98 -398.5t-276 -296t-389 -111.5
q-212 0 -389.5 111.5t-275.5 296t-98 398.5z" />
    <glyph glyph-name="ordfeminine" unicode="&#xaa;" horiz-adv-x="965" 
d="M730 757q-19 58 -23 127q-42 -64 -112.5 -103t-146.5 -39q-130 0 -199 61.5t-69 163.5q0 117 90 183t253 66h183v74q0 112 -53.5 175t-160.5 63q-117 0 -186 -47.5t-69 -145.5h-58q0 110 87 180.5t226 70.5q125 0 199 -77.5t74 -219.5v-339q0 -99 28 -193h-63zM449 801
q75 0 155 50.5t102 114.5v192h-180q-288 0 -288 -187q0 -170 211 -170z" />
    <glyph glyph-name="guillemotleft" unicode="&#xab;" horiz-adv-x="1002" 
d="M436 1012l24 -20q-1 0 -24 -32t-50 -88q-13 -25 -26 -57.5t-23.5 -70t-17.5 -80.5t-7 -89q0 -59 11 -113t27 -99.5t35 -83t35.5 -64t27.5 -40.5l11 -15l-47 -39q-1 2 -26 35.5t-55 93.5q-14 27 -28 62.5t-25.5 76.5t-19 88t-7.5 98t7.5 98t19 88.5t25.5 76.5t28 63
q15 30 29.5 54t26 40.5t18.5 26t8 9.5zM691 904l-24 20l24 -20q-1 -1 -19.5 -26t-40 -69.5t-39.5 -104t-18 -129.5q0 -69 18 -128.5t39.5 -103.5t40 -69t18.5 -26l-47 -39q-2 2 -22.5 30.5t-44.5 77t-43.5 114.5t-19.5 144t19.5 144.5t43.5 115.5t44.5 77.5t22.5 30.5z" />
    <glyph glyph-name="logicalnot" unicode="&#xac;" horiz-adv-x="1183" 
d="M983 425h-58v327h-794v57h852v-384z" />
    <glyph glyph-name="uni00AD" unicode="&#xad;" horiz-adv-x="652" 
d="M570 686h-504v58h504v-58z" />
    <glyph glyph-name="registered" unicode="&#xae;" horiz-adv-x="1798" 
d="M124 783q0 217 100 403t278 293t384 107t384 -107t278.5 -293t100.5 -403q0 -214 -98 -398.5t-275.5 -296t-389.5 -111.5q-211 0 -389 111.5t-275.5 296t-97.5 398.5zM183 783q0 -200 93.5 -372.5t256.5 -273t353 -100.5q189 0 352.5 100.5t257 273t93.5 372.5
q0 201 -93.5 372.5t-257.5 271t-352 99.5q-189 0 -352.5 -99.5t-257 -271t-93.5 -372.5zM696 728v-378h-59v892h257q310 0 310 -258q0 -155 -164 -221q142 -42 142 -224q0 -119 18 -172v-17h-63q-16 39 -16 189q0 99 -41 143t-142 46h-242zM696 788h220q103 0 166 54.5
t63 142.5q0 105 -55.5 150.5t-180.5 47.5h-213v-395z" />
    <glyph glyph-name="macron" unicode="&#xaf;" horiz-adv-x="871" 
d="M772 1507h-673v57h673v-57z" />
    <glyph glyph-name="degree" unicode="&#xb0;" horiz-adv-x="841" 
d="M168 1328q0 104 74 181t179 77q103 0 176 -77t73 -181q0 -106 -73 -180.5t-176 -74.5q-105 0 -179 74t-74 181zM227 1328q0 -83 54.5 -139t139.5 -56q82 0 135.5 54.5t53.5 140.5q0 88 -54 143t-135 55q-84 0 -139 -56.5t-55 -141.5z" />
    <glyph glyph-name="plusminus" unicode="&#xb1;" horiz-adv-x="1157" 
d="M611 865h450v-58h-450v-497h-58v497h-476v58h476v496h58v-496zM1028 -1h-897v58h897v-58z" />
    <glyph glyph-name="uni00B2" unicode="&#xb2;" horiz-adv-x="782" 
d="M699 713h-583v48l312 316q84 83 124 145.5t40 117.5q0 82 -52.5 131t-157.5 49q-109 0 -170.5 -56t-61.5 -147h-58q0 111 81.5 183.5t208.5 72.5q125 0 196.5 -63.5t71.5 -168.5q0 -101 -121 -233l-71 -76l-270 -266h511v-53z" />
    <glyph glyph-name="uni00B3" unicode="&#xb3;" horiz-adv-x="782" 
d="M290 1171h81q108 1 171.5 49t63.5 122q0 82 -57.5 130t-159.5 48q-98 0 -163 -50t-65 -132h-57q0 104 81 169.5t204 65.5q128 0 201.5 -62.5t73.5 -172.5q0 -61 -43 -114t-124 -78q93 -21 140 -75t47 -131q0 -107 -79.5 -173t-210.5 -66q-133 0 -220.5 68.5t-87.5 176.5
h58q0 -83 70 -138t180 -55q111 0 171.5 49.5t60.5 136.5q0 179 -272 179h-64v53z" />
    <glyph glyph-name="acute" unicode="&#xb4;" horiz-adv-x="549" 
d="M338 1629h71l-209 -286h-65z" />
    <glyph glyph-name="mu" unicode="&#xb5;" horiz-adv-x="1204" 
d="M240 1162v-710q3 -203 85 -309t243 -106q189 0 285.5 97t112.5 311v717h58v-1162h-55l-3 218q-103 -239 -388 -239q-123 0 -208 53.5t-130 151.5v-631h-56v1609h56z" />
    <glyph glyph-name="paragraph" unicode="&#xb6;" horiz-adv-x="1016" 
d="M769 0v559h-136q-161 0 -280.5 62t-183 176.5t-63.5 263.5q0 229 143 366t388 137h190v-1564h-58z" />
    <glyph glyph-name="periodcentered" unicode="&#xb7;" horiz-adv-x="507" 
d="M192 758q0 25 17.5 43t41.5 18q25 0 43 -18t18 -43q0 -24 -18 -41.5t-43 -17.5q-24 0 -41.5 17.5t-17.5 41.5z" />
    <glyph glyph-name="cedilla" unicode="&#xb8;" horiz-adv-x="526" 
d="M222 0l-11 -82q190 -17 190 -181q0 -91 -82 -147.5t-224 -56.5l-8 52q109 0 182 42.5t73 109.5q0 60 -41.5 90t-161.5 43l26 130h57z" />
    <glyph glyph-name="uni00B9" unicode="&#xb9;" horiz-adv-x="782" 
d="M465 713h-58v776l-266 -87v57l314 104h10v-850z" />
    <glyph glyph-name="ordmasculine" unicode="&#xba;" horiz-adv-x="982" 
d="M159 1226q0 161 89.5 260.5t237.5 99.5q147 0 237 -99t90 -267v-120q0 -162 -89.5 -260.5t-235.5 -98.5q-147 0 -238 98t-91 266v121zM217 1100q0 -141 71.5 -221t199.5 -80q124 0 196 82.5t72 222.5v122q0 137 -73.5 219.5t-196.5 82.5t-196 -82t-73 -227v-119z" />
    <glyph glyph-name="guillemotright" unicode="&#xbb;" horiz-adv-x="997" 
d="M529 1031q1 0 8 -9.5t18.5 -26t26 -40.5t29.5 -54q13 -28 27.5 -63t26 -76.5t19 -88.5t7.5 -98t-7.5 -98t-19 -88t-26 -76.5t-27.5 -62.5q-30 -60 -55 -93.5t-26 -35.5l-47 39l11 15q11 14 27.5 40.5t35.5 64t35 83t27 99.5t11 113q0 46 -7 89t-17.5 80.5t-23.5 70
t-26 57.5q-27 56 -50 88t-24 32l24 20zM299 943q2 -2 22.5 -30.5t44.5 -77.5t43.5 -115.5t19.5 -144.5t-19.5 -144t-43.5 -114.5t-44.5 -77t-22.5 -30.5l-47 39q0 1 18.5 26t40 69t39.5 103.5t18 128.5q0 70 -18 129.5t-40 104t-40 69.5t-19 26l24 20l-24 -20z" />
    <glyph glyph-name="onequarter" unicode="&#xbc;" horiz-adv-x="1576" 
d="M480 713h-58v776l-266 -87v57l315 104h9v-850zM415 149l-49 34l764 1222l48 -33zM1316 272h158v-53h-158v-219h-57v219h-454l-1 35l447 594h65v-576zM879 272h380v509l-47 -76z" />
    <glyph glyph-name="onehalf" unicode="&#xbd;" horiz-adv-x="1620" 
d="M368 149l-48 34l764 1222l48 -33zM455 713h-58v776l-266 -87v57l315 104h9v-850zM1495 0h-583v47l312 317q84 83 124 145t40 117q0 83 -52.5 132t-157.5 49q-109 0 -170.5 -56t-61.5 -147h-58q0 110 81.5 182.5t208.5 72.5q125 0 196.5 -63t71.5 -169q0 -101 -121 -233
l-71 -75l-270 -266h511v-53z" />
    <glyph glyph-name="threequarters" unicode="&#xbe;" horiz-adv-x="1704" 
d="M589 149l-49 34l764 1222l48 -33zM1466 272h158v-53h-158v-219h-57v219h-454l-1 35l448 594h64v-576zM1029 272h380v509l-47 -76zM337 1171h81q108 1 171.5 49t63.5 122q0 82 -57.5 130t-159.5 48q-98 0 -163 -50t-65 -132h-57q0 104 81.5 169.5t203.5 65.5
q128 0 201.5 -62.5t73.5 -172.5q0 -61 -43 -114t-123 -78q92 -21 139.5 -75t47.5 -131q0 -107 -79.5 -173t-210.5 -66q-134 0 -221.5 68.5t-87.5 176.5h58q0 -83 70 -138t181 -55q110 0 171 49.5t61 136.5q0 179 -272 179h-65v53z" />
    <glyph glyph-name="questiondown" unicode="&#xbf;" horiz-adv-x="980" 
d="M552 747q-2 -110 -12 -149t-36 -74.5t-86 -90.5l-84 -82q-85 -85 -122.5 -173t-37.5 -196q0 -160 85 -247t236 -87q148 0 233.5 88.5t90.5 240.5h58q-3 -179 -105.5 -282.5t-276.5 -103.5q-177 0 -278 108t-101 285q0 130 56 239t216 255q55 43 79 87t26 107l1 75h58z
M578 1124q0 -25 -17 -43t-42 -18t-42.5 18t-17.5 43q0 24 17.5 41.5t42.5 17.5t42 -17.5t17 -41.5z" />
    <glyph glyph-name="Agrave" unicode="&#xc0;" horiz-adv-x="1314" 
d="M1039 467h-766l-174 -467h-64l586 1564h71l585 -1564h-63zM294 525h723l-361 969zM704 1685h-64l-209 286h71z" />
    <glyph glyph-name="Aacute" unicode="&#xc1;" horiz-adv-x="1314" 
d="M1039 467h-766l-174 -467h-64l586 1564h71l585 -1564h-63zM294 525h723l-361 969zM817 1971h71l-209 -286h-65z" />
    <glyph glyph-name="Acircumflex" unicode="&#xc2;" horiz-adv-x="1314" 
d="M1039 467h-766l-174 -467h-64l586 1564h71l585 -1564h-63zM294 525h723l-361 969zM930 1711v-11h-73l-201 211l-198 -211h-69v16l247 256h43z" />
    <glyph glyph-name="Atilde" unicode="&#xc3;" horiz-adv-x="1314" 
d="M1039 467h-766l-174 -467h-64l586 1564h71l585 -1564h-63zM294 525h723l-361 969zM1010 1940q0 -88 -54.5 -144t-134.5 -56q-87 0 -164.5 67.5t-144.5 67.5q-60 0 -95 -37t-35 -98h-59q0 86 54 139.5t135 53.5q84 0 165 -67t144 -67q58 0 94 39t36 102h59z" />
    <glyph glyph-name="Adieresis" unicode="&#xc4;" horiz-adv-x="1314" 
d="M1039 467h-766l-174 -467h-64l586 1564h71l585 -1564h-63zM294 525h723l-361 969zM372 1869q0 25 17 42.5t42 17.5q24 0 42 -17.5t18 -42.5t-18 -42t-42 -17q-25 0 -42 17t-17 42zM850 1869q0 25 17 42.5t42 17.5q24 0 42 -17.5t18 -42.5t-18 -42t-42 -17q-25 0 -42 17
t-17 42z" />
    <glyph glyph-name="Aring" unicode="&#xc5;" horiz-adv-x="1314" 
d="M1039 467h-766l-174 -467h-64l586 1564h71l585 -1564h-63zM294 525h723l-361 969zM660 2014q77 0 130 -54.5t53 -132.5q0 -77 -53 -129.5t-130 -52.5q-75 0 -129.5 51t-54.5 131q0 81 54 134t130 53zM534 1827q0 -56 35.5 -90t90.5 -34q54 0 89.5 34t35.5 90
q0 58 -35.5 93.5t-89.5 35.5q-55 0 -90.5 -35.5t-35.5 -93.5z" />
    <glyph glyph-name="AE" unicode="&#xc6;" horiz-adv-x="1951" 
d="M1899 0h-808l-19 457h-673l-275 -457h-70l946 1564h834v-58h-748l28 -662h632v-58h-630l30 -728h753v-58zM433 513h637l-42 989z" />
    <glyph glyph-name="Ccedilla" unicode="&#xc7;" horiz-adv-x="1425" 
d="M1278 479q-22 -242 -166 -371t-391 -129q-167 0 -295 84t-199 239.5t-72 354.5v242q0 200 69.5 357.5t199 243.5t297.5 86q245 0 390 -129t167 -370h-58q-24 216 -150 328.5t-349 112.5q-228 0 -368 -172t-140 -461v-230q0 -185 62 -327t178.5 -221.5t267.5 -79.5
q224 0 350.5 110.5t148.5 331.5h58zM758 -10l-11 -81q190 -17 190 -182q0 -91 -82 -147.5t-224 -56.5l-8 53q109 0 182 42.5t73 108.5q0 60 -41.5 90t-161.5 43l26 130h57z" />
    <glyph glyph-name="Egrave" unicode="&#xc8;" horiz-adv-x="1253" 
d="M1057 776h-784v-718h894v-58h-952v1564h952v-58h-894v-672h784v-58zM711 1685h-63l-210 286h71z" />
    <glyph glyph-name="Eacute" unicode="&#xc9;" horiz-adv-x="1253" 
d="M1057 776h-784v-718h894v-58h-952v1564h952v-58h-894v-672h784v-58zM825 1971h71l-210 -286h-64z" />
    <glyph glyph-name="Ecircumflex" unicode="&#xca;" horiz-adv-x="1253" 
d="M1057 776h-784v-718h894v-58h-952v1564h952v-58h-894v-672h784v-58zM938 1711v-11h-73l-201 211l-199 -211h-69v16l247 256h43z" />
    <glyph glyph-name="Edieresis" unicode="&#xcb;" horiz-adv-x="1253" 
d="M1057 776h-784v-718h894v-58h-952v1564h952v-58h-894v-672h784v-58zM379 1869q0 25 17.5 42.5t41.5 17.5q25 0 42.5 -17.5t17.5 -42.5t-17.5 -42t-42.5 -17q-24 0 -41.5 17t-17.5 42zM857 1869q0 25 17.5 42.5t41.5 17.5q25 0 42.5 -17.5t17.5 -42.5t-17.5 -42t-42.5 -17
q-24 0 -41.5 17t-17.5 42z" />
    <glyph glyph-name="Igrave" unicode="&#xcc;" horiz-adv-x="574" 
d="M316 0h-58v1564h58v-1564zM335 1685h-63l-210 286h71z" />
    <glyph glyph-name="Iacute" unicode="&#xcd;" horiz-adv-x="574" 
d="M316 0h-58v1564h58v-1564zM448 1971h71l-210 -286h-64z" />
    <glyph glyph-name="Icircumflex" unicode="&#xce;" horiz-adv-x="574" 
d="M316 0h-58v1564h58v-1564zM562 1711v-11h-73l-201 211l-199 -211h-69v16l247 256h43z" />
    <glyph glyph-name="Idieresis" unicode="&#xcf;" horiz-adv-x="574" 
d="M316 0h-58v1564h58v-1564zM3 1869q0 25 17.5 42.5t41.5 17.5q25 0 42.5 -17.5t17.5 -42.5t-17.5 -42t-42.5 -17q-24 0 -41.5 17t-17.5 42zM481 1869q0 25 17.5 42.5t41.5 17.5q25 0 42.5 -17.5t17.5 -42.5t-17.5 -42t-42.5 -17q-24 0 -41.5 17t-17.5 42z" />
    <glyph glyph-name="Eth" unicode="&#xd0;" horiz-adv-x="1472" 
d="M247 0v766h-183v58h183v740h433q182 0 329 -86t230.5 -241t86.5 -348v-203q0 -195 -82.5 -352t-229.5 -245t-329 -89h-438zM695 766h-390v-708h364q266 0 432.5 178.5t166.5 458.5v186q0 175 -75 318t-208.5 224t-295.5 83h-384v-682h390v-58z" />
    <glyph glyph-name="Ntilde" unicode="&#xd1;" horiz-adv-x="1557" 
d="M1342 0h-58l-1010 1465v-1465h-59v1564h59l1010 -1462v1462h58v-1564zM1132 1940q0 -88 -54 -144t-135 -56q-87 0 -164.5 67.5t-143.5 67.5q-60 0 -95 -37t-35 -98h-59q0 86 53.5 139.5t135.5 53.5q84 0 165 -67t143 -67q58 0 94 39t36 102h59z" />
    <glyph glyph-name="Ograve" unicode="&#xd2;" horiz-adv-x="1465" 
d="M1322 665q0 -203 -72.5 -359.5t-206.5 -241.5t-309 -85q-265 0 -428 187.5t-163 507.5v225q0 202 72.5 359t207.5 242.5t309 85.5q175 0 309.5 -85.5t207.5 -243t73 -358.5v-234zM1264 901q0 284 -144 455.5t-388 171.5q-242 0 -386 -170.5t-144 -463.5v-229
q0 -187 65 -330.5t185.5 -220.5t281.5 -77q245 0 387.5 170.5t142.5 466.5v227zM772 1708h-63l-209 286h70z" />
    <glyph glyph-name="Oacute" unicode="&#xd3;" horiz-adv-x="1465" 
d="M1322 665q0 -203 -72.5 -359.5t-206.5 -241.5t-309 -85q-265 0 -428 187.5t-163 507.5v225q0 202 72.5 359t207.5 242.5t309 85.5q175 0 309.5 -85.5t207.5 -243t73 -358.5v-234zM1264 901q0 284 -144 455.5t-388 171.5q-242 0 -386 -170.5t-144 -463.5v-229
q0 -187 65 -330.5t185.5 -220.5t281.5 -77q245 0 387.5 170.5t142.5 466.5v227zM886 1994h71l-209 -286h-65z" />
    <glyph glyph-name="Ocircumflex" unicode="&#xd4;" horiz-adv-x="1465" 
d="M1322 665q0 -203 -72.5 -359.5t-206.5 -241.5t-309 -85q-265 0 -428 187.5t-163 507.5v225q0 202 72.5 359t207.5 242.5t309 85.5q175 0 309.5 -85.5t207.5 -243t73 -358.5v-234zM1264 901q0 284 -144 455.5t-388 171.5q-242 0 -386 -170.5t-144 -463.5v-229
q0 -187 65 -330.5t185.5 -220.5t281.5 -77q245 0 387.5 170.5t142.5 466.5v227zM999 1711v-11h-73l-201 211l-199 -211h-68v16l247 256h43z" />
    <glyph glyph-name="Otilde" unicode="&#xd5;" horiz-adv-x="1465" 
d="M1322 665q0 -203 -72.5 -359.5t-206.5 -241.5t-309 -85q-265 0 -428 187.5t-163 507.5v225q0 202 72.5 359t207.5 242.5t309 85.5q175 0 309.5 -85.5t207.5 -243t73 -358.5v-234zM1264 901q0 284 -144 455.5t-388 171.5q-242 0 -386 -170.5t-144 -463.5v-229
q0 -187 65 -330.5t185.5 -220.5t281.5 -77q245 0 387.5 170.5t142.5 466.5v227zM1079 1963q0 -88 -54.5 -144t-135.5 -56q-87 0 -164 67t-144 67q-60 0 -95 -36.5t-35 -97.5h-59q0 86 54 139t135 53q84 0 165 -66.5t143 -66.5q58 0 94 38.5t36 102.5h60z" />
    <glyph glyph-name="Odieresis" unicode="&#xd6;" horiz-adv-x="1465" 
d="M1322 665q0 -203 -72.5 -359.5t-206.5 -241.5t-309 -85q-265 0 -428 187.5t-163 507.5v225q0 202 72.5 359t207.5 242.5t309 85.5q175 0 309.5 -85.5t207.5 -243t73 -358.5v-234zM1264 901q0 284 -144 455.5t-388 171.5q-242 0 -386 -170.5t-144 -463.5v-229
q0 -187 65 -330.5t185.5 -220.5t281.5 -77q245 0 387.5 170.5t142.5 466.5v227zM440 1892q0 24 17.5 42t42.5 18q24 0 42 -18t18 -42q0 -25 -18 -42t-42 -17q-25 0 -42.5 17t-17.5 42zM918 1892q0 24 17.5 42t42.5 18q24 0 42 -18t18 -42q0 -25 -18 -42t-42 -17
q-25 0 -42.5 17t-17.5 42z" />
    <glyph glyph-name="multiply" unicode="&#xd7;" horiz-adv-x="1130" 
d="M105 39l413 422l-384 391l42 42l383 -391l383 391l42 -42l-384 -391l414 -422l-42 -40l-412 420l-413 -420z" />
    <glyph glyph-name="Oslash" unicode="&#xd8;" horiz-adv-x="1465" 
d="M1322 665q0 -203 -72.5 -359.5t-206.5 -241.5t-309 -85q-210 0 -359 120l-114 -180h-71l140 221q-187 189 -187 536v223q0 202 72.5 359t207.5 242.5t309 85.5q248 0 410 -169l119 189h71l-150 -236q139 -185 140 -469v-236zM202 665q0 -305 160 -476l748 1178
q-142 161 -378 161q-242 0 -386 -170.5t-144 -463.5v-229zM1264 901q0 255 -115 417l-743 -1171q133 -110 328 -110q245 0 387.5 170.5t142.5 466.5v227z" />
    <glyph glyph-name="Ugrave" unicode="&#xd9;" horiz-adv-x="1466" 
d="M1268 1564v-1059q0 -248 -144 -387t-390 -139t-390 139t-145 383v1063h58v-1057q0 -217 130.5 -343.5t346.5 -126.5t346 126.5t130 344.5v1056h58zM795 1685h-63l-210 286h71z" />
    <glyph glyph-name="Uacute" unicode="&#xda;" horiz-adv-x="1466" 
d="M1268 1564v-1059q0 -248 -144 -387t-390 -139t-390 139t-145 383v1063h58v-1057q0 -217 130.5 -343.5t346.5 -126.5t346 126.5t130 344.5v1056h58zM909 1971h71l-210 -286h-64z" />
    <glyph glyph-name="Ucircumflex" unicode="&#xdb;" horiz-adv-x="1466" 
d="M1268 1564v-1059q0 -248 -144 -387t-390 -139t-390 139t-145 383v1063h58v-1057q0 -217 130.5 -343.5t346.5 -126.5t346 126.5t130 344.5v1056h58zM1022 1711v-11h-73l-201 211l-199 -211h-69v16l247 256h43z" />
    <glyph glyph-name="Udieresis" unicode="&#xdc;" horiz-adv-x="1466" 
d="M1268 1564v-1059q0 -248 -144 -387t-390 -139t-390 139t-145 383v1063h58v-1057q0 -217 130.5 -343.5t346.5 -126.5t346 126.5t130 344.5v1056h58zM463 1869q0 25 17 42.5t42 17.5t42.5 -17.5t17.5 -42.5t-17.5 -42t-42.5 -17t-42 17t-17 42zM941 1869q0 25 17 42.5
t42 17.5t42.5 -17.5t17.5 -42.5t-17.5 -42t-42.5 -17t-42 17t-17 42z" />
    <glyph glyph-name="Yacute" unicode="&#xdd;" horiz-adv-x="1314" 
d="M654 647l548 917h71l-590 -970v-594h-58v594l-590 970h78zM813 1959h71l-209 -285h-65z" />
    <glyph glyph-name="Thorn" unicode="&#xde;" horiz-adv-x="1309" 
d="M273 1564v-336h405q221 -2 349 -121.5t128 -313.5t-126.5 -312t-342.5 -122h-413v-359h-58v1564h58zM273 1170v-753h398q195 0 310.5 105t115.5 269t-111.5 269.5t-297.5 109.5h-415z" />
    <glyph glyph-name="germandbls" unicode="&#xdf;" horiz-adv-x="1271" 
d="M234 0h-58v1228q0 205 91 313t263 108q135 0 234.5 -85.5t99.5 -213.5q0 -107 -64 -222t-64 -237q0 -64 45.5 -121t154 -138t157 -154t48.5 -159q0 -97 -56 -174.5t-149.5 -122.5t-188.5 -45q-98 0 -196.5 30t-139.5 66l27 53q48 -38 135 -65t165 -27q145 0 245 85
t100 210q0 70 -44.5 131t-156 142.5t-158 147.5t-46.5 143q0 119 60.5 240.5t60.5 218.5t-78.5 168t-180.5 71q-302 0 -306 -352v-1239z" />
    <glyph glyph-name="agrave" unicode="&#xe0;" horiz-adv-x="1161" 
d="M936 0q-22 74 -22 213q-69 -112 -188 -173t-269 -61q-162 0 -260 87.5t-98 227.5q0 160 144.5 256.5t383.5 98.5h287v170q0 146 -92 226.5t-262 80.5q-159 0 -265.5 -81.5t-106.5 -202.5l-58 2q0 142 124.5 241t305.5 99q188 0 298.5 -94t113.5 -265v-555q0 -192 30 -260
v-10h-66zM457 35q163 0 280.5 73.5t176.5 205.5v276h-268q-250 0 -382 -99q-107 -81 -107 -201q0 -106 85 -180.5t215 -74.5zM666 1343h-63l-210 286h71z" />
    <glyph glyph-name="aacute" unicode="&#xe1;" horiz-adv-x="1161" 
d="M936 0q-22 74 -22 213q-69 -112 -188 -173t-269 -61q-162 0 -260 87.5t-98 227.5q0 160 144.5 256.5t383.5 98.5h287v170q0 146 -92 226.5t-262 80.5q-159 0 -265.5 -81.5t-106.5 -202.5l-58 2q0 142 124.5 241t305.5 99q188 0 298.5 -94t113.5 -265v-555q0 -192 30 -260
v-10h-66zM457 35q163 0 280.5 73.5t176.5 205.5v276h-268q-250 0 -382 -99q-107 -81 -107 -201q0 -106 85 -180.5t215 -74.5zM780 1629h71l-210 -286h-64z" />
    <glyph glyph-name="acircumflex" unicode="&#xe2;" horiz-adv-x="1161" 
d="M936 0q-22 74 -22 213q-69 -112 -188 -173t-269 -61q-162 0 -260 87.5t-98 227.5q0 160 144.5 256.5t383.5 98.5h287v170q0 146 -92 226.5t-262 80.5q-159 0 -265.5 -81.5t-106.5 -202.5l-58 2q0 142 124.5 241t305.5 99q188 0 298.5 -94t113.5 -265v-555q0 -192 30 -260
v-10h-66zM457 35q163 0 280.5 73.5t176.5 205.5v276h-268q-250 0 -382 -99q-107 -81 -107 -201q0 -106 85 -180.5t215 -74.5zM893 1369v-11h-73l-201 210l-199 -210h-69v15l247 257h43z" />
    <glyph glyph-name="atilde" unicode="&#xe3;" horiz-adv-x="1161" 
d="M936 0q-22 74 -22 213q-69 -112 -188 -173t-269 -61q-162 0 -260 87.5t-98 227.5q0 160 144.5 256.5t383.5 98.5h287v170q0 146 -92 226.5t-262 80.5q-159 0 -265.5 -81.5t-106.5 -202.5l-58 2q0 142 124.5 241t305.5 99q188 0 298.5 -94t113.5 -265v-555q0 -192 30 -260
v-10h-66zM457 35q163 0 280.5 73.5t176.5 205.5v276h-268q-250 0 -382 -99q-107 -81 -107 -201q0 -106 85 -180.5t215 -74.5zM972 1596q0 -88 -54 -144t-135 -56q-87 0 -164.5 67.5t-143.5 67.5q-60 0 -95 -36.5t-35 -98.5h-59q0 86 53.5 139.5t135.5 53.5q84 0 165 -66.5
t143 -66.5q58 0 94 38.5t36 101.5h59z" />
    <glyph glyph-name="adieresis" unicode="&#xe4;" horiz-adv-x="1161" 
d="M936 0q-22 74 -22 213q-69 -112 -188 -173t-269 -61q-162 0 -260 87.5t-98 227.5q0 160 144.5 256.5t383.5 98.5h287v170q0 146 -92 226.5t-262 80.5q-159 0 -265.5 -81.5t-106.5 -202.5l-58 2q0 142 124.5 241t305.5 99q188 0 298.5 -94t113.5 -265v-555q0 -192 30 -260
v-10h-66zM457 35q163 0 280.5 73.5t176.5 205.5v276h-268q-250 0 -382 -99q-107 -81 -107 -201q0 -106 85 -180.5t215 -74.5zM334 1526q0 25 17 43t42 18t42.5 -18t17.5 -43q0 -24 -17.5 -41.5t-42.5 -17.5t-42 17.5t-17 41.5zM812 1526q0 25 17 43t42 18t42.5 -18t17.5 -43
q0 -24 -17.5 -41.5t-42.5 -17.5t-42 17.5t-17 41.5z" />
    <glyph glyph-name="aring" unicode="&#xe5;" horiz-adv-x="1161" 
d="M936 0q-22 74 -22 213q-69 -112 -188 -173t-269 -61q-162 0 -260 87.5t-98 227.5q0 160 144.5 256.5t383.5 98.5h287v170q0 146 -92 226.5t-262 80.5q-159 0 -265.5 -81.5t-106.5 -202.5l-58 2q0 142 124.5 241t305.5 99q188 0 298.5 -94t113.5 -265v-555q0 -192 30 -260
v-10h-66zM457 35q163 0 280.5 73.5t176.5 205.5v276h-268q-250 0 -382 -99q-107 -81 -107 -201q0 -106 85 -180.5t215 -74.5zM622 1671q77 0 130.5 -54.5t53.5 -131.5q0 -78 -53.5 -130.5t-130.5 -52.5q-74 0 -129 51t-55 132q0 80 54.5 133t129.5 53zM496 1485
q0 -56 35.5 -90.5t90.5 -34.5t90.5 34.5t35.5 90.5q0 58 -35.5 93t-90.5 35t-90.5 -35t-35.5 -93z" />
    <glyph glyph-name="ae" unicode="&#xe6;" horiz-adv-x="1864" 
d="M1362 -21q-158 0 -266 72.5t-164 195.5v-13h1q-51 -115 -174 -185t-278 -70q-180 0 -280.5 88t-100.5 238q0 170 118.5 270t335.5 102h319v96q0 168 -77 260.5t-236 92.5q-170 0 -271.5 -81.5t-101.5 -216.5l-57 8q0 156 120 252t310 96q151 0 245 -79.5t119 -230.5
q60 148 171 229t251 81q200 0 317 -125.5t117 -353.5v-85h-845v-83q0 -234 112 -367t315 -133q219 0 357 139l32 -45q-85 -85 -178 -118.5t-211 -33.5zM480 34q87 0 171 31t145.5 81.5t76.5 95.5v376h-323q-179 -4 -285 -89.5t-106 -227.5q0 -125 82 -196t239 -71z
M1346 1126q-164 0 -276 -122t-132 -325h784v34q0 187 -100.5 300t-275.5 113z" />
    <glyph glyph-name="ccedilla" unicode="&#xe7;" horiz-adv-x="1116" 
d="M579 37q158 0 260.5 83.5t112.5 231.5h58q-9 -168 -130.5 -270.5t-300.5 -102.5q-218 0 -346.5 157.5t-128.5 428.5v39q0 264 128.5 422t344.5 158q185 0 305 -110.5t128 -294.5h-58q-8 157 -110.5 252t-264.5 95q-195 0 -305 -140.5t-110 -389.5v-37q0 -244 111.5 -383
t305.5 -139zM618 -10l-12 -81q190 -17 190 -182q0 -91 -81.5 -147.5t-224.5 -56.5l-8 53q109 0 182 42.5t73 108.5q0 60 -41.5 90t-161.5 43l27 130h57z" />
    <glyph glyph-name="egrave" unicode="&#xe8;" horiz-adv-x="1109" 
d="M603 -21q-141 0 -258.5 75.5t-184.5 207.5t-67 293v49q0 161 64.5 295t177.5 209.5t246 75.5q195 0 318.5 -138.5t123.5 -364.5v-61h-872v-64q0 -141 60 -262t164.5 -190t227.5 -69q117 0 199 39.5t145 121.5l41 -29q-130 -188 -385 -188zM581 1126q-170 0 -288 -126.5
t-138 -321.5h810v14q0 118 -50 219.5t-137.5 158t-196.5 56.5zM655 1342h-63l-210 285h71z" />
    <glyph glyph-name="eacute" unicode="&#xe9;" horiz-adv-x="1109" 
d="M603 -21q-141 0 -258.5 75.5t-184.5 207.5t-67 293v49q0 161 64.5 295t177.5 209.5t246 75.5q195 0 318.5 -138.5t123.5 -364.5v-61h-872v-64q0 -141 60 -262t164.5 -190t227.5 -69q117 0 199 39.5t145 121.5l41 -29q-130 -188 -385 -188zM581 1126q-170 0 -288 -126.5
t-138 -321.5h810v14q0 118 -50 219.5t-137.5 158t-196.5 56.5zM769 1627h71l-209 -285h-65z" />
    <glyph glyph-name="ecircumflex" unicode="&#xea;" horiz-adv-x="1109" 
d="M603 -21q-141 0 -258.5 75.5t-184.5 207.5t-67 293v49q0 161 64.5 295t177.5 209.5t246 75.5q195 0 318.5 -138.5t123.5 -364.5v-61h-872v-64q0 -141 60 -262t164.5 -190t227.5 -69q117 0 199 39.5t145 121.5l41 -29q-130 -188 -385 -188zM581 1126q-170 0 -288 -126.5
t-138 -321.5h810v14q0 118 -50 219.5t-137.5 158t-196.5 56.5zM882 1369v-11h-73l-201 210l-199 -210h-68v15l247 257h43z" />
    <glyph glyph-name="edieresis" unicode="&#xeb;" horiz-adv-x="1109" 
d="M603 -21q-141 0 -258.5 75.5t-184.5 207.5t-67 293v49q0 161 64.5 295t177.5 209.5t246 75.5q195 0 318.5 -138.5t123.5 -364.5v-61h-872v-64q0 -141 60 -262t164.5 -190t227.5 -69q117 0 199 39.5t145 121.5l41 -29q-130 -188 -385 -188zM581 1126q-170 0 -288 -126.5
t-138 -321.5h810v14q0 118 -50 219.5t-137.5 158t-196.5 56.5zM323 1525q0 25 17.5 43t41.5 18q25 0 43 -18t18 -43q0 -24 -18 -41.5t-43 -17.5q-24 0 -41.5 17.5t-17.5 41.5zM801 1525q0 25 17.5 43t41.5 18q25 0 43 -18t18 -43q0 -24 -18 -41.5t-43 -17.5
q-24 0 -41.5 17.5t-17.5 41.5z" />
    <glyph glyph-name="igrave" unicode="&#xec;" horiz-adv-x="436" 
d="M252 0h-58v1162h58v-1162zM272 1318h-64l-209 286h71z" />
    <glyph glyph-name="iacute" unicode="&#xed;" horiz-adv-x="436" 
d="M252 0h-58v1162h58v-1162zM385 1604h70l-209 -286h-64z" />
    <glyph glyph-name="icircumflex" unicode="&#xee;" horiz-adv-x="436" 
d="M252 0h-58v1162h58v-1162zM498 1369v-11h-73l-200 210l-199 -210h-69v15l247 257h43z" />
    <glyph glyph-name="idieresis" unicode="&#xef;" horiz-adv-x="436" 
d="M252 0h-58v1162h58v-1162zM-60 1502q0 24 17 42t42 18t42.5 -18t17.5 -42q0 -25 -17.5 -42t-42.5 -17t-42 17t-17 42zM418 1502q0 24 17 42t42 18t42.5 -18t17.5 -42q0 -25 -17.5 -42t-42.5 -17t-42 17t-17 42z" />
    <glyph glyph-name="eth" unicode="&#xf0;" horiz-adv-x="1271" 
d="M862 1405q130 -134 193 -316t63 -428v-86q0 -171 -55 -307t-157 -212.5t-230 -76.5q-139 0 -251 67.5t-175.5 187.5t-63.5 266q0 248 121.5 386t338.5 138q121 0 230 -48t174 -138q-22 180 -84.5 310t-157.5 227l-253 -141l-30 52l237 132q-149 130 -399 222l22 54
q270 -99 431 -246l217 121l32 -51zM1060 663l-1 59q-49 113 -160 176t-253 63q-191 0 -296 -121.5t-105 -339.5q0 -124 55.5 -231.5t154 -167.5t225.5 -60q168 0 272 143.5t108 374.5v104z" />
    <glyph glyph-name="ntilde" unicode="&#xf1;" horiz-adv-x="1204" 
d="M243 892q57 135 167.5 213.5t244.5 78.5q187 0 278 -106t92 -320v-758h-58v761q-1 186 -76.5 276t-238.5 90q-150 0 -260.5 -107t-148.5 -276v-744h-58v1162h58v-270zM973 1594q0 -88 -54 -144t-135 -56q-87 0 -164.5 67.5t-143.5 67.5q-60 0 -95 -36.5t-35 -98.5h-59
q0 86 53.5 139.5t135.5 53.5q84 0 165 -67t143 -67q58 0 94 39t36 102h59z" />
    <glyph glyph-name="ograve" unicode="&#xf2;" horiz-adv-x="1211" 
d="M97 604q0 166 64 299t180.5 207t263.5 74q146 0 262 -72t181 -204t66 -298v-51q0 -168 -63.5 -300t-180 -206t-263.5 -74t-263.5 73t-181 204.5t-65.5 295.5v52zM155 559q0 -145 57.5 -266t160 -188.5t234.5 -67.5q199 0 324 149t125 384v34q0 143 -58 264t-160.5 189.5
t-232.5 68.5q-199 0 -324.5 -151.5t-125.5 -381.5v-34zM655 1341h-63l-210 285h71z" />
    <glyph glyph-name="oacute" unicode="&#xf3;" horiz-adv-x="1211" 
d="M97 604q0 166 64 299t180.5 207t263.5 74q146 0 262 -72t181 -204t66 -298v-51q0 -168 -63.5 -300t-180 -206t-263.5 -74t-263.5 73t-181 204.5t-65.5 295.5v52zM155 559q0 -145 57.5 -266t160 -188.5t234.5 -67.5q199 0 324 149t125 384v34q0 143 -58 264t-160.5 189.5
t-232.5 68.5q-199 0 -324.5 -151.5t-125.5 -381.5v-34zM769 1626h71l-209 -285h-65z" />
    <glyph glyph-name="ocircumflex" unicode="&#xf4;" horiz-adv-x="1211" 
d="M97 604q0 166 64 299t180.5 207t263.5 74q146 0 262 -72t181 -204t66 -298v-51q0 -168 -63.5 -300t-180 -206t-263.5 -74t-263.5 73t-181 204.5t-65.5 295.5v52zM155 559q0 -145 57.5 -266t160 -188.5t234.5 -67.5q199 0 324 149t125 384v34q0 143 -58 264t-160.5 189.5
t-232.5 68.5q-199 0 -324.5 -151.5t-125.5 -381.5v-34zM882 1369v-11h-73l-201 210l-199 -210h-68v15l247 257h43z" />
    <glyph glyph-name="otilde" unicode="&#xf5;" horiz-adv-x="1211" 
d="M97 604q0 166 64 299t180.5 207t263.5 74q146 0 262 -72t181 -204t66 -298v-51q0 -168 -63.5 -300t-180 -206t-263.5 -74t-263.5 73t-181 204.5t-65.5 295.5v52zM155 559q0 -145 57.5 -266t160 -188.5t234.5 -67.5q199 0 324 149t125 384v34q0 143 -58 264t-160.5 189.5
t-232.5 68.5q-199 0 -324.5 -151.5t-125.5 -381.5v-34zM961 1594q0 -88 -54 -144t-135 -56q-87 0 -164 67.5t-144 67.5q-60 0 -95 -36.5t-35 -98.5h-59q0 86 53.5 139.5t135.5 53.5q84 0 165 -67t143 -67q58 0 94 39t36 102h59z" />
    <glyph glyph-name="odieresis" unicode="&#xf6;" horiz-adv-x="1211" 
d="M97 604q0 166 64 299t180.5 207t263.5 74q146 0 262 -72t181 -204t66 -298v-51q0 -168 -63.5 -300t-180 -206t-263.5 -74t-263.5 73t-181 204.5t-65.5 295.5v52zM155 559q0 -145 57.5 -266t160 -188.5t234.5 -67.5q199 0 324 149t125 384v34q0 143 -58 264t-160.5 189.5
t-232.5 68.5q-199 0 -324.5 -151.5t-125.5 -381.5v-34zM323 1524q0 25 17.5 42.5t41.5 17.5q25 0 43 -17.5t18 -42.5q0 -24 -18 -41.5t-43 -17.5q-24 0 -41.5 17.5t-17.5 41.5zM801 1524q0 25 17.5 42.5t41.5 17.5q25 0 43 -17.5t18 -42.5q0 -24 -18 -41.5t-43 -17.5
q-24 0 -41.5 17.5t-17.5 41.5z" />
    <glyph glyph-name="divide" unicode="&#xf7;" horiz-adv-x="1245" 
d="M1150 737h-1072v56h1072v-56zM568 1159q0 25 17.5 42.5t41.5 17.5q25 0 43 -17.5t18 -42.5t-18 -42t-43 -17q-24 0 -41.5 17t-17.5 42zM568 323q0 25 17.5 42.5t41.5 17.5q25 0 43 -17.5t18 -42.5q0 -24 -18 -41.5t-43 -17.5q-24 0 -41.5 17.5t-17.5 41.5z" />
    <glyph glyph-name="oslash" unicode="&#xf8;" horiz-adv-x="1204" 
d="M93 604q0 166 64 299t180.5 207t264.5 74q128 0 240 -59l90 184h68l-106 -218q102 -75 159.5 -200.5t57.5 -286.5v-45q0 -168 -63.5 -300t-180 -206t-263.5 -74q-121 0 -226 51l-90 -186h-68l105 216q-110 74 -171 205.5t-61 295.5v43zM151 559q0 -142 53.5 -258.5
t146.5 -185.5l464 954q-94 57 -213 57q-199 0 -325 -151.5t-126 -381.5v-34zM1053 604q0 131 -49 245t-138 185l-462 -951q89 -46 200 -46q198 0 323.5 149t125.5 384v34z" />
    <glyph glyph-name="ugrave" unicode="&#xf9;" horiz-adv-x="1204" 
d="M964 0v188q-52 -97 -151 -153t-250 -56q-190 0 -285 111t-98 324v748h58v-751q3 -184 84.5 -279t238.5 -95q166 0 270.5 78t132.5 230v817h59v-1162h-59zM669 1343h-63l-210 286h71z" />
    <glyph glyph-name="uacute" unicode="&#xfa;" horiz-adv-x="1204" 
d="M964 0v188q-52 -97 -151 -153t-250 -56q-190 0 -285 111t-98 324v748h58v-751q3 -184 84.5 -279t238.5 -95q166 0 270.5 78t132.5 230v817h59v-1162h-59zM783 1629h71l-209 -286h-65z" />
    <glyph glyph-name="ucircumflex" unicode="&#xfb;" horiz-adv-x="1204" 
d="M964 0v188q-52 -97 -151 -153t-250 -56q-190 0 -285 111t-98 324v748h58v-751q3 -184 84.5 -279t238.5 -95q166 0 270.5 78t132.5 230v817h59v-1162h-59zM896 1369v-11h-73l-201 210l-199 -210h-69v15l248 257h43z" />
    <glyph glyph-name="udieresis" unicode="&#xfc;" horiz-adv-x="1204" 
d="M964 0v188q-52 -97 -151 -153t-250 -56q-190 0 -285 111t-98 324v748h58v-751q3 -184 84.5 -279t238.5 -95q166 0 270.5 78t132.5 230v817h59v-1162h-59zM337 1526q0 25 17.5 43t41.5 18q25 0 43 -18t18 -43q0 -24 -18 -41.5t-43 -17.5q-24 0 -41.5 17.5t-17.5 41.5z
M815 1526q0 25 17.5 43t41.5 18q25 0 43 -18t18 -43q0 -24 -18 -41.5t-43 -17.5q-24 0 -41.5 17.5t-17.5 41.5z" />
    </font>
</defs>
</svg>
