<?xml version="1.0" standalone="no"?>
<!DOCTYPE svg PUBLIC "-//W3C//DTD SVG 1.1//EN" "http://www.w3.org/Graphics/SVG/1.1/DTD/svg11.dtd" >
<svg xmlns="http://www.w3.org/2000/svg" xmlns:xlink="http://www.w3.org/1999/xlink" version="1.1">
<metadata>
Created by FontForge 20170731 at Wed May 13 15:43:17 2020
 By Aleksey,,,
</metadata>
<defs>
<font id="IRY-ExtraBold" horiz-adv-x="0" >
  <font-face 
    font-family="IRYExtraBold"
    font-weight="800"
    font-stretch="normal"
    units-per-em="2200"
    panose-1="2 11 5 6 3 8 4 2 2 4"
    ascent="1760"
    descent="-440"
    x-height="1162"
    cap-height="1564"
    bbox="-501 -1310 3155 2778"
    underline-thickness="100"
    underline-position="-950"
    unicode-range="U+0020-FEFF"
  />
<missing-glyph horiz-adv-x="1229" 
d="M102 -362v1806h1024v-1806h-1024zM217 -248h795v1577h-795v-1577z" />
    <glyph glyph-name="uniFDF2" unicode="&#xfedf;&#xfee0;&#xfeea;" horiz-adv-x="2305" arabic-form="isolated" 
d="M2255 433q0 -98 -32 -178q-35 -86 -101 -148q-131 -122 -340 -122q-92 0 -175 30q-69 25 -120 66q-125 -96 -310 -96q-219 0 -323 131q-72 90 -135 334l-34 129q-17 62 -48 187q-43 -8 -60 -14q-113 -31 -136 -144q-5 -25 -5 -52q0 -18 2 -36q1 -18 4 -36q3 -14 6 -27
q17 -70 34 -134q13 -51 26 -96q4 -17 9 -33q3 -13 7 -24l5 -20l-315 -92l-3 9l-1 4q-1 4 -2 9q-3 12 -7 25q-5 17 -9 35q-29 106 -62 238q-23 92 -23 177q0 135 58 252q99 200 325 261q39 11 132 29q33 6 67 13q27 5 42 7l188 -123q25 -105 89 -352l9 -36l9 -34
q11 -43 16 -63q18 -67 33 -104q38 -92 102 -92q94 0 128 47q12 16 16 39q1 9 2 19v808l328 65v-858q0 -120 131 -120q94 0 128 47q12 16 16 39q1 9 2 19v927l327 65v-977zM1236 1472q-52 51 -52 141v93l111 19v-112q0 -82 84 -82h8l10 2q13 4 23 11q29 21 29 69v92l112 24
v-116q0 -83 85 -83q9 0 18 3q13 4 22 12q27 21 27 68q0 23 -11 70q-3 15 -10 39l-5 19l-4 18l102 35q0 -2 3 -9l2 -7l3 -9q7 -25 13 -47q18 -69 18 -109q0 -92 -58 -146q-51 -47 -122 -47q-90 0 -140 48q-48 -47 -125 -47q-91 0 -143 51zM1447 2119l113 26v-286l-113 -27
v287z" />
    <glyph glyph-name="uniFDFC" unicode="&#x631;&#xfef3;&#xfe8e;&#x644;" horiz-adv-x="3305" arabic-form="isolated" 
d="M1323 50q0 -114 -15 -198q-22 -119 -85 -206q-75 -104 -202 -153q-117 -47 -291 -47h-63q-155 0 -282 59q-138 65 -218 191q-86 137 -86 317q0 24 2 49q12 208 129 452l296 -141q-78 -163 -95 -295q-4 -33 -4 -63q0 -87 35 -144q36 -56 109 -80q29 -10 61 -14
q26 -3 53 -3h63q77 0 131 12q71 16 97 52q22 30 31 93q6 45 6 119v1377h328v-1377zM3155 137q0 -312 -157 -490q-175 -199 -512 -199h-99v328h99q184 0 262 83q79 83 79 278v539h328v-539zM2116 -600l-196 198l194 200l200 -200zM1694 -601l-196 198l193 200l200 -200z
M1991 -15h-90q-111 0 -199 39q-67 29 -117 79t-79 117q-39 88 -39 199v1008h327v-1008q0 -61 23 -84q22 -22 84 -22h90v-328zM2650 493q8 -48 8 -92q0 -136 -78 -244q-125 -172 -407 -172h-214v328h207q90 0 127 24q38 23 38 73q0 15 -4 33q-10 51 -20 104q-4 20 -8 43
l-4 19l-3 19q-15 82 -23 117l313 95q30 -141 68 -347z" />
    <glyph glyph-name="uniFEF5" unicode="&#xfedf;&#xfe82;" horiz-adv-x="1277" arabic-form="isolated" 
d="M1177 702q0 -158 -15 -251q-22 -137 -83 -232q-78 -120 -220 -179q-132 -55 -328 -55h-431v328h431q123 0 189 20q65 20 94 67q26 41 32 120q4 42 4 182v726h327v-726zM521 457l-327 -22l-65 952l327 22zM768 1548h-490q-59 0 -99.5 -3.5t-69 -18t-47 -42t-33.5 -75.5
l-186 55q26 90 71 147t108 89q54 26 117 34.5t139 8.5h490v-195z" />
    <glyph glyph-name="uniFEF6" unicode="&#xfee0;&#xfe82;" horiz-adv-x="1314" arabic-form="final" 
d="M1177 468q0 -94 32 -127q27 -28 97 -28h33v-328h-33q-111 0 -201 40q-71 32 -125 86q-49 -41 -121 -71q-134 -55 -328 -55h-431v328h431q212 0 272 72q46 56 46 248v795h328v-960zM521 457l-327 -22l-65 952l327 22zM757 1553h-490q-59 0 -99.5 -3.5t-69 -18t-47 -42
t-33.5 -75.5l-186 55q26 90 71 147t108 89q54 26 117 34.5t139 8.5h490v-195z" />
    <glyph glyph-name="uniFEF7" unicode="&#xfedf;&#xfe84;" horiz-adv-x="1277" arabic-form="isolated" 
d="M1177 702q0 -158 -15 -251q-22 -137 -83 -232q-78 -120 -220 -179q-132 -55 -328 -55h-431v328h431q123 0 189 20q65 20 94 67q26 41 32 120q4 42 4 182v726h327v-726zM521 457l-327 -22l-65 952l327 22zM16 1464v149l124 40q-30 31 -49.5 70t-19.5 83q0 34 12 67t33 61
t49.5 49t60.5 30q17 5 34.5 7.5t34.5 2.5q36 0 63.5 -8.5t51.5 -17.5l17 -8l-30 -124q-14 3 -31 8t-34 8t-33.5 3.5t-29.5 -3.5q-14 -5 -27.5 -14t-22.5 -20.5t-12 -26.5q-2 -6 -2 -12q0 -10 4 -20q8 -26 37.5 -44t82.5 -18q10 0 21.5 1t30.5 5.5t48.5 13t75.5 23.5l8 -141z
" />
    <glyph glyph-name="uniFEF8" unicode="&#xfee0;&#xfe84;" horiz-adv-x="1314" arabic-form="final" 
d="M1177 468q0 -94 32 -127q27 -28 97 -28h33v-328h-33q-111 0 -201 40q-71 32 -125 86q-49 -41 -121 -71q-134 -55 -328 -55h-431v328h431q212 0 272 72q46 56 46 248v795h328v-960zM521 457l-327 -22l-65 952l327 22zM13 1467v149l124 40q-30 31 -49.5 70t-19.5 83
q0 34 12 67t33 61t49.5 49t60.5 30q17 5 34.5 7.5t34.5 2.5q36 0 63.5 -8.5t51.5 -17.5l17 -8l-30 -124q-14 3 -31 8t-34 8t-33.5 3.5t-29.5 -3.5q-14 -5 -27.5 -14t-22.5 -20.5t-12 -26.5q-2 -6 -2 -12q0 -10 4 -20q8 -26 37.5 -44t82.5 -18q10 0 21.5 1t30.5 5.5t48.5 13
t75.5 23.5l8 -141z" />
    <glyph glyph-name="uniFEF9" unicode="&#xfedf;&#xfe88;" horiz-adv-x="1277" arabic-form="isolated" 
d="M1177 702q0 -158 -15 -251q-22 -137 -83 -232q-78 -120 -220 -179q-132 -55 -328 -55h-431v328h431q123 0 189 20q65 20 94 67q26 41 32 120q4 42 4 182v726h327v-726zM521 457l-327 -22l-65 952l327 22zM197 -686v149l124 40q-30 31 -49.5 70t-19.5 83q0 34 12 67t33 61
t49.5 49t60.5 30q17 5 34.5 7.5t34.5 2.5q36 0 63.5 -8.5t51.5 -17.5l17 -8l-30 -124q-14 3 -31 8t-34 8t-33.5 3.5t-29.5 -3.5q-14 -5 -27.5 -14t-22.5 -20.5t-12 -26.5q-2 -6 -2 -12q0 -10 4 -20q8 -26 37.5 -44t82.5 -18q10 0 21.5 1t30.5 5.5t48.5 13t75.5 23.5l8 -141z
" />
    <glyph glyph-name="uniFEFA" unicode="&#xfee0;&#xfe88;" horiz-adv-x="1314" arabic-form="final" 
d="M1177 468q0 -94 32 -127q27 -28 97 -28h33v-328h-33q-111 0 -201 40q-71 32 -125 86q-49 -41 -121 -71q-134 -55 -328 -55h-431v328h431q212 0 272 72q46 56 46 248v795h328v-960zM521 457l-327 -22l-65 952l327 22zM202 -685v149l124 40q-30 31 -49.5 70t-19.5 83
q0 34 12 67t33 61t49.5 49t60.5 30q17 5 34.5 7.5t34.5 2.5q36 0 63.5 -8.5t51.5 -17.5l17 -8l-30 -124q-14 3 -31 8t-34 8t-33.5 3.5t-29.5 -3.5q-14 -5 -27.5 -14t-22.5 -20.5t-12 -26.5q-2 -6 -2 -12q0 -10 4 -20q8 -26 37.5 -44t82.5 -18q10 0 21.5 1t30.5 5.5t48.5 13
t75.5 23.5l8 -141z" />
    <glyph glyph-name="uniFEFB" unicode="&#xfedf;&#xfe8e;" horiz-adv-x="1277" arabic-form="isolated" 
d="M1177 702q0 -158 -15 -251q-22 -137 -83 -232q-78 -120 -220 -179q-132 -55 -328 -55h-431v328h431q123 0 189 20q65 20 94 67q26 41 32 120q4 42 4 182v726h327v-726zM521 457l-327 -22l-65 952l327 22z" />
    <glyph glyph-name="uniFEFC" unicode="&#xfee0;&#xfe8e;" horiz-adv-x="1314" arabic-form="final" 
d="M1177 468q0 -94 32 -127q27 -28 97 -28h33v-328h-33q-111 0 -201 40q-71 32 -125 86q-49 -41 -121 -71q-134 -55 -328 -55h-431v328h431q212 0 272 72q46 56 46 248v795h328v-960zM521 457l-327 -22l-65 952l327 22z" />
    <glyph glyph-name="uni06440671.isol" unicode="&#xfedf;&#xfb51;" horiz-adv-x="1277" 
d="M1177 702q0 -158 -15 -251q-22 -137 -83 -232q-78 -120 -220 -179q-132 -55 -328 -55h-431v328h431q123 0 189 20q65 20 94 67q26 41 32 120q4 42 4 182v726h327v-726zM521 457l-327 -22l-65 952l327 22zM-24 1520l24 109h132l44 68l83 122q35 52 86 82.5t111 30.5
q34 0 68 -13t61 -40t43.5 -68t16.5 -97q0 -54 -18 -91t-46 -60t-62.5 -33t-67.5 -10h-475zM456 1823q-27 0 -53.5 -18t-51 -46t-47.5 -62.5t-43 -67.5h190q36 0 60 20t24 65q0 53 -20.5 81t-58.5 28z" />
    <glyph glyph-name="uni06440671.fina" unicode="&#xfee0;&#xfb51;" horiz-adv-x="1314" 
d="M1177 468q0 -94 32 -127q27 -28 97 -28h33v-328h-33q-111 0 -201 40q-71 32 -125 86q-49 -41 -121 -71q-134 -55 -328 -55h-431v328h431q212 0 272 72q46 56 46 248v795h328v-960zM521 457l-327 -22l-65 952l327 22zM-47 1532l24 109h132l44 68l83 122q35 52 86 82.5
t111 30.5q34 0 68 -13t61 -40t43.5 -68t16.5 -97q0 -54 -18 -91t-46 -60t-62.5 -33t-67.5 -10h-475zM433 1835q-27 0 -53.5 -18t-51 -46t-47.5 -62.5t-43 -67.5h190q36 0 60 20t24 65q0 53 -20.5 81t-58.5 28z" />
    <glyph glyph-name="uni0621" unicode="&#x621;" horiz-adv-x="989" arabic-form="isolated" 
d="M727 840l18 -4l-56 -240q-63 16 -101 23q-55 11 -91 11q-30 0 -51 -7q-47 -14 -76 -57q-23 -33 -23 -68q0 -18 6 -36q35 -114 207 -114q92 0 205 35l100 31l4 -256l-787 -238l2 256l141 44l-15 15q-9 9 -15 16q-54 64 -77 139q-17 57 -17 111q0 97 54 186q79 129 219 171
q57 18 123 18q80 0 230 -36z" />
    <glyph glyph-name="uni0622" unicode="&#x622;" horiz-adv-x="795" arabic-form="isolated" 
d="M535 -15h-328v1295h328v-1295zM800 1424h-490q-59 0 -99.5 -3.5t-69 -18t-47 -42t-33.5 -75.5l-186 55q26 90 71 147t108 89q54 26 117 34.5t139 8.5h490v-195z" />
    <glyph glyph-name="uni0623" unicode="&#x623;" horiz-adv-x="528" arabic-form="isolated" 
d="M428 -15h-328v1295h328v-1295zM10 1349v149l124 40q-30 31 -49.5 70t-19.5 83q0 34 12 67t33 61t49.5 49t60.5 30q17 5 34.5 7.5t34.5 2.5q36 0 63.5 -8.5t51.5 -17.5l17 -8l-30 -124q-14 3 -31 8t-34 8t-33.5 3.5t-29.5 -3.5q-14 -5 -27.5 -14t-22.5 -20.5t-12 -26.5
q-2 -6 -2 -12q0 -10 4 -20q8 -26 37.5 -44t82.5 -18q10 0 21.5 1t30.5 5.5t48.5 13t75.5 23.5l8 -141z" />
    <glyph glyph-name="uni0624" unicode="&#x624;" horiz-adv-x="1057" arabic-form="isolated" 
d="M679 312v103q0 92 -39 146q-39 53 -106 53q-68 0 -108 -53q-37 -49 -37 -127q0 -9 1 -19q3 -53 47 -80q38 -23 97 -23h145zM886 781q121 -147 121 -366v-367q0 -348 -287 -497q-111 -58 -264 -84q-119 -21 -260 -21v328q250 0 376 70q102 56 102 141h-140q-179 0 -303 96
q-151 116 -151 334q0 207 100 351q122 176 354 176q221 0 352 -161zM164 996v149l124 40q-30 31 -49.5 70t-19.5 83q0 34 12 67t33 61t49.5 49t60.5 30q17 5 34.5 7.5t34.5 2.5q36 0 63.5 -8.5t51.5 -17.5l17 -8l-30 -124q-14 3 -31 8t-34 8t-33.5 3.5t-29.5 -3.5
q-14 -5 -27.5 -14t-22.5 -20.5t-12 -26.5q-2 -6 -2 -12q0 -10 4 -20q8 -26 37.5 -44t82.5 -18q10 0 21.5 1t30.5 5.5t48.5 13t75.5 23.5l8 -141z" />
    <glyph glyph-name="uni0625" unicode="&#x625;" horiz-adv-x="528" arabic-form="isolated" 
d="M428 -15h-328v1442h328v-1442zM18 -701v149l124 40q-30 31 -49.5 70t-19.5 83q0 34 12 67t33 61t49.5 49t60.5 30q17 5 34.5 7.5t34.5 2.5q36 0 63.5 -8.5t51.5 -17.5l17 -8l-30 -124q-14 3 -31 8t-34 8t-33.5 3.5t-29.5 -3.5q-14 -5 -27.5 -14t-22.5 -20.5t-12 -26.5
q-2 -6 -2 -12q0 -10 4 -20q8 -26 37.5 -44t82.5 -18q10 0 21.5 1t30.5 5.5t48.5 13t75.5 23.5l8 -141z" />
    <glyph glyph-name="uni0626" unicode="&#x626;" horiz-adv-x="1642" arabic-form="isolated" 
d="M1581 913l-83 -317q-74 19 -141 23q-7 1 -20 1q-127 0 -214 -79q-88 -81 -88 -201q214 -60 321 -93q77 -24 112 -46q60 -37 86 -92q10 -21 14 -44q4 -17 4 -36q1 -18 1 -36q0 -546 -592 -546h-298q-249 0 -420 157q-193 177 -193 484q0 279 157 598l294 -144
q-123 -253 -123 -413q0 -67 7 -114q10 -68 35 -115q67 -125 243 -125h298q79 0 135 13q73 17 98 56q24 37 28 100q-12 4 -482 128q-53 100 -53 262q0 214 143 389q182 224 515 224q116 0 216 -34zM91 737v149l124 40q-30 31 -49.5 70t-19.5 83q0 34 12 67t33 61t49.5 49
t60.5 30q17 5 34.5 7.5t34.5 2.5q36 0 63.5 -8.5t51.5 -17.5l17 -8l-30 -124q-14 3 -31 8t-34 8t-33.5 3.5t-29.5 -3.5q-14 -5 -27.5 -14t-22.5 -20.5t-12 -26.5q-2 -6 -2 -12q0 -10 4 -20q8 -26 37.5 -44t82.5 -18q10 0 21.5 1t30.5 5.5t48.5 13t75.5 23.5l8 -141z" />
    <glyph glyph-name="uni0627" unicode="&#x627;" horiz-adv-x="528" arabic-form="isolated" 
d="M428 -15h-328v1442h328v-1442z" />
    <glyph glyph-name="uni0628" unicode="&#x628;" horiz-adv-x="2074" arabic-form="isolated" 
d="M739 -26q-282 0 -361 14q-154 26 -235 149q-51 77 -64 176q-4 36 -4 75q0 43 5 89q7 62 37 177q9 37 20 75q4 13 7 24q2 9 3 11l315 -89q-51 -182 -68 -298q-1 -8 -1 -16q0 -19 7 -33q12 -26 43 -26h1088q90 0 127 24q38 23 38 73q0 15 -4 33q-10 51 -20 104q-4 20 -8 43
l-4 19l-3 19q-7 38 -12 66l314 88q25 -124 56 -289q8 -48 8 -92q0 -136 -78 -244q-125 -172 -407 -172h-799zM849 -349l208 210l212 -212l-210 -210z" />
    <glyph glyph-name="uni0629" unicode="&#x629;" horiz-adv-x="1041" arabic-form="isolated" 
d="M623 308q54 38 54 113q0 45 -78 127q-39 40 -78 72q-142 -117 -142 -204q0 -74 56 -111q21 -14 49 -21q23 -6 45 -6q53 0 94 30zM479 1135q2 -1 5 -4q6 -7 15 -17q28 -29 62 -66q107 -115 235 -255q40 -45 66 -78q37 -46 63 -89q66 -112 66 -224q0 -113 -45 -202
q-35 -67 -93 -115q-123 -100 -324 -100t-323 101q-57 47 -91 113q-45 87 -45 199q0 197 162 377l66 75l-59 63l239 224zM714 1180l-196 198l194 200l200 -200zM295 1179l-196 198l193 200l200 -200z" />
    <glyph glyph-name="uni062A" unicode="&#x62a;" horiz-adv-x="2074" arabic-form="isolated" 
d="M739 -26q-282 0 -361 14q-154 26 -235 149q-51 77 -64 176q-4 36 -4 75q0 43 5 89q7 62 37 177q9 37 20 75q4 13 7 24q2 9 3 11l315 -89q-51 -182 -68 -298q-1 -8 -1 -16q0 -19 7 -33q12 -26 43 -26h1088q90 0 127 24q38 23 38 73q0 15 -4 33q-10 51 -20 104q-4 20 -8 43
l-4 19l-3 19q-7 38 -12 66l314 88q25 -124 56 -289q8 -48 8 -92q0 -136 -78 -244q-125 -172 -407 -172h-799zM1277 732l-196 198l194 200l200 -200zM858 731l-196 198l193 200l200 -200z" />
    <glyph glyph-name="uni062B" unicode="&#x62b;" horiz-adv-x="2074" arabic-form="isolated" 
d="M739 -26q-282 0 -361 14q-154 26 -235 149q-51 77 -64 176q-4 36 -4 75q0 43 5 89q7 62 37 177q9 37 20 75q4 13 7 24q2 9 3 11l315 -89q-51 -182 -68 -298q-1 -8 -1 -16q0 -19 7 -33q12 -26 43 -26h1088q90 0 127 24q38 23 38 73q0 15 -4 33q-10 51 -20 104q-4 20 -8 43
l-4 19l-3 19q-7 38 -12 66l314 88q25 -124 56 -289q8 -48 8 -92q0 -136 -78 -244q-125 -172 -407 -172h-799zM1036 887l-198 -200l-198 198l198 200zM1470 890l-196 -198l-203 196l200 200zM1230 1148l-174 -174l-172 172l174 174z" />
    <glyph glyph-name="uni062C" unicode="&#x62c;" horiz-adv-x="1536" arabic-form="isolated" 
d="M645 1126q96 -13 469 -181q112 -50 216 -98q36 -17 62 -30l23 -11l21 -319l-6 -2q-8 -3 -21 -7q-34 -13 -95 -35q-176 -65 -497 -186l-48 -18q-254 -95 -306 -139q-12 -9 -18 -18q-4 -6 -7 -15q-4 -11 -4 -29q0 -24 5 -56q15 -90 47 -133q12 -16 26 -26q6 -4 12 -7
q5 -2 11 -5q77 -35 334 -35h438v-328h-438q-329 0 -470 65q-231 104 -283 415q-9 55 -9 105q0 197 145 318q75 63 207 115q154 59 598 192l-443 138q-15 5 -26 5q-27 0 -49 -26q-19 -23 -47 -83l-308 81q47 177 171 275q105 82 235 82q31 0 55 -4zM678 32l208 210l212 -212
l-210 -210z" />
    <glyph glyph-name="uni062D" unicode="&#x62d;" horiz-adv-x="1536" arabic-form="isolated" 
d="M645 1126q96 -13 469 -181q112 -50 216 -98q36 -17 62 -30l23 -11l21 -319l-6 -2q-8 -3 -21 -7q-34 -13 -95 -35q-176 -65 -497 -186l-48 -18q-254 -95 -306 -139q-12 -9 -18 -18q-4 -6 -7 -15q-4 -11 -4 -29q0 -24 5 -56q15 -90 47 -133q12 -16 26 -26q6 -4 12 -7
q5 -2 11 -5q77 -35 334 -35h438v-328h-438q-329 0 -470 65q-231 104 -283 415q-9 55 -9 105q0 197 145 318q75 63 207 115q154 59 598 192l-443 138q-15 5 -26 5q-27 0 -49 -26q-19 -23 -47 -83l-308 81q47 177 171 275q105 82 235 82q31 0 55 -4z" />
    <glyph glyph-name="uni062E" unicode="&#x62e;" horiz-adv-x="1536" arabic-form="isolated" 
d="M645 1126q96 -13 469 -181q112 -50 216 -98q36 -17 62 -30l23 -11l21 -319l-6 -2q-8 -3 -21 -7q-34 -13 -95 -35q-176 -65 -497 -186l-48 -18q-254 -95 -306 -139q-12 -9 -18 -18q-4 -6 -7 -15q-4 -11 -4 -29q0 -24 5 -56q15 -90 47 -133q12 -16 26 -26q6 -4 12 -7
q5 -2 11 -5q77 -35 334 -35h438v-328h-438q-329 0 -470 65q-231 104 -283 415q-9 55 -9 105q0 197 145 318q75 63 207 115q154 59 598 192l-443 138q-15 5 -26 5q-27 0 -49 -26q-19 -23 -47 -83l-308 81q47 177 171 275q105 82 235 82q31 0 55 -4zM364 1476l208 210
l212 -212l-211 -210z" />
    <glyph glyph-name="uni062F" unicode="&#x62f;" horiz-adv-x="1111" arabic-form="isolated" 
d="M621 1135l18 -26q6 -9 11 -15q7 -10 13 -20q17 -24 36 -50q49 -71 109 -157q78 -110 170 -241q72 -104 82 -217q2 -20 2 -40q0 -94 -43 -178q-53 -101 -152 -157q-100 -57 -224 -57q-144 0 -375 60q-69 18 -139 40q-22 6 -42 13q-7 2 -12 3l-3 2h-2l105 311
q38 -13 89 -28q63 -18 124 -33q164 -40 255 -40q65 0 85 37q7 14 7 30q0 29 -25 65q-92 131 -170 242q-59 84 -110 157q-80 113 -80 114z" />
    <glyph glyph-name="uni0630" unicode="&#x630;" horiz-adv-x="1111" arabic-form="isolated" 
d="M621 1135l18 -26q6 -9 11 -15q7 -10 13 -20q17 -24 36 -50q49 -71 109 -157q78 -110 170 -241q72 -104 82 -217q2 -20 2 -40q0 -94 -43 -178q-53 -101 -152 -157q-100 -57 -224 -57q-144 0 -375 60q-69 18 -139 40q-22 6 -42 13q-7 2 -12 3l-3 2h-2l105 311
q38 -13 89 -28q63 -18 124 -33q164 -40 255 -40q65 0 85 37q7 14 7 30q0 29 -25 65q-92 131 -170 242q-59 84 -110 157q-80 113 -80 114zM294 1454l208 210l212 -212l-211 -210z" />
    <glyph glyph-name="uni0631" unicode="&#x631;" horiz-adv-x="836" arabic-form="isolated" 
d="M768 137q0 -312 -157 -490q-175 -199 -512 -199h-99v328h99q184 0 262 83q79 83 79 278v539h328v-539z" />
    <glyph glyph-name="uni0632" unicode="&#x632;" horiz-adv-x="836" arabic-form="isolated" 
d="M768 137q0 -312 -157 -490q-175 -199 -512 -199h-99v328h99q184 0 262 83q79 83 79 278v539h328v-539zM399 1099l208 210l212 -212l-211 -210z" />
    <glyph glyph-name="uni0633" unicode="&#x633;" horiz-adv-x="2757" arabic-form="isolated" 
d="M2688 506q10 -43 10 -90q0 -38 -7 -79q-17 -93 -67 -169q-119 -183 -347 -183q-103 0 -193 31q-61 23 -111 60q-119 -91 -273 -91q-85 0 -154 19q-7 -225 -130 -368q-82 -96 -212 -144q-130 -46 -295 -46h-227q-162 0 -295 72q-133 71 -214 201q-55 91 -79 197
q-19 86 -19 182q0 24 1 48q15 251 157 535l293 -145q-113 -230 -123 -409q-1 -18 -1 -35q0 -121 50 -200q41 -66 111 -95q53 -23 119 -23h227q188 0 253 62q57 54 57 200v640h327v-243q0 -120 132 -120q55 0 87 21q45 29 45 99v243h328v-243q0 -62 23 -88q27 -32 99 -32
q114 0 114 79q0 17 -5 38q-57 235 -74 315l318 76q29 -120 75 -315z" />
    <glyph glyph-name="uni0634" unicode="&#x634;" horiz-adv-x="2757" arabic-form="isolated" 
d="M2688 506q10 -43 10 -90q0 -38 -7 -79q-17 -93 -67 -169q-119 -183 -347 -183q-103 0 -193 31q-61 23 -111 60q-119 -91 -273 -91q-85 0 -154 19q-7 -225 -130 -368q-82 -96 -212 -144q-130 -46 -295 -46h-227q-162 0 -295 72q-133 71 -214 201q-55 91 -79 197
q-19 86 -19 182q0 24 1 48q15 251 157 535l293 -145q-113 -230 -123 -409q-1 -18 -1 -35q0 -121 50 -200q41 -66 111 -95q53 -23 119 -23h227q188 0 253 62q57 54 57 200v640h327v-243q0 -120 132 -120q55 0 87 21q45 29 45 99v243h328v-243q0 -62 23 -88q27 -32 99 -32
q114 0 114 79q0 17 -5 38q-57 235 -74 315l318 76q29 -120 75 -315zM1950 1109l-198 -200l-198 198l198 200zM2384 1112l-196 -198l-203 196l200 200zM2144 1370l-174 -174l-172 172l174 174z" />
    <glyph glyph-name="uni0635" unicode="&#x635;" horiz-adv-x="2782" arabic-form="isolated" 
d="M921 -224q82 0 144 14q80 19 116 60q50 57 50 184v642h327l1 -262q103 143 202 242q110 110 222 169q140 74 286 74q269 0 387 -171q43 -62 62 -143q14 -60 14 -120q0 -296 -207 -414q-71 -40 -161 -56q-32 -6 -66 -8l-26 -2h-599q-55 0 -114 13q-8 -222 -131 -363
q-84 -96 -213 -142q-124 -45 -294 -45h-239q-162 0 -295 72q-133 71 -214 201q-55 91 -79 197q-19 86 -19 182q0 24 1 48q15 251 157 535l293 -145q-113 -230 -123 -409q-1 -18 -1 -35q0 -121 50 -200q41 -66 111 -95q53 -23 119 -23h239zM2252 313q114 0 153 48
q15 19 20 47q4 19 4 53q0 111 -143 111q-101 0 -257 -115q-54 -40 -106 -87q-41 -38 -57 -57h386z" />
    <glyph glyph-name="uni0636" unicode="&#x636;" horiz-adv-x="2782" arabic-form="isolated" 
d="M921 -224q82 0 144 14q80 19 116 60q50 57 50 184v642h327l1 -262q103 143 202 242q110 110 222 169q140 74 286 74q269 0 387 -171q43 -62 62 -143q14 -60 14 -120q0 -296 -207 -414q-71 -40 -161 -56q-32 -6 -66 -8l-26 -2h-599q-55 0 -114 13q-8 -222 -131 -363
q-84 -96 -213 -142q-124 -45 -294 -45h-239q-162 0 -295 72q-133 71 -214 201q-55 91 -79 197q-19 86 -19 182q0 24 1 48q15 251 157 535l293 -145q-113 -230 -123 -409q-1 -18 -1 -35q0 -121 50 -200q41 -66 111 -95q53 -23 119 -23h239zM2252 313q114 0 153 48
q15 19 20 47q4 19 4 53q0 111 -143 111q-101 0 -257 -115q-54 -40 -106 -87q-41 -38 -57 -57h386zM2049 1229l208 210l212 -212l-211 -210z" />
    <glyph glyph-name="uni0637" unicode="&#x637;" horiz-adv-x="1512" arabic-form="isolated" 
d="M982 313q114 0 153 48q15 19 20 47q4 19 4 53q0 111 -143 111q-101 0 -257 -115q-54 -40 -106 -87q-41 -38 -57 -57h386zM647 818l-4 -35q16 11 35 22l35 20q140 74 286 74q270 0 387 -171q43 -62 62 -143q14 -59 14 -120q0 -296 -207 -414q-71 -40 -161 -56
q-32 -6 -66 -8l-26 -2h-932v328h181l69 108v1007h327v-610z" />
    <glyph glyph-name="uni0638" unicode="&#x638;" horiz-adv-x="1512" arabic-form="isolated" 
d="M982 313q114 0 153 48q15 19 20 47q4 19 4 53q0 111 -143 111q-101 0 -257 -115q-54 -40 -106 -87q-41 -38 -57 -57h386zM647 818l-4 -35q16 11 35 22l35 20q140 74 286 74q270 0 387 -171q43 -62 62 -143q14 -59 14 -120q0 -296 -207 -414q-71 -40 -161 -56
q-32 -6 -66 -8l-26 -2h-932v328h181l69 108v1007h327v-610zM831 1287l208 210l212 -212l-211 -210z" />
    <glyph glyph-name="uni0639" unicode="&#x639;" horiz-adv-x="1355" arabic-form="isolated" 
d="M845 716q121 -43 316 -43h128v-327h-579q-48 0 -100 -16q-62 -19 -110 -57q-102 -79 -102 -212q0 -124 88 -204q88 -81 224 -81h569v-328h-569q-271 0 -456 177q-184 178 -184 436q0 151 65 276q58 112 163 194q60 47 140 84q-10 16 -16 30q-48 93 -48 207q0 210 148 349
q143 135 349 135q101 0 211 -44q66 -27 186 -96l19 -11l18 -11l-162 -285l-38 22q-169 98 -234 98q-77 0 -124 -40q-45 -39 -45 -100v-10q6 -95 143 -143z" />
    <glyph glyph-name="uni063A" unicode="&#x63a;" horiz-adv-x="1355" arabic-form="isolated" 
d="M845 716q121 -43 316 -43h128v-327h-579q-48 0 -100 -16q-62 -19 -110 -57q-102 -79 -102 -212q0 -124 88 -204q88 -81 224 -81h569v-328h-569q-271 0 -456 177q-184 178 -184 436q0 151 65 276q58 112 163 194q60 47 140 84q-10 16 -16 30q-48 93 -48 207q0 210 148 349
q143 135 349 135q101 0 211 -44q66 -27 186 -96l19 -11l18 -11l-162 -285l-38 22q-169 98 -234 98q-77 0 -124 -40q-45 -39 -45 -100v-10q6 -95 143 -143zM668 1617l208 210l212 -212l-211 -210z" />
    <glyph glyph-name="uni0641" unicode="&#x641;" horiz-adv-x="2097" arabic-form="isolated" 
d="M1955 992q92 -177 92 -459q0 -303 -232 -445q-171 -104 -421 -104h-655q-282 0 -361 14q-154 26 -235 149q-51 77 -64 176q-4 36 -4 75q0 43 5 89q7 62 37 177q9 37 20 75q4 13 7 24q2 9 3 11l315 -89q-51 -182 -68 -298q-1 -8 -1 -16q0 -19 7 -33q12 -26 43 -26h951
q167 0 247 22q-229 0 -374 98q-172 117 -172 344q0 67 19 136q23 84 71 149q123 170 374 170q273 0 396 -239zM1726 658l-2 23q-3 25 -6 45q-8 53 -23 89q-38 95 -135 104q-7 1 -19 1q-65 0 -103 -39q-34 -36 -34 -91v-9q4 -97 98 -126q59 -18 226 -18zM1355 1569l208 210
l212 -212l-211 -210z" />
    <glyph glyph-name="uni0642" unicode="&#x642;" horiz-adv-x="1615" arabic-form="isolated" 
d="M1444 781q121 -147 121 -366v-367q0 -245 -132 -407q-82 -94 -213 -143q-125 -46 -294 -46h-195q-172 0 -309 63q-156 71 -245 209q-96 152 -96 356q0 23 1 47q12 233 143 517l298 -137q-105 -226 -114 -397q-1 -14 -1 -28q0 -112 45 -181q44 -70 136 -100q35 -12 76 -17
q32 -4 66 -4h195q162 0 232 52q63 46 74 153h-140q-179 0 -303 96q-151 116 -151 334q0 207 100 351q122 176 354 176q221 0 352 -161zM1237 312v103q0 92 -39 146q-39 53 -106 53q-68 0 -108 -53q-37 -49 -37 -127q0 -9 1 -19q3 -53 47 -80q38 -23 97 -23h145zM1298 1036
l-196 198l194 200l200 -200zM879 1035l-196 198l193 200l200 -200z" />
    <glyph glyph-name="uni0643" unicode="&#x643;" horiz-adv-x="2089" arabic-form="isolated" 
d="M2039 511q0 -165 -11 -228q-25 -143 -130 -215q-78 -53 -217 -68q-102 -12 -360 -12h-567q-282 0 -361 14q-154 26 -235 149q-69 104 -69 252q0 42 6 88q14 128 67 287l315 -89q-51 -182 -68 -298q-1 -8 -1 -16q0 -19 7 -33q12 -26 43 -26h1181q72 0 72 66v1045h328v-916
zM1135 965q-61 -36 -102 -68q-30 -24 -48 -45q19 0 45 2l45 4q24 2 44 2q25 0 44 -3q57 -7 91 -40q14 -12 23 -28q7 -13 11 -26q7 -21 7 -42q0 -35 -20 -70q-41 -69 -153 -113q-45 -17 -103 -32q-41 -10 -101 -22l-32 161q24 5 62 10l62 10q70 11 93 20h-23q-24 1 -46 1
q-68 1 -90 4q-53 6 -87 32q-26 20 -39 50q-13 28 -13 59q0 17 4 34q15 63 83 127q61 56 159 114z" />
    <glyph glyph-name="uni0644" unicode="&#x644;" horiz-adv-x="1373" arabic-form="isolated" 
d="M1323 50q0 -114 -15 -198q-22 -119 -85 -206q-75 -104 -202 -153q-117 -47 -291 -47h-63q-155 0 -282 59q-138 65 -218 191q-86 137 -86 317q0 24 2 49q12 208 129 452l296 -141q-78 -163 -95 -295q-4 -33 -4 -63q0 -87 35 -144q36 -56 109 -80q29 -10 61 -14
q26 -3 53 -3h63q77 0 131 12q71 16 97 52q22 30 31 93q6 45 6 119v1377h328v-1377z" />
    <glyph glyph-name="uni0645" unicode="&#x645;" horiz-adv-x="1451" arabic-form="isolated" 
d="M1077 261q21 54 21 129q0 86 -52 150q-55 68 -137 68q-60 0 -119 -98q-49 -81 -75 -186q180 -82 272 -119q10 -5 24 -5q41 0 66 61zM1113 887q88 -45 155 -124q64 -76 98 -169q35 -96 35 -195q0 -208 -104 -353q-114 -157 -299 -157q-93 0 -177 30q-88 31 -313 144
l-57 29q-34 18 -54 29v-880h-327v1189l215 125l148 -82q43 149 110 250q79 119 188 173q83 40 178 40q106 0 204 -49z" />
    <glyph glyph-name="uni0646" unicode="&#x646;" horiz-adv-x="1571" arabic-form="isolated" 
d="M1521 53q0 -264 -130 -415q-82 -94 -213 -143q-125 -46 -295 -46h-151q-172 0 -310 63q-157 72 -245 209q-95 152 -95 353q0 25 1 50q12 233 143 517l298 -137q-105 -226 -114 -397q-1 -17 -1 -34q0 -107 45 -175q44 -70 136 -100q35 -12 76 -17q32 -4 66 -4h151
q187 0 254 69q57 59 57 207v623h327v-623zM642 755l208 210l212 -212l-211 -210z" />
    <glyph glyph-name="uni0647" unicode="&#x647;" horiz-adv-x="1041" arabic-form="isolated" 
d="M623 308q54 38 54 113q0 45 -78 127q-39 40 -78 72q-142 -117 -142 -204q0 -74 56 -111q21 -14 49 -21q23 -6 45 -6q53 0 94 30zM479 1135q2 -1 5 -4q6 -7 15 -17q28 -29 62 -66q107 -115 235 -255q40 -45 66 -78q37 -46 63 -89q66 -112 66 -224q0 -113 -45 -202
q-35 -67 -93 -115q-123 -100 -324 -100t-323 101q-57 47 -91 113q-45 87 -45 199q0 197 162 377l66 75l-59 63l239 224z" />
    <glyph glyph-name="uni0648" unicode="&#x648;" horiz-adv-x="1057" arabic-form="isolated" 
d="M679 312v103q0 92 -39 146q-39 53 -106 53q-68 0 -108 -53q-37 -49 -37 -127q0 -9 1 -19q3 -53 47 -80q38 -23 97 -23h145zM886 781q121 -147 121 -366v-367q0 -348 -287 -497q-111 -58 -264 -84q-119 -21 -260 -21v328q250 0 376 70q102 56 102 141h-140q-179 0 -303 96
q-151 116 -151 334q0 207 100 351q122 176 354 176q221 0 352 -161z" />
    <glyph glyph-name="uni0649" unicode="&#x649;" horiz-adv-x="1642" arabic-form="isolated" 
d="M1581 913l-83 -317q-74 19 -141 23q-7 1 -20 1q-127 0 -214 -79q-88 -81 -88 -201q214 -60 321 -93q77 -24 112 -46q60 -37 86 -92q10 -21 14 -44q4 -17 4 -36q1 -18 1 -36q0 -546 -592 -546h-298q-249 0 -420 157q-193 177 -193 484q0 279 157 598l294 -144
q-123 -253 -123 -413q0 -67 7 -114q10 -68 35 -115q67 -125 243 -125h298q79 0 135 13q73 17 98 56q24 37 28 100q-12 4 -482 128q-53 100 -53 262q0 214 143 389q182 224 515 224q116 0 216 -34z" />
    <glyph glyph-name="uni064A" unicode="&#x64a;" horiz-adv-x="1642" arabic-form="isolated" 
d="M1581 913l-83 -317q-74 19 -141 23q-7 1 -20 1q-127 0 -214 -79q-88 -81 -88 -201q214 -60 321 -93q77 -24 112 -46q60 -37 86 -92q10 -21 14 -44q4 -17 4 -36q1 -18 1 -36q0 -546 -592 -546h-298q-249 0 -420 157q-193 177 -193 484q0 279 157 598l294 -144
q-123 -253 -123 -413q0 -67 7 -114q10 -68 35 -115q67 -125 243 -125h298q79 0 135 13q73 17 98 56q24 37 28 100q-12 4 -482 128q-53 100 -53 262q0 214 143 389q182 224 515 224q116 0 216 -34zM1053 -1016l-196 198l194 200l200 -200zM631 -1017l-196 198l193 200
l200 -200z" />
    <glyph glyph-name="uni066E.init" unicode="&#x66e;" horiz-adv-x="750" 
d="M666 493q8 -48 8 -92q0 -136 -78 -244q-125 -172 -407 -172h-214v328h207q90 0 127 24q38 23 38 73q0 15 -4 33q-10 51 -20 104q-4 20 -8 43l-4 19l-3 19q-15 82 -23 117l313 95q30 -141 68 -347z" />
    <glyph glyph-name="uni066E.medi" unicode="&#x66e;" horiz-adv-x="770" 
d="M640 404q0 -48 23 -68q26 -23 92 -23h40v-328h-40q-65 0 -123 14q-46 11 -86 31q-46 22 -69 44q-23 -22 -74 -44q-101 -45 -240 -45h-188v328h211q72 0 101 24q26 21 26 67v272h327v-272z" />
    <glyph glyph-name="uni066E.fina" unicode="&#x66e;" horiz-adv-x="2236" 
d="M462 675q-51 -182 -68 -298q-1 -8 -1 -16q0 -19 7 -33q12 -26 43 -26h1181q72 0 72 66v309h328v-244q5 -64 25 -88q26 -32 97 -32h115v-328h-115q-180 0 -264 68q-78 -52 -217 -68q-101 -11 -359 -11h-567q-282 0 -361 14q-154 26 -235 149q-51 77 -64 176q-4 36 -4 75
q0 43 5 89q7 62 37 177q9 37 20 75q4 13 7 24q2 9 3 11z" />
    <glyph glyph-name="uni066F.init" unicode="&#x66f;" horiz-adv-x="1105" 
d="M734 659l-2 23q-3 25 -6 45q-8 53 -23 89q-38 95 -135 104l-10 1h-9q-65 0 -103 -39q-34 -36 -34 -91v-9q4 -97 98 -126q59 -18 226 -18zM963 993q92 -177 92 -459q0 -303 -232 -445q-171 -104 -421 -104h-420v328h420q167 0 247 22q-229 0 -374 98q-172 117 -172 344
q0 67 19 136q23 84 71 149q123 170 374 170q273 0 396 -239z" />
    <glyph glyph-name="uni066F.medi" unicode="&#x66f;" horiz-adv-x="1101" 
d="M693 422q30 39 30 97q0 70 -40 119q-47 58 -132 58t-132 -58q-40 -49 -40 -119q0 -58 31 -97q41 -54 141 -81q100 27 142 81zM908 875q136 -144 136 -356q0 -114 -42 -206h119v-328h-145q-244 0 -425 55q-171 -55 -426 -55h-145v328h119q-42 92 -42 206q0 212 136 356
q141 149 358 149t357 -149z" />
    <glyph glyph-name="uni066F.fina" unicode="&#x66f;" horiz-adv-x="1644" 
d="M1444 781q121 -147 121 -366v-102h105v-328h-110q-15 -209 -127 -344q-82 -94 -213 -143q-125 -46 -294 -46h-195q-172 0 -309 63q-156 71 -245 209q-96 152 -96 356q0 23 1 47q12 233 143 517l298 -137q-105 -226 -114 -397q-1 -14 -1 -28q0 -112 45 -181
q44 -70 136 -100q35 -12 76 -17q32 -4 66 -4h195q162 0 232 52q63 46 74 153h-140q-179 0 -303 96q-151 116 -151 334q0 207 100 351q122 176 354 176q221 0 352 -161zM1237 312v103q0 92 -39 146q-39 53 -106 53q-68 0 -108 -53q-37 -49 -37 -127q0 -9 1 -19q3 -53 47 -80
q38 -23 97 -23h145z" />
    <glyph glyph-name="uni0671" unicode="&#x671;" horiz-adv-x="528" arabic-form="isolated" 
d="M428 -15h-328v1295h328v-1295zM-29 1421l24 109h132l44 68l83 122q35 52 86 82.5t111 30.5q34 0 68 -13t61 -40t43.5 -68t16.5 -97q0 -54 -18 -91t-46 -60t-62.5 -33t-67.5 -10h-475zM451 1724q-27 0 -53.5 -18t-51 -46t-47.5 -62.5t-43 -67.5h190q36 0 60 20t24 65
q0 53 -20.5 81t-58.5 28z" />
    <glyph glyph-name="uni0679" unicode="&#x679;" horiz-adv-x="2074" arabic-form="isolated" 
d="M739 -26q-282 0 -361 14q-154 26 -235 149q-51 77 -64 176q-4 36 -4 75q0 43 5 89q7 62 37 177q9 37 20 75q4 13 7 24q2 9 3 11l315 -89q-51 -182 -68 -298q-1 -8 -1 -16q0 -19 7 -33q12 -26 43 -26h1088q90 0 127 24q38 23 38 73q0 15 -4 33q-10 51 -20 104q-4 20 -8 43
l-4 19l-3 19q-7 38 -12 66l314 88q25 -124 56 -289q8 -48 8 -92q0 -136 -78 -244q-125 -172 -407 -172h-799zM776 658v109h104q3 4 5.5 8.5t7 11.5t12 17.5t18.5 26.5v488h107v-343q36 38 79.5 63t95.5 25q34 0 68 -12t61 -37.5t43.5 -66t16.5 -96.5q0 -54 -18 -91t-46 -60
t-62.5 -33t-67.5 -10h-424zM1205 955q-26 0 -52 -16.5t-51 -43.5t-48 -60.5t-44 -67.5h190q36 0 62 20t26 65q0 53 -22.5 78t-60.5 25z" />
    <glyph glyph-name="uni067E" unicode="&#x67e;" horiz-adv-x="2074" arabic-form="isolated" 
d="M739 -26q-282 0 -361 14q-154 26 -235 149q-51 77 -64 176q-4 36 -4 75q0 43 5 89q7 62 37 177q9 37 20 75q4 13 7 24q2 9 3 11l315 -89q-51 -182 -68 -298q-1 -8 -1 -16q0 -19 7 -33q12 -26 43 -26h1088q90 0 127 24q38 23 38 73q0 15 -4 33q-10 51 -20 104q-4 20 -8 43
l-4 19l-3 19q-7 38 -12 66l314 88q25 -124 56 -289q8 -48 8 -92q0 -136 -78 -244q-125 -172 -407 -172h-799zM836 -568l-198 194l198 204l198 -204zM1267 -572l-200 198l203 198l196 -198zM1056 -803l-174 174l172 172l174 -174z" />
    <glyph glyph-name="uni0686" unicode="&#x686;" horiz-adv-x="1501" arabic-form="isolated" 
d="M626 1077q96 -13 469 -181q109 -49 233 -107q39 -18 75 -35q12 -6 21 -10q3 -2 6 -3l2 -1l-15 -300v-2l-4 -1q-5 -2 -14 -5q-24 -9 -64 -23q-115 -43 -320 -120l-217 -81l-48 -18q-255 -95 -307 -139q-20 -17 -24 -33q-4 -11 -4 -29q0 -24 5 -56l14 -94q31 -202 70 -243
q71 -74 346 -74h440v-328h-440q-416 0 -584 177q-78 83 -115 211q-13 44 -24 102l-9 53l-8 54q-8 58 -14 88q-9 54 -9 103q0 199 146 320q94 79 402 195l48 18q33 12 71 26q24 9 65 25q82 31 116 43q-179 80 -282 119q-34 12 -56 19q-8 3 -14 4l-4 1l-2 1h-6q-27 0 -51 -30
q-25 -31 -38 -82l-317 83q46 177 171 275q105 82 235 82q31 0 55 -4zM748 -228l-177 174l177 183l178 -183zM1135 -232l-180 178l182 177l176 -177zM946 -439l-156 156l154 154l156 -156z" />
    <glyph glyph-name="uni0688" unicode="&#x688;" horiz-adv-x="1111" arabic-form="isolated" 
d="M621 1135l18 -26q6 -9 11 -15q7 -10 13 -20q17 -24 36 -50q49 -71 109 -157q78 -110 170 -241q72 -104 82 -217q2 -20 2 -40q0 -94 -43 -178q-53 -101 -152 -157q-100 -57 -224 -57q-144 0 -375 60q-69 18 -139 40q-22 6 -42 13q-7 2 -12 3l-3 2h-2l105 311
q38 -13 89 -28q63 -18 124 -33q164 -40 255 -40q65 0 85 37q7 14 7 30q0 29 -25 65q-92 131 -170 242q-59 84 -110 157q-80 113 -80 114zM280 1271v109h104q3 4 5.5 8.5t7 11.5t12 17.5t18.5 26.5v488h107v-343q36 38 79.5 63t95.5 25q34 0 68 -12t61 -37.5t43.5 -66
t16.5 -96.5q0 -54 -18 -91t-46 -60t-62.5 -33t-67.5 -10h-424zM709 1568q-26 0 -52 -16.5t-51 -43.5t-48 -60.5t-44 -67.5h190q36 0 62 20t26 65q0 53 -22.5 78t-60.5 25z" />
    <glyph glyph-name="uni0691" unicode="&#x691;" horiz-adv-x="836" arabic-form="isolated" 
d="M768 137q0 -312 -157 -490q-175 -199 -512 -199h-99v328h99q184 0 262 83q79 83 79 278v539h328v-539zM189 881v109h104q3 4 5.5 8.5t7 11.5t12 17.5t18.5 26.5v488h107v-343q36 38 79.5 63t95.5 25q34 0 68 -12t61 -37.5t43.5 -66t16.5 -96.5q0 -54 -18 -91t-46 -60
t-62.5 -33t-67.5 -10h-424zM618 1178q-26 0 -52 -16.5t-51 -43.5t-48 -60.5t-44 -67.5h190q36 0 62 20t26 65q0 53 -22.5 78t-60.5 25z" />
    <glyph glyph-name="uni0692.fina" unicode="&#x692;" horiz-adv-x="904" 
d="M768 677v-273q0 -43 44 -69q35 -22 71 -22h46v-328h-46q-58 0 -123 19q-29 -221 -149 -356q-175 -199 -512 -199h-99v328h99q184 0 262 83q79 83 79 278v539h328zM900 1281l-231 -413h-131l-234 413h171l126 -253l130 253h169z" />
    <glyph glyph-name="uni0695.fina" unicode="&#x695;" horiz-adv-x="904" 
d="M768 677v-273q0 -43 44 -69q35 -22 71 -22h46v-328h-46q-58 0 -123 19q-29 -221 -149 -356q-175 -199 -512 -199h-99v328h99q184 0 262 83q79 83 79 278v539h328zM648 -679l-231 -413h-131l-234 413h171l126 -253l130 253h169z" />
    <glyph glyph-name="uni0698" unicode="&#x698;" horiz-adv-x="935" arabic-form="isolated" 
d="M768 137q0 -312 -157 -490q-175 -199 -512 -199h-99v328h99q184 0 262 83q79 83 79 278v539h328v-539zM522 1078l-198 -200l-198 198l198 200zM956 1081l-196 -198l-203 196l200 200zM716 1339l-174 -174l-172 172l174 174z" />
    <glyph glyph-name="uni06A4.init.1" unicode="&#x6a4;" horiz-adv-x="1105" arabic-form="initial" 
d="M734 659l-2 23q-3 25 -6 45q-8 53 -23 89q-38 95 -135 104l-10 1h-9q-65 0 -103 -39q-34 -36 -34 -91v-9q4 -97 98 -126q59 -18 226 -18zM963 993q92 -177 92 -459q0 -303 -232 -445q-171 -104 -421 -104h-420v328h420q167 0 247 22q-229 0 -374 98q-172 117 -172 344
q0 67 19 136q23 84 71 149q123 170 374 170q273 0 396 -239zM489 1526l-198 -200l-198 198l198 200zM923 1529l-196 -198l-203 196l200 200zM683 1787l-174 -174l-172 172l174 174z" />
    <glyph glyph-name="uni06A4.medi.1" unicode="&#x6a4;" horiz-adv-x="1101" arabic-form="medial" 
d="M693 422q30 39 30 97q0 70 -40 119q-47 58 -132 58t-132 -58q-40 -49 -40 -119q0 -58 31 -97q41 -54 141 -81q100 27 142 81zM908 875q136 -144 136 -356q0 -114 -42 -206h119v-328h-145q-244 0 -425 55q-171 -55 -426 -55h-145v328h119q-42 92 -42 206q0 212 136 356
q141 149 358 149t357 -149zM536 1332l-198 -200l-198 198l198 200zM970 1335l-196 -198l-203 196l200 200zM730 1593l-174 -174l-172 172l174 174z" />
    <glyph glyph-name="uni06A4.fina.1" unicode="&#x6a4;" horiz-adv-x="2105" arabic-form="final" 
d="M1915 875q136 -144 136 -356q0 -114 -42 -206h119v-328h-145q-244 0 -425 55q-171 -55 -426 -55h-393q-282 0 -361 14q-154 26 -235 149q-51 77 -64 176q-4 36 -4 75q0 43 5 89q7 62 37 177q9 37 20 75q4 13 7 24q2 9 3 11l315 -89q-51 -182 -68 -298q-1 -8 -1 -16
q0 -19 7 -33q12 -26 43 -26h663q-42 92 -42 206q0 212 136 356q141 149 358 149t357 -149zM1700 422q30 39 30 97q0 70 -40 119q-47 58 -132 58t-132 -58q-40 -49 -40 -119q0 -58 31 -97q41 -54 141 -81q100 27 142 81zM1518 1336l-198 -200l-198 198l198 200zM1952 1339
l-196 -198l-203 196l200 200zM1712 1597l-174 -174l-172 172l174 174z" />
    <glyph glyph-name="uni06A8.fina" unicode="&#x6a8;" horiz-adv-x="1644" 
d="M1444 781q121 -147 121 -366v-102h105v-328h-110q-15 -209 -127 -344q-82 -94 -213 -143q-125 -46 -294 -46h-195q-172 0 -309 63q-156 71 -245 209q-96 152 -96 356q0 23 1 47q12 233 143 517l298 -137q-105 -226 -114 -397q-1 -14 -1 -28q0 -112 45 -181
q44 -70 136 -100q35 -12 76 -17q32 -4 66 -4h195q162 0 232 52q63 46 74 153h-140q-179 0 -303 96q-151 116 -151 334q0 207 100 351q122 176 354 176q221 0 352 -161zM1237 312v103q0 92 -39 146q-39 53 -106 53q-68 0 -108 -53q-37 -49 -37 -127q0 -9 1 -19q3 -53 47 -80
q38 -23 97 -23h145zM1085 1300l-198 -200l-198 198l198 200zM1519 1303l-196 -198l-203 196l200 200zM1279 1561l-174 -174l-172 172l174 174z" />
    <glyph glyph-name="uni06A9" unicode="&#x6a9;" horiz-adv-x="2008" arabic-form="isolated" 
d="M2008 1313l-655 -299q78 -77 241 -248q133 -142 187 -267q37 -86 37 -165v-8q-1 -64 -25 -119q-22 -52 -63 -93q-53 -55 -134 -86q-111 -44 -273 -44h-552q-314 0 -393 14q-154 26 -235 149q-51 77 -64 176q-4 36 -4 75q0 43 5 89q7 62 37 177q9 37 20 75q4 13 7 24
q2 9 3 11l315 -89q-51 -182 -68 -298q-1 -8 -1 -16q0 -19 7 -33q12 -26 43 -26h880q157 0 185 17q-2 9 -10 26q-10 19 -27 44q-43 65 -116 142q-174 185 -302 309q-22 21 -42 39q-15 15 -29 27q-5 5 -10 9l-7 7l-3 2l-1 2l-2 1l38 275l875 399z" />
    <glyph glyph-name="uni06AA.init" unicode="&#x6aa;" horiz-adv-x="1704" 
d="M1107 1087l-9 -3q-10 -3 -24 -8q-40 -15 -84 -33q-137 -56 -250 -120q-119 -66 -190 -128h527q238 0 413 -175q164 -162 164 -350q0 -123 -79 -202q-35 -35 -81 -55q-60 -27 -135 -27h-126l-1185 -2h-73v329h1338q-15 34 -47 67q-13 15 -29 28q-20 16 -41 28
q-57 31 -119 31h-355q-134 0 -251 1h-199l-163 164q0 187 170 359q111 113 305 221q130 72 284 135q49 20 95 37q15 5 28 10q4 1 8 3l3 1h1z" />
    <glyph glyph-name="uni06AA.medi" unicode="&#x6aa;" horiz-adv-x="1959" 
d="M1984 313v-328h-58q-167 0 -306 75l-19 11q-2 -2 -3 -2q-35 -35 -81 -56q-60 -27 -135 -27h-126l-837 -1h-444v328h1280l81 1q-17 36 -47 67q-14 14 -29 27q-20 16 -41 29q-57 31 -119 31q-340 0 -606 1h-199l-163 164q0 188 170 358q111 113 305 221q130 72 284 136
q49 20 95 37q15 5 28 10q4 1 8 3l3 1h1l104 -311l-9 -3q-10 -3 -24 -8q-40 -15 -84 -33q-137 -56 -250 -120q-118 -67 -190 -128q129 -1 527 -1q237 0 413 -174q41 -41 70 -83l4 3q109 -152 182 -195q54 -33 157 -33h58z" />
    <glyph glyph-name="uni06AA.fina" unicode="&#x6aa;" horiz-adv-x="2533" 
d="M2558 313v-328h-58q-167 0 -306 75l-19 11q-2 -2 -3 -2q-35 -35 -81 -56q-60 -27 -135 -27h-126l-837 -1h-156q-387 0 -506 32q-132 34 -199 126q-62 86 -62 221q0 80 35 222q12 49 27 100q5 19 11 36q4 14 7 23l312 -98q-25 -78 -44 -160q-20 -88 -20 -123q0 -7 1 -16
v-10q6 -2 15 -4q10 -3 24 -5q35 -7 85 -10q82 -6 280 -6h189l837 1h81q-17 36 -47 67q-14 14 -29 27q-20 16 -41 29q-57 31 -119 31h-355q-134 0 -251 1h-199l-163 164q0 188 170 358q111 113 305 221q130 72 284 136q49 20 95 37q15 5 28 10q4 1 8 3l3 1h1l104 -311l-9 -3
q-10 -3 -24 -8q-40 -15 -84 -33q-137 -56 -250 -120q-118 -67 -190 -128q129 -1 527 -1q237 0 413 -174q41 -41 70 -83l4 3q109 -152 182 -195q54 -33 157 -33h58z" />
    <glyph glyph-name="uni06AF" unicode="&#x6af;" horiz-adv-x="2008" arabic-form="isolated" 
d="M2008 1313l-655 -299q78 -77 241 -248q133 -142 187 -267q37 -86 37 -165v-8q-1 -64 -25 -119q-22 -52 -63 -93q-53 -55 -134 -86q-111 -44 -273 -44h-552q-314 0 -393 14q-154 26 -235 149q-51 77 -64 176q-4 36 -4 75q0 43 5 89q7 62 37 177q9 37 20 75q4 13 7 24
q2 9 3 11l315 -89q-51 -182 -68 -298q-1 -8 -1 -16q0 -19 7 -33q12 -26 43 -26h880q157 0 185 17q-2 9 -10 26q-10 19 -27 44q-43 65 -116 142q-174 185 -302 309q-22 21 -42 39q-15 15 -29 27q-5 5 -10 9l-7 7l-3 2l-1 2l-2 1l38 275l875 399zM1007 1484l764 334l54 -115
l-831 -364z" />
    <glyph glyph-name="uni06B5.init" unicode="&#x6b5;" horiz-adv-x="578" 
d="M528 433q0 -98 -32 -178q-35 -86 -101 -148q-131 -122 -340 -122h-80v328h80q94 0 128 47q12 16 16 39q1 9 2 19v1009h327v-994zM647 2022l-231 -413h-131l-234 413h171l126 -253l130 253h169z" />
    <glyph glyph-name="uni06B5.medi" unicode="&#x6b5;" horiz-adv-x="634" 
d="M528 433q0 -120 131 -120v-328q-92 0 -175 30q-69 25 -120 66q-125 -96 -310 -96h-79v328h79q94 0 128 47q12 16 16 39q1 9 2 19v1009h328v-994zM661 2013l-231 -413h-131l-234 413h171l126 -253l130 253h169z" />
    <glyph glyph-name="uni06B5.fina" unicode="&#x6b5;" horiz-adv-x="1438" 
d="M1463 313v-328h-25q-63 0 -116 14q-1 -81 -14 -146q-22 -120 -84 -206q-75 -103 -203 -153q-117 -47 -291 -47h-63q-158 0 -282 59q-138 64 -218 190q-86 138 -86 318q0 24 2 49q12 208 129 451l296 -141q-78 -164 -94 -295q-4 -34 -4 -65q0 -86 35 -142t108 -80
q29 -9 61 -14q26 -3 53 -3h63q77 0 131 12q71 16 97 53q37 50 37 200v1390h328v-996q0 -57 31 -88q30 -32 84 -32h25zM1407 2013l-231 -413h-131l-234 413h171l126 -253l130 253h169z" />
    <glyph glyph-name="uni06BA" unicode="&#x6ba;" horiz-adv-x="1571" arabic-form="isolated" 
d="M1521 53q0 -264 -130 -415q-82 -94 -213 -143q-125 -46 -295 -46h-151q-172 0 -310 63q-157 72 -245 209q-95 152 -95 353q0 25 1 50q12 233 143 517l298 -137q-105 -226 -114 -397q-1 -17 -1 -34q0 -107 45 -175q44 -70 136 -100q35 -12 76 -17q32 -4 66 -4h151
q187 0 254 69q57 59 57 207v623h327v-623z" />
    <glyph glyph-name="uni06BE" unicode="&#x6be;" horiz-adv-x="1947" arabic-form="isolated" 
d="M1012 480q0 80 -58 126q-45 36 -96 36q-23 0 -50 -8q-31 -9 -56 -26q-66 -46 -66 -128q0 -54 53 -103q52 -47 119 -58q154 53 154 161zM1739 714q137 -186 147 -383q1 -16 1 -33q0 -178 -112 -308q-133 -155 -399 -155q-146 0 -359 79q-68 25 -141 58q-12 6 -26 12
q-9 4 -21 9q-21 10 -25 12q-122 -32 -272 -32h-33q-224 4 -429 80l89 314q179 -48 248 -54q-43 107 -43 167q0 181 113 317q137 163 381 163q213 0 350 -155q125 -141 125 -325q0 -108 -56 -212q-29 -52 -57 -82q80 -33 188 -33q58 0 98 29q40 28 54 77q8 26 8 54
q0 89 -79 194q-244 327 -330 445l255 205q170 -230 325 -443z" />
    <glyph glyph-name="uni06C0" unicode="&#x6c0;" horiz-adv-x="1041" arabic-form="isolated" 
d="M623 308q54 38 54 113q0 45 -78 127q-39 40 -78 72q-142 -117 -142 -204q0 -74 56 -111q21 -14 49 -21q23 -6 45 -6q53 0 94 30zM479 1135q2 -1 5 -4q6 -7 15 -17q28 -29 62 -66q107 -115 235 -255q40 -45 66 -78q37 -46 63 -89q66 -112 66 -224q0 -113 -45 -202
q-35 -67 -93 -115q-123 -100 -324 -100t-323 101q-57 47 -91 113q-45 87 -45 199q0 197 162 377l66 75l-59 63l239 224zM674 1838l-36 -138q-36 8 -59 8q-48 0 -77 -25q-28 -23 -37 -65q92 -15 127 -24q35 -8 53 -21q37 -25 37 -70v-11q0 -7 -1 -14q-1 -17 -4 -33
q-8 -45 -32 -80q-65 -91 -217 -91h-109v143h109q13 0 25 1q16 1 29 4q33 8 45 25q4 6 6 13q-22 5 -66 12q-16 3 -42 7l-23 4l-24 4l-55 9l-5 56q-1 17 -1 33q0 131 93 208q50 42 117 54q23 4 51 4q48 0 96 -13z" />
    <glyph glyph-name="uni06C1" unicode="&#x6c1;" horiz-adv-x="1041" arabic-form="isolated" 
d="M623 308q54 38 54 113q0 45 -78 127q-39 40 -78 72q-142 -117 -142 -204q0 -74 56 -111q21 -14 49 -21q23 -6 45 -6q53 0 94 30zM479 1135q2 -1 5 -4q6 -7 15 -17q28 -29 62 -66q107 -115 235 -255q40 -45 66 -78q37 -46 63 -89q66 -112 66 -224q0 -113 -45 -202
q-35 -67 -93 -115q-123 -100 -324 -100t-323 101q-57 47 -91 113q-45 87 -45 199q0 197 162 377l66 75l-59 63l239 224z" />
    <glyph glyph-name="uni06C2.fina" unicode="&#x6c2;" horiz-adv-x="1322" 
d="M919 986q40 -169 82 -331l35 -131q28 -108 107 -164q66 -47 149 -47h58v-328h-58q-190 0 -344 112q-172 123 -229 345l-34 129q-17 62 -48 187q-43 -8 -60 -14q-113 -31 -136 -144q-5 -25 -5 -52q0 -18 2 -36q1 -18 4 -36q3 -14 6 -27q17 -70 34 -134q13 -51 26 -96
q4 -17 9 -33q3 -13 7 -24l5 -20l-315 -92l-3 9l-1 4q-1 4 -2 9q-3 12 -7 25q-5 17 -9 35q-29 106 -62 238q-23 92 -23 177q0 135 58 252q99 200 325 261q39 11 132 29q33 6 67 13q27 5 42 7zM131 1126v149l124 40q-30 31 -49.5 70t-19.5 83q0 34 12 67t33 61t49.5 49
t60.5 30q17 5 34.5 7.5t34.5 2.5q36 0 63.5 -8.5t51.5 -17.5l17 -8l-30 -124q-14 3 -31 8t-34 8t-33.5 3.5t-29.5 -3.5q-14 -5 -27.5 -14t-22.5 -20.5t-12 -26.5q-2 -6 -2 -12q0 -10 4 -20q8 -26 37.5 -44t82.5 -18q10 0 21.5 1t30.5 5.5t48.5 13t75.5 23.5l8 -141z" />
    <glyph glyph-name="uni06C3.fina" unicode="&#x6c3;" horiz-adv-x="1322" 
d="M919 986q40 -169 82 -331l35 -131q28 -108 107 -164q66 -47 149 -47h58v-328h-58q-190 0 -344 112q-172 123 -229 345l-34 129q-17 62 -48 187q-43 -8 -60 -14q-113 -31 -136 -144q-5 -25 -5 -52q0 -18 2 -36q1 -18 4 -36q3 -14 6 -27q17 -70 34 -134q13 -51 26 -96
q4 -17 9 -33q3 -13 7 -24l5 -20l-315 -92l-3 9l-1 4q-1 4 -2 9q-3 12 -7 25q-5 17 -9 35q-29 106 -62 238q-23 92 -23 177q0 135 58 252q99 200 325 261q39 11 132 29q33 6 67 13q27 5 42 7zM748 1191l-196 198l194 200l200 -200zM329 1190l-196 198l193 200l200 -200z" />
    <glyph glyph-name="uni06C6.fina" unicode="&#x6c6;" horiz-adv-x="1080" arabic-form="final" 
d="M678 312v103q0 92 -39 146q-39 53 -106 53q-68 0 -108 -53q-37 -49 -37 -127q0 -9 1 -19q3 -53 48 -80q38 -23 96 -23h145zM885 781q121 -147 121 -366v-103h99v-327h-102q-25 -311 -304 -445q-109 -52 -255 -75q-115 -19 -249 -19v328q250 0 376 70q102 56 102 141h-140
q-178 0 -303 96q-150 116 -150 334q0 207 100 351q121 176 353 176q221 0 352 -161zM831 1473l-231 -413h-131l-234 413h171l126 -253l130 253h169z" />
    <glyph glyph-name="uni06CC" unicode="&#x6cc;" horiz-adv-x="1642" arabic-form="isolated" 
d="M1581 913l-83 -317q-74 19 -141 23q-7 1 -20 1q-127 0 -214 -79q-88 -81 -88 -201q214 -60 321 -93q77 -24 112 -46q60 -37 86 -92q10 -21 14 -44q4 -17 4 -36q1 -18 1 -36q0 -546 -592 -546h-298q-249 0 -420 157q-193 177 -193 484q0 279 157 598l294 -144
q-123 -253 -123 -413q0 -67 7 -114q10 -68 35 -115q67 -125 243 -125h298q79 0 135 13q73 17 98 56q24 37 28 100q-12 4 -482 128q-53 100 -53 262q0 214 143 389q182 224 515 224q116 0 216 -34z" />
    <glyph glyph-name="uni06CE.init" unicode="&#x6ce;" horiz-adv-x="927" 
d="M843 493q8 -48 8 -92q0 -136 -78 -244q-125 -172 -407 -172h-391v328h384q90 0 127 24q38 23 38 73q0 15 -4 33q-10 51 -20 104q-4 20 -8 43l-4 19l-3 19q-15 82 -23 117l313 95q30 -141 68 -347zM612 -540l-196 198l194 200l200 -200zM190 -541l-196 198l193 200
l200 -200zM668 1437l-231 -413h-131l-234 413h171l126 -253l130 253h169z" />
    <glyph glyph-name="uni06CE.medi" unicode="&#x6ce;" horiz-adv-x="1024" 
d="M788 404q0 -48 23 -68q26 -23 92 -23h146v-328h-146q-65 0 -123 14q-46 11 -86 31q-46 22 -69 44q-23 -22 -74 -44q-101 -45 -240 -45h-336v328h359q72 0 101 24q26 21 26 67v272h327v-272zM681 -532l-196 198l194 200l200 -200zM259 -533l-196 198l193 200l200 -200z
M941 1269l-231 -413h-131l-234 413h171l126 -253l130 253h169z" />
    <glyph glyph-name="uni06CE.fina" unicode="&#x6ce;" horiz-adv-x="1811" 
d="M515 539q-116 -244 -116 -429q0 -18 1 -38q2 -25 7 -49q11 -63 38 -112q77 -138 258 -138h276q207 0 291 55q42 28 43 55q-142 83 -391 130v300h914v-328h-241q22 -35 22 -99q0 -23 -2 -46q-4 -32 -12 -62q-22 -83 -76 -147q-157 -185 -548 -185h-276q-333 0 -502 233
q-131 181 -131 431q0 184 75 396q38 106 75 175zM1241 822l-231 -413h-131l-234 413h171l126 -253l130 253h169z" />
    <glyph glyph-name="uni06D2" unicode="&#x6d2;" horiz-adv-x="1651" arabic-form="isolated" 
d="M909 -15h-383q-59 0 -95 -27q-37 -28 -37 -76q0 -51 36 -79q34 -27 96 -27h1125v-328h-1125q-197 0 -329 127q-131 129 -131 307q0 185 133 309q132 122 327 122h383v-328z" />
    <glyph glyph-name="uni06D3" unicode="&#x6d3;" horiz-adv-x="1651" arabic-form="isolated" 
d="M909 -15h-383q-59 0 -95 -27q-37 -28 -37 -76q0 -51 36 -79q34 -27 96 -27h1125v-328h-1125q-197 0 -329 127q-131 129 -131 307q0 185 133 309q132 122 327 122h383v-328zM164 302v149l124 40q-30 31 -49.5 70t-19.5 83q0 34 12 67t33 61t49.5 49t60.5 30q17 5 34.5 7.5
t34.5 2.5q36 0 63.5 -8.5t51.5 -17.5l17 -8l-30 -124q-14 3 -31 8t-34 8t-33.5 3.5t-29.5 -3.5q-14 -5 -27.5 -14t-22.5 -20.5t-12 -26.5q-2 -6 -2 -12q0 -10 4 -20q8 -26 37.5 -44t82.5 -18q10 0 21.5 1t30.5 5.5t48.5 13t75.5 23.5l8 -141z" />
    <glyph glyph-name="uniFB51" unicode="&#x671;" horiz-adv-x="606" arabic-form="final" 
d="M624 -15h-90q-111 0 -199 39q-67 29 -117 79t-79 117q-39 88 -39 199v861h327v-861q0 -61 23 -84q22 -22 84 -22h90v-328zM-29 1421l24 109h132l44 68l83 122q35 52 86 82.5t111 30.5q34 0 68 -13t61 -40t43.5 -68t16.5 -97q0 -54 -18 -91t-46 -60t-62.5 -33t-67.5 -10
h-475zM451 1724q-27 0 -53.5 -18t-51 -46t-47.5 -62.5t-43 -67.5h190q36 0 60 20t24 65q0 53 -20.5 81t-58.5 28z" />
    <glyph glyph-name="uniFB57" unicode="&#x67e;" horiz-adv-x="2236" arabic-form="final" 
d="M462 675q-51 -182 -68 -298q-1 -8 -1 -16q0 -19 7 -33q12 -26 43 -26h1181q72 0 72 66v309h328v-244q5 -64 25 -88q26 -32 97 -32h115v-328h-115q-180 0 -264 68q-78 -52 -217 -68q-101 -11 -359 -11h-567q-282 0 -361 14q-154 26 -235 149q-51 77 -64 176q-4 36 -4 75
q0 43 5 89q7 62 37 177q9 37 20 75q4 13 7 24q2 9 3 11zM845 -567l-198 194l198 204l198 -204zM1276 -571l-200 198l203 198l196 -198zM1065 -802l-174 174l172 172l174 -174z" />
    <glyph glyph-name="uniFB58" unicode="&#x67e;" horiz-adv-x="927" arabic-form="initial" 
d="M843 493q8 -48 8 -92q0 -136 -78 -244q-125 -172 -407 -172h-391v328h384q90 0 127 24q38 23 38 73q0 15 -4 33q-10 51 -20 104q-4 20 -8 43l-4 19l-3 19q-15 82 -23 117l313 95q30 -141 68 -347zM210 -570l-198 194l198 204l198 -204zM641 -574l-200 198l203 198
l196 -198zM430 -805l-174 174l172 172l174 -174z" />
    <glyph glyph-name="uniFB59" unicode="&#x67e;" horiz-adv-x="1024" arabic-form="medial" 
d="M788 404q0 -48 23 -68q26 -23 92 -23h146v-328h-146q-65 0 -123 14q-46 11 -86 31q-46 22 -69 44q-23 -22 -74 -44q-101 -45 -240 -45h-336v328h359q72 0 101 24q26 21 26 67v272h327v-272zM269 -565l-198 194l198 204l198 -204zM700 -569l-200 198l203 198l196 -198z
M489 -800l-174 174l172 172l174 -174z" />
    <glyph glyph-name="uniFB67" unicode="&#x679;" horiz-adv-x="2236" arabic-form="final" 
d="M462 675q-51 -182 -68 -298q-1 -8 -1 -16q0 -19 7 -33q12 -26 43 -26h1181q72 0 72 66v309h328v-244q5 -64 25 -88q26 -32 97 -32h115v-328h-115q-180 0 -264 68q-78 -52 -217 -68q-101 -11 -359 -11h-567q-282 0 -361 14q-154 26 -235 149q-51 77 -64 176q-4 36 -4 75
q0 43 5 89q7 62 37 177q9 37 20 75q4 13 7 24q2 9 3 11zM808 668v109h104q3 4 5.5 8.5t7 11.5t12 17.5t18.5 26.5v488h107v-343q36 38 79.5 63t95.5 25q34 0 68 -12t61 -37.5t43.5 -66t16.5 -96.5q0 -54 -18 -91t-46 -60t-62.5 -33t-67.5 -10h-424zM1237 965
q-26 0 -52 -16.5t-51 -43.5t-48 -60.5t-44 -67.5h190q36 0 62 20t26 65q0 53 -22.5 78t-60.5 25z" />
    <glyph glyph-name="uniFB68" unicode="&#x679;" horiz-adv-x="927" arabic-form="initial" 
d="M843 493q8 -48 8 -92q0 -136 -78 -244q-125 -172 -407 -172h-391v328h384q90 0 127 24q38 23 38 73q0 15 -4 33q-10 51 -20 104q-4 20 -8 43l-4 19l-3 19q-15 82 -23 117l313 95q30 -141 68 -347zM169 978v109h104q3 4 5.5 8.5t7 11.5t12 17.5t18.5 26.5v488h107v-343
q36 38 79.5 63t95.5 25q34 0 68 -12t61 -37.5t43.5 -66t16.5 -96.5q0 -54 -18 -91t-46 -60t-62.5 -33t-67.5 -10h-424zM598 1275q-26 0 -52 -16.5t-51 -43.5t-48 -60.5t-44 -67.5h190q36 0 62 20t26 65q0 53 -22.5 78t-60.5 25z" />
    <glyph glyph-name="uniFB69" unicode="&#x679;" horiz-adv-x="1024" arabic-form="medial" 
d="M788 404q0 -48 23 -68q26 -23 92 -23h146v-328h-146q-65 0 -123 14q-46 11 -86 31q-46 22 -69 44q-23 -22 -74 -44q-101 -45 -240 -45h-336v328h359q72 0 101 24q26 21 26 67v272h327v-272zM134 844v109h104q3 4 5.5 8.5t7 11.5t12 17.5t18.5 26.5v488h107v-343
q36 38 79.5 63t95.5 25q34 0 68 -12t61 -37.5t43.5 -66t16.5 -96.5q0 -54 -18 -91t-46 -60t-62.5 -33t-67.5 -10h-424zM563 1141q-26 0 -52 -16.5t-51 -43.5t-48 -60.5t-44 -67.5h190q36 0 62 20t26 65q0 53 -22.5 78t-60.5 25z" />
    <glyph glyph-name="uniFB6A" unicode="&#x6a4;" horiz-adv-x="2097" arabic-form="isolated" 
d="M1955 992q92 -177 92 -459q0 -303 -232 -445q-171 -104 -421 -104h-655q-282 0 -361 14q-154 26 -235 149q-51 77 -64 176q-4 36 -4 75q0 43 5 89q7 62 37 177q9 37 20 75q4 13 7 24q2 9 3 11l315 -89q-51 -182 -68 -298q-1 -8 -1 -16q0 -19 7 -33q12 -26 43 -26h951
q167 0 247 22q-229 0 -374 98q-172 117 -172 344q0 67 19 136q23 84 71 149q123 170 374 170q273 0 396 -239zM1726 658l-2 23q-3 25 -6 45q-8 53 -23 89q-38 95 -135 104q-7 1 -19 1q-65 0 -103 -39q-34 -36 -34 -91v-9q4 -97 98 -126q59 -18 226 -18zM1502 1514l-198 -200
l-198 198l198 200zM1936 1517l-196 -198l-203 196l200 200zM1696 1775l-174 -174l-172 172l174 174z" />
    <glyph glyph-name="uniFB6B" unicode="&#x6a4;" horiz-adv-x="2105" arabic-form="final" 
d="M1915 875q136 -144 136 -356q0 -114 -42 -206h119v-328h-145q-244 0 -425 55q-171 -55 -426 -55h-393q-282 0 -361 14q-154 26 -235 149q-51 77 -64 176q-4 36 -4 75q0 43 5 89q7 62 37 177q9 37 20 75q4 13 7 24q2 9 3 11l315 -89q-51 -182 -68 -298q-1 -8 -1 -16
q0 -19 7 -33q12 -26 43 -26h663q-42 92 -42 206q0 212 136 356q141 149 358 149t357 -149zM1700 422q30 39 30 97q0 70 -40 119q-47 58 -132 58t-132 -58q-40 -49 -40 -119q0 -58 31 -97q41 -54 141 -81q100 27 142 81zM1582 1338l-198 -200l-198 198l198 200zM2016 1341
l-196 -198l-203 196l200 200zM1776 1599l-174 -174l-172 172l174 174z" />
    <glyph glyph-name="uniFB6C" unicode="&#x6a4;" horiz-adv-x="1105" arabic-form="initial" 
d="M734 659l-2 23q-3 25 -6 45q-8 53 -23 89q-38 95 -135 104l-10 1h-9q-65 0 -103 -39q-34 -36 -34 -91v-9q4 -97 98 -126q59 -18 226 -18zM963 993q92 -177 92 -459q0 -303 -232 -445q-171 -104 -421 -104h-420v328h420q167 0 247 22q-229 0 -374 98q-172 117 -172 344
q0 67 19 136q23 84 71 149q123 170 374 170q273 0 396 -239zM477 1510l-198 -200l-198 198l198 200zM911 1513l-196 -198l-203 196l200 200zM671 1771l-174 -174l-172 172l174 174z" />
    <glyph glyph-name="uniFB6D" unicode="&#x6a4;" horiz-adv-x="1101" arabic-form="medial" 
d="M693 422q30 39 30 97q0 70 -40 119q-47 58 -132 58t-132 -58q-40 -49 -40 -119q0 -58 31 -97q41 -54 141 -81q100 27 142 81zM908 875q136 -144 136 -356q0 -114 -42 -206h119v-328h-145q-244 0 -425 55q-171 -55 -426 -55h-145v328h119q-42 92 -42 206q0 212 136 356
q141 149 358 149t357 -149zM531 1314l-198 -200l-198 198l198 200zM965 1317l-196 -198l-203 196l200 200zM725 1575l-174 -174l-172 172l174 174z" />
    <glyph glyph-name="uniFB7B" unicode="&#x686;" horiz-adv-x="1575" arabic-form="final" 
d="M606 1112q96 -13 469 -181q109 -49 233 -107q39 -18 75 -35q12 -6 21 -10q3 -2 6 -3l2 -1l-15 -300v-2l-9 -3q-11 -4 -29 -10q-49 -18 -131 -49q22 -46 40 -70q7 -9 14 -15q4 -4 8 -5q19 -10 107 -10h199v-328h-171q-191 0 -280 44q-85 43 -150 133q-39 56 -74 136l5 2
l-196 -73q-255 -95 -307 -139q-20 -17 -24 -33q-4 -11 -4 -29q0 -24 5 -56l14 -94q31 -202 70 -243q71 -74 346 -74h440v-328h-440q-416 0 -584 177q-78 83 -115 211q-13 44 -24 102l-9 53l-8 54q-8 58 -14 88q-9 54 -9 103q0 199 146 320q94 79 402 195l48 18q33 12 71 26
q24 9 65 25q82 31 116 43q-179 80 -282 119q-34 12 -56 19q-8 3 -14 4l-4 1l-2 1h-6q-27 0 -51 -30q-25 -31 -38 -82l-317 83q46 177 171 275q105 82 235 82q31 0 55 -4zM616 -221l-166 162l166 171l166 -171zM977 -225l-167 166l170 166l164 -166zM800 -418l-145 146
l144 144l145 -146z" />
    <glyph glyph-name="uniFB7C" unicode="&#x686;" horiz-adv-x="1430" arabic-form="initial" 
d="M549 917q82 -12 408 -102q114 -31 241 -67q100 -29 154 -45l51 -289q-387 -284 -582 -351q-230 -78 -845 -78v328q397 0 574 28q214 34 382 141l-73 20l-70 20q-86 25 -129 36q-132 36 -166 36q-27 0 -51 -31q-25 -30 -38 -82l-317 83q46 178 171 275q106 83 228 83
q30 0 62 -5zM468 -580l-198 194l198 204l198 -204zM899 -584l-200 198l203 198l196 -198zM688 -815l-174 174l172 172l174 -174z" />
    <glyph glyph-name="uniFB7D" unicode="&#x686;" horiz-adv-x="1532" arabic-form="medial" 
d="M563 917q82 -12 408 -102q114 -31 241 -67q100 -29 154 -45l51 -289l-29 -22l-29 -20q-35 -26 -54 -40q51 -13 144 -17q33 -1 71 -2h52v-328q-307 0 -437 61q-76 35 -125 94q-84 -46 -175 -77q-230 -78 -845 -78v328q397 0 574 28q214 34 382 141l-73 20l-70 20
q-86 25 -129 36q-132 36 -166 36q-27 0 -51 -31q-25 -30 -38 -82l-317 83q46 178 171 275q106 83 228 83q30 0 62 -5zM477 -581l-198 194l198 204l198 -204zM908 -585l-200 198l203 198l196 -198zM697 -816l-174 174l172 172l174 -174z" />
    <glyph glyph-name="uniFB89" unicode="&#x688;" horiz-adv-x="1268" arabic-form="final" 
d="M627 1090q26 -40 70 -104q116 -175 281 -422q9 -14 19 -28q13 -18 25 -36q35 -48 66 -84q88 -104 135 -104h70v-327h-95q-146 0 -279 119q-43 -46 -98 -76q-102 -58 -230 -58q-141 0 -350 47q-66 15 -132 33q-22 6 -41 12q-7 2 -12 3l-4 1l-2 1l97 313q34 -10 80 -23
q59 -15 115 -27q154 -33 249 -33q75 0 99 45q8 14 8 29q0 26 -21 57q-88 130 -163 242q-57 85 -107 159l-78 117l274 179zM273 1254v109h104q3 4 5.5 8.5t7 11.5t12 17.5t18.5 26.5v488h107v-343q36 38 79.5 63t95.5 25q34 0 68 -12t61 -37.5t43.5 -66t16.5 -96.5
q0 -54 -18 -91t-46 -60t-62.5 -33t-67.5 -10h-424zM702 1551q-26 0 -52 -16.5t-51 -43.5t-48 -60.5t-44 -67.5h190q36 0 62 20t26 65q0 53 -22.5 78t-60.5 25z" />
    <glyph glyph-name="uniFB8B" unicode="&#x698;" horiz-adv-x="913" arabic-form="final" 
d="M768 677v-273q0 -43 44 -69q35 -22 71 -22h46v-328h-46q-58 0 -123 19q-29 -221 -149 -356q-175 -199 -512 -199h-99v328h99q184 0 262 83q79 83 79 278v539h328zM522 1082l-198 -200l-198 198l198 200zM956 1085l-196 -198l-203 196l200 200zM716 1343l-174 -174
l-172 172l174 174z" />
    <glyph glyph-name="uniFB8D" unicode="&#x691;" horiz-adv-x="904" arabic-form="final" 
d="M768 677v-273q0 -43 44 -69q35 -22 71 -22h46v-328h-46q-58 0 -123 19q-29 -221 -149 -356q-175 -199 -512 -199h-99v328h99q184 0 262 83q79 83 79 278v539h328zM226 875v109h104q3 4 5.5 8.5t7 11.5t12 17.5t18.5 26.5v488h107v-343q36 38 79.5 63t95.5 25q34 0 68 -12
t61 -37.5t43.5 -66t16.5 -96.5q0 -54 -18 -91t-46 -60t-62.5 -33t-67.5 -10h-424zM655 1172q-26 0 -52 -16.5t-51 -43.5t-48 -60.5t-44 -67.5h190q36 0 62 20t26 65q0 53 -22.5 78t-60.5 25z" />
    <glyph glyph-name="uniFB8F" unicode="&#x6a9;" horiz-adv-x="2023" arabic-form="final" 
d="M2033 -15q-235 0 -395 124q-44 35 -80 72q-62 -81 -162 -133q-122 -64 -264 -64h-361q-314 0 -393 14q-154 26 -235 149q-51 77 -64 176q-4 36 -4 75q0 43 5 89q7 62 37 177q9 37 20 75q4 13 7 24q2 9 3 11l315 -89q-51 -182 -68 -298q-1 -8 -1 -16q0 -19 7 -33
q12 -26 43 -26h689q56 0 107 24t68 58q8 17 8 37q0 52 -52 128l-33 45q-68 84 -175 220q-40 50 -71 89q-28 36 -29 37l58 249l867 418l142 -295l-683 -329q50 -63 309 -402q130 -177 190 -223q72 -55 195 -55h15v-328h-15z" />
    <glyph glyph-name="uniFB90" unicode="&#x6a9;" horiz-adv-x="1190" arabic-form="initial" 
d="M1190 1313l-655 -298q86 -85 241 -249q133 -143 187 -266q37 -86 37 -165v-8q-1 -64 -25 -119q-22 -52 -63 -94q-53 -54 -134 -86q-112 -43 -273 -43h-530v328h530q155 0 185 17q-2 9 -10 26q-10 19 -27 44q-43 65 -116 142q-174 185 -302 309q-22 21 -42 39
q-15 15 -29 27q-5 5 -10 9l-7 7l-3 2l-1 2l-2 1l38 274l875 400z" />
    <glyph glyph-name="uniFB91" unicode="&#x6a9;" horiz-adv-x="1239" arabic-form="medial" 
d="M1069 368q70 -55 195 -55v-328q-235 0 -395 124q-36 27 -81 72q-62 -82 -161 -133q-121 -63 -265 -63h-387v328h387q57 0 108 23q51 24 67 58q8 16 8 37q0 51 -51 128l-34 45q-67 83 -175 220q-39 49 -70 89q-28 36 -29 37l57 248l867 419l143 -295l-683 -330
q50 -62 308 -401q130 -176 191 -223z" />
    <glyph glyph-name="uniFB93" unicode="&#x6af;" horiz-adv-x="2023" arabic-form="final" 
d="M2033 -15q-235 0 -395 124q-44 35 -80 72q-62 -81 -162 -133q-122 -64 -264 -64h-361q-314 0 -393 14q-154 26 -235 149q-51 77 -64 176q-4 36 -4 75q0 43 5 89q7 62 37 177q9 37 20 75q4 13 7 24q2 9 3 11l315 -89q-51 -182 -68 -298q-1 -8 -1 -16q0 -19 7 -33
q12 -26 43 -26h689q56 0 107 24t68 58q8 17 8 37q0 52 -52 128l-33 45q-68 84 -175 220q-40 50 -71 89q-28 36 -29 37l58 249l867 418l142 -295l-683 -329q50 -63 309 -402q130 -177 190 -223q72 -55 195 -55h15v-328h-15zM1033 1497l734 326l52 -112l-799 -356z" />
    <glyph glyph-name="uniFB94" unicode="&#x6af;" horiz-adv-x="1190" arabic-form="initial" 
d="M1190 1313l-655 -298q86 -85 241 -249q133 -143 187 -266q37 -86 37 -165v-8q-1 -64 -25 -119q-22 -52 -63 -94q-53 -54 -134 -86q-112 -43 -273 -43h-530v328h530q155 0 185 17q-2 9 -10 26q-10 19 -27 44q-43 65 -116 142q-174 185 -302 309q-22 21 -42 39
q-15 15 -29 27q-5 5 -10 9l-7 7l-3 2l-1 2l-2 1l38 274l875 400zM200 1504l734 326l52 -112l-799 -356z" />
    <glyph glyph-name="uniFB95" unicode="&#x6af;" horiz-adv-x="1239" arabic-form="medial" 
d="M1069 368q70 -55 195 -55v-328q-235 0 -395 124q-36 27 -81 72q-62 -82 -161 -133q-121 -63 -265 -63h-387v328h387q57 0 108 23q51 24 67 58q8 16 8 37q0 51 -51 128l-34 45q-67 83 -175 220q-39 49 -70 89q-28 36 -29 37l57 248l867 419l143 -295l-683 -330
q50 -62 308 -401q130 -176 191 -223zM259 1504l734 326l52 -112l-799 -356z" />
    <glyph glyph-name="uniFB9F" unicode="&#x6ba;" horiz-adv-x="1685" arabic-form="final" 
d="M1521 414q0 -47 32 -74q31 -27 82 -27h75v-328h-105l-31 2q-34 3 -55 12q-12 -226 -128 -361q-82 -94 -213 -143q-125 -46 -295 -46h-151q-172 0 -310 63q-157 72 -245 209q-95 152 -95 353q0 25 1 50q12 233 143 517l298 -137q-105 -226 -114 -397q-1 -17 -1 -34
q0 -107 45 -175q44 -70 136 -100q35 -12 76 -17q32 -4 66 -4h151q187 0 254 69q57 59 57 207v623h327v-262z" />
    <glyph glyph-name="uniFBA5" unicode="&#x6c0;" horiz-adv-x="1293" arabic-form="final" 
d="M635 414q54 44 54 116v5q-1 30 -12 80q-3 15 -10 46l-6 26l-6 27q-159 -55 -210 -106q-47 -47 -47 -103v-7q3 -59 52 -96q31 -23 80 -23q61 0 105 35zM977 772q8 -34 20 -87l10 -41l9 -39q21 -90 40 -162q22 -81 79 -105q34 -15 87 -21q36 -4 96 -4v-328q-90 0 -155 9
q-90 12 -162 44q-96 44 -160 120l-12 14q-51 -45 -116 -72q-83 -33 -176 -33l-10 1h-11q-114 5 -207 55q-174 91 -214 286q-11 52 -11 103q0 67 19 131q37 113 129 201q101 97 351 177l-19 88l320 73q57 -250 93 -410zM914 1916l-36 -138q-36 8 -59 8q-48 0 -77 -25
q-28 -23 -37 -65q92 -15 127 -24q35 -8 53 -21q37 -25 37 -70v-11q0 -7 -1 -14q-1 -17 -4 -33q-8 -45 -32 -80q-65 -91 -217 -91h-109v143h109q13 0 25 1q16 1 29 4q33 8 45 25q4 6 6 13q-22 5 -66 12q-16 3 -42 7l-23 4l-24 4l-55 9l-5 56q-1 17 -1 33q0 131 93 208
q50 42 117 54q23 4 51 4q48 0 96 -13z" />
    <glyph glyph-name="uniFBA7" unicode="&#x6c1;" horiz-adv-x="1322" arabic-form="final" 
d="M919 986q40 -169 82 -331l35 -131q28 -108 107 -164q66 -47 149 -47h58v-328h-58q-190 0 -344 112q-172 123 -229 345l-34 129q-17 62 -48 187q-43 -8 -60 -14q-113 -31 -136 -144q-5 -25 -5 -52q0 -18 2 -36q1 -18 4 -36q3 -14 6 -27q17 -70 34 -134q13 -51 26 -96
q4 -17 9 -33q3 -13 7 -24l5 -20l-315 -92l-3 9l-1 4q-1 4 -2 9q-3 12 -7 25q-5 17 -9 35q-29 106 -62 238q-23 92 -23 177q0 135 58 252q99 200 325 261q39 11 132 29q33 6 67 13q27 5 42 7z" />
    <glyph glyph-name="uniFBA8" unicode="&#x6c1;" horiz-adv-x="750" arabic-form="initial" 
d="M666 493q8 -48 8 -92q0 -136 -78 -244q-125 -172 -407 -172h-214v328h207q90 0 127 24q38 23 38 73q0 15 -4 33q-10 51 -20 104q-4 20 -8 43l-4 19l-3 19q-15 82 -23 117l313 95q30 -141 68 -347zM395 -227q-11 -8 -29 -23q-23 -20 -43 -41q-57 -61 -72 -113q23 5 44 5
q77 0 131 -54t54 -131q0 -76 -59 -131q-58 -54 -135 -54q-91 0 -157 60q-79 72 -79 203q0 127 87 257q69 105 143 150z" />
    <glyph glyph-name="uniFBA9" unicode="&#x6c1;" horiz-adv-x="1181" arabic-form="medial" 
d="M1206 -15h-136q-78 0 -120 -65q-46 -70 -50 -179v-20q0 -98 36 -179l-150 -230q-206 0 -355 94q-132 84 -206 236q-69 140 -85 343h-164v328h322l163 -164q0 -103 10 -181q14 -111 49 -183q22 -47 53 -76v48q9 198 102 341q139 215 395 215h136v-328z" />
    <glyph glyph-name="uniFBAB" unicode="&#x6be;" horiz-adv-x="1901" arabic-form="final" 
d="M892 480q0 80 -58 126q-45 36 -96 36q-23 0 -50 -8q-31 -9 -56 -26q-66 -46 -66 -128q0 -54 53 -103q52 -47 119 -58q154 53 154 161zM1651 -15q-133 -150 -395 -150q-146 0 -359 79q-68 25 -141 58q-12 6 -26 12q-9 4 -21 9q-21 10 -25 12q-163 -20 -383 -20h-198v328
h184q-43 107 -43 167q0 181 113 317q137 163 381 163q213 0 350 -155q125 -141 125 -325q0 -108 -56 -212q-29 -52 -57 -82q80 -33 188 -33q58 0 98 29q40 28 54 77q8 26 8 54q0 89 -79 194q-244 327 -330 445l255 205q170 -230 325 -443q137 -186 147 -383q1 -9 1 -18h151
q41 0 41 -38v-250q0 -40 -41 -40h-267z" />
    <glyph glyph-name="uniFBAC" unicode="&#x6be;" horiz-adv-x="1727" arabic-form="initial" 
d="M772 480q0 80 -58 126q-45 36 -96 36q-23 0 -50 -8q-31 -9 -56 -26q-66 -46 -66 -128q0 -54 53 -103q52 -47 119 -58q154 53 154 161zM1499 714q137 -186 147 -383q1 -16 1 -33q0 -178 -112 -308q-133 -155 -399 -155q-146 0 -359 79q-68 25 -141 58q-12 6 -26 12
q-9 4 -21 9q-21 10 -25 12q-163 -20 -383 -20h-198v328h184q-43 107 -43 167q0 181 113 317q137 163 381 163q213 0 350 -155q125 -141 125 -325q0 -108 -56 -212q-29 -52 -57 -82q80 -33 188 -33q58 0 98 29q40 28 54 77q8 26 8 54q0 89 -79 194q-244 327 -330 445l255 205
q170 -230 325 -443z" />
    <glyph glyph-name="uniFBAD" unicode="&#x6be;" horiz-adv-x="1264" arabic-form="medial" 
d="M725 -20q10 42 25 81q5 14 10 26l4 8q1 3 2 4q-129 -66 -270 -77q14 -80 92 -162q67 -71 132 -98q-12 42 -12 91q0 58 17 127zM729 447q24 24 34 51q3 10 4 20l1 8v6q0 37 -24 63q-28 29 -79 29q-80 0 -134 -110q-19 -39 -34 -90q-6 -19 -10 -40q-4 -15 -7 -31
q180 25 249 94zM955 848q133 -109 133 -316q0 -126 -65 -229q43 10 79 10h187v-328h-165q-34 0 -61 -28q-25 -27 -35 -71q-6 -24 -6 -48q0 -73 58 -135l-104 -267q-58 -8 -106 -8q-309 0 -522 228q-78 84 -131 186q-44 83 -56 146q-102 -3 -186 -3v328h81q48 1 89 3
q23 225 110 375q71 122 176 186q106 65 234 65q176 0 290 -94z" />
    <glyph glyph-name="uniFBAF" unicode="&#x6d2;" horiz-adv-x="1314" arabic-form="final" 
d="M1342 -15h-816q-59 0 -95 -29q-37 -29 -37 -78q0 -103 132 -103h766v-328h-766q-197 0 -329 127q-131 129 -131 304q0 185 133 311q133 124 327 124h816v-328z" />
    <glyph glyph-name="uniFBB1" unicode="&#x6d3;" horiz-adv-x="1314" arabic-form="final" 
d="M1342 -15h-816q-59 0 -95 -29q-37 -29 -37 -78q0 -103 132 -103h766v-328h-766q-197 0 -329 127q-131 129 -131 304q0 185 133 311q133 124 327 124h816v-328zM166 304v149l124 40q-30 31 -49.5 70t-19.5 83q0 34 12 67t33 61t49.5 49t60.5 30q17 5 34.5 7.5t34.5 2.5
q36 0 63.5 -8.5t51.5 -17.5l17 -8l-30 -124q-14 3 -31 8t-34 8t-33.5 3.5t-29.5 -3.5q-14 -5 -27.5 -14t-22.5 -20.5t-12 -26.5q-2 -6 -2 -12q0 -10 4 -20q8 -26 37.5 -44t82.5 -18q10 0 21.5 1t30.5 5.5t48.5 13t75.5 23.5l8 -141z" />
    <glyph glyph-name="uniFBE8" unicode="&#x649;" horiz-adv-x="750" arabic-form="initial" 
d="M666 493q8 -48 8 -92q0 -136 -78 -244q-125 -172 -407 -172h-214v328h207q90 0 127 24q38 23 38 73q0 15 -4 33q-10 51 -20 104q-4 20 -8 43l-4 19l-3 19q-15 82 -23 117l313 95q30 -141 68 -347z" />
    <glyph glyph-name="uniFBE9" unicode="&#x649;" horiz-adv-x="770" arabic-form="medial" 
d="M640 404q0 -48 23 -68q26 -23 92 -23h40v-328h-40q-65 0 -123 14q-46 11 -86 31q-46 22 -69 44q-23 -22 -74 -44q-101 -45 -240 -45h-188v328h211q72 0 101 24q26 21 26 67v272h327v-272z" />
    <glyph glyph-name="uniFBFD" unicode="&#x6cc;" horiz-adv-x="1811" arabic-form="final" 
d="M515 539q-116 -244 -116 -429q0 -18 1 -38q2 -25 7 -49q11 -63 38 -112q77 -138 258 -138h276q207 0 291 55q42 28 43 55q-142 83 -391 130v300h914v-328h-241q22 -35 22 -99q0 -23 -2 -46q-4 -32 -12 -62q-22 -83 -76 -147q-157 -185 -548 -185h-276q-333 0 -502 233
q-131 181 -131 431q0 184 75 396q38 106 75 175z" />
    <glyph glyph-name="uniFBFE" unicode="&#x6cc;" horiz-adv-x="927" arabic-form="initial" 
d="M843 493q8 -48 8 -92q0 -136 -78 -244q-125 -172 -407 -172h-391v328h384q90 0 127 24q38 23 38 73q0 15 -4 33q-10 51 -20 104q-4 20 -8 43l-4 19l-3 19q-15 82 -23 117l313 95q30 -141 68 -347zM610 -587l-196 198l194 200l200 -200zM188 -588l-196 198l193 200
l200 -200z" />
    <glyph glyph-name="uniFBFF" unicode="&#x6cc;" horiz-adv-x="1024" arabic-form="medial" 
d="M788 404q0 -48 23 -68q26 -23 92 -23h146v-328h-146q-65 0 -123 14q-46 11 -86 31q-46 22 -69 44q-23 -22 -74 -44q-101 -45 -240 -45h-336v328h359q72 0 101 24q26 21 26 67v272h327v-272zM657 -593l-196 198l194 200l200 -200zM235 -594l-196 198l193 200l200 -200z
" />
    <glyph glyph-name="uniFC5E" unicode="&#xfc5e;" arabic-form="isolated" 
d="M-130 1599q-92 0 -144.5 51.5t-52.5 142.5v108h115v-108q0 -42 19.5 -61t62.5 -19q6 0 17.5 2.5t22.5 10.5t19.5 24t8.5 43v108h116v-108q0 -42 19.5 -61.5t63.5 -19.5q6 0 17 3t21.5 11.5t18.5 24.5t8 42t-9.5 64t-20.5 79l109 37q3 -13 9 -32.5t12 -43.5t10.5 -50.5
t4.5 -53.5q0 -50 -16.5 -86.5t-42.5 -60.5t-58.5 -36t-64.5 -12q-43 0 -79 13t-61 35q-26 -24 -59 -35.5t-66 -11.5zM-217 2053q4 9 10.5 21t12 26t9.5 29t4 29q0 8 -4 18.5t-7 17.5q-14 17 -35 17q-18 0 -39 -9.5t-35 -20.5l-72 71q3 4 15.5 17t32.5 26t47 23q24 8 53 8h7
q37 -2 67.5 -22t48.5 -51q11 -21 16.5 -46.5t5.5 -48.5q0 -13 -1 -25t-3 -24q42 14 88.5 32.5t83.5 41.5q-35 13 -63.5 33t-49 44t-31.5 51.5t-11 56.5q0 33 16 65q12 25 32 47.5t44 39t51.5 26t54.5 9.5q34 0 63 -14q55 -26 79.5 -75.5t24.5 -105.5q0 -48 -15.5 -97.5
t-42.5 -90.5q-22 -32 -58 -59.5t-77.5 -49.5t-85 -38.5t-80 -28t-63 -17.5t-34.5 -7zM131 2439q-10 0 -23 -3.5t-26 -9.5t-24.5 -15t-18.5 -20q0 -21 13.5 -39t33 -32t42 -24.5t40.5 -17.5q5 19 8 39.5t3 41.5q0 24 -7 44q-5 14 -15.5 25t-25.5 11z" />
    <glyph glyph-name="uniFC5F" unicode="&#xfc5f;" arabic-form="isolated" 
d="M-119 2201q-92 0 -144.5 51.5t-52.5 142.5v108h115v-108q0 -42 19.5 -61t62.5 -19q6 0 17.5 2.5t22.5 10.5t19.5 24t8.5 43v108h116v-108q0 -42 19.5 -61.5t63.5 -19.5q6 0 17 3t21.5 11.5t18.5 24.5t8 42t-9.5 64t-20.5 79l109 37q3 -13 9 -32.5t12 -43.5t10.5 -50.5
t4.5 -53.5q0 -50 -16.5 -86.5t-42.5 -60.5t-58.5 -36t-64.5 -12q-43 0 -79 13t-61 35q-26 -24 -59 -35.5t-66 -11.5zM-249 1725l504 187v-137l-504 -190v140zM-249 1966l504 188v-138l-504 -189v139z" />
    <glyph glyph-name="uniFC60" unicode="&#xfc60;" arabic-form="isolated" 
d="M-130 1599q-92 0 -144.5 51.5t-52.5 142.5v108h115v-108q0 -42 19.5 -61t62.5 -19q6 0 17.5 2.5t22.5 10.5t19.5 24t8.5 43v108h116v-108q0 -42 19.5 -61.5t63.5 -19.5q6 0 17 3t21.5 11.5t18.5 24.5t8 42t-9.5 64t-20.5 79l109 37q3 -13 9 -32.5t12 -43.5t10.5 -50.5
t4.5 -53.5q0 -50 -16.5 -86.5t-42.5 -60.5t-58.5 -36t-64.5 -12q-43 0 -79 13t-61 35q-26 -24 -59 -35.5t-66 -11.5zM-280 2125l504 187v-138l-504 -189v140z" />
    <glyph glyph-name="uniFC61" unicode="&#xfc61;" arabic-form="isolated" 
d="M-130 1599q-92 0 -144.5 51.5t-52.5 142.5v108h115v-108q0 -42 19.5 -61t62.5 -19q6 0 17.5 2.5t22.5 10.5t19.5 24t8.5 43v108h116v-108q0 -42 19.5 -61.5t63.5 -19.5q6 0 17 3t21.5 11.5t18.5 24.5t8 42t-9.5 64t-20.5 79l109 37q3 -13 9 -32.5t12 -43.5t10.5 -50.5
t4.5 -53.5q0 -50 -16.5 -86.5t-42.5 -60.5t-58.5 -36t-64.5 -12q-43 0 -79 13t-61 35q-26 -24 -59 -35.5t-66 -11.5zM-298 2102q33 10 70.5 22.5t75 27.5t72.5 32.5t63 38.5q-37 12 -67.5 32t-52.5 46t-34.5 55.5t-12.5 61.5q0 33 13 62q12 25 32 48t44.5 40t52.5 27t56 10
q36 0 67 -17q57 -31 81 -78.5t24 -103.5q0 -54 -19.5 -110t-53.5 -104q-33 -47 -86.5 -82.5t-109.5 -60.5t-106 -40.5t-76 -23.5zM-77 2439q-2 -4 -2 -10q0 -8 7 -23t26.5 -34t46.5 -35t57 -20q6 15 10.5 38t4.5 47q0 31 -12.5 56t-45.5 28q-22 0 -50.5 -11.5t-41.5 -35.5z
" />
    <glyph glyph-name="uniFC62" unicode="&#xfc62;" arabic-form="isolated" 
d="M-116 1932q-92 0 -144.5 51.5t-52.5 142.5v108h115v-108q0 -42 19.5 -61t62.5 -19q6 0 17.5 2.5t22.5 10.5t19.5 24t8.5 43v108h116v-108q0 -42 19.5 -61.5t63.5 -19.5q6 0 17 3t21.5 11.5t18.5 24.5t8 42t-9.5 64t-20.5 79l109 37q3 -13 9 -32.5t12 -43.5t10.5 -50.5
t4.5 -53.5q0 -50 -16.5 -86.5t-42.5 -60.5t-58.5 -36t-64.5 -12q-43 0 -79 13t-61 35q-26 -24 -59 -35.5t-66 -11.5zM-239 1693l504 188v-138l-504 -189v139z" />
    <glyph glyph-name="uniFC63" unicode="&#xfc63;" arabic-form="isolated" 
d="M-130 1599q-92 0 -144.5 51.5t-52.5 142.5v108h115v-108q0 -42 19.5 -61t62.5 -19q6 0 17.5 2.5t22.5 10.5t19.5 24t8.5 43v108h116v-108q0 -42 19.5 -61.5t63.5 -19.5q6 0 17 3t21.5 11.5t18.5 24.5t8 42t-9.5 64t-20.5 79l109 37q3 -13 9 -32.5t12 -43.5t10.5 -50.5
t4.5 -53.5q0 -50 -16.5 -86.5t-42.5 -60.5t-58.5 -36t-64.5 -12q-43 0 -79 13t-61 35q-26 -24 -59 -35.5t-66 -11.5zM-71 2432h140v-408h-140v408z" />
    <glyph glyph-name="uniFE70" unicode="&#xfe70;" arabic-form="isolated" 
d="M-252 1711l504 187v-138l-504 -189v140zM-252 1952l504 187v-137l-504 -189v139z" />
    <glyph glyph-name="uniFE72" unicode="&#xfe72;" arabic-form="isolated" 
d="M-277 1664q4 9 10.5 21t12 26t9.5 29t4 29q0 8 -4 18.5t-7 17.5q-14 17 -35 17q-18 0 -39 -9.5t-35 -20.5l-72 71q3 4 15.5 17t32.5 26t47 23q24 8 53 8h7q37 -2 67.5 -22t48.5 -51q11 -21 16.5 -46.5t5.5 -48.5q0 -13 -1 -25t-3 -24q42 14 88.5 32.5t83.5 41.5
q-35 13 -63.5 33t-49 44t-31.5 51.5t-11 56.5q0 33 16 65q12 25 32 47.5t44 39t51.5 26t54.5 9.5q34 0 63 -14q55 -26 79.5 -75.5t24.5 -105.5q0 -48 -15.5 -97.5t-42.5 -90.5q-22 -32 -58 -59.5t-77.5 -49.5t-85 -38.5t-80 -28t-63 -17.5t-34.5 -7zM71 2050q-10 0 -23 -3.5
t-26 -9.5t-24.5 -15t-18.5 -20q0 -21 13.5 -39t33 -32t42 -24.5t40.5 -17.5q5 19 8 39.5t3 41.5q0 24 -7 44q-5 14 -15.5 25t-25.5 11z" />
    <glyph glyph-name="uniFE74" unicode="&#xfe74;" arabic-form="isolated" 
d="M-252 -681l504 187v-137l-504 -190v140zM-252 -440l504 188v-138l-504 -189v139z" />
    <glyph glyph-name="uniFE76" unicode="&#xfe76;" arabic-form="isolated" 
d="M-252 1711l504 187v-138l-504 -189v140z" />
    <glyph glyph-name="uniFE78" unicode="&#xfe78;" arabic-form="isolated" 
d="M-298 1635q33 10 70.5 22.5t75 27.5t72.5 32.5t63 38.5q-37 12 -67.5 32t-52.5 46t-34.5 55.5t-12.5 61.5q0 33 13 62q12 25 32 48t44.5 40t52.5 27t56 10q36 0 67 -17q57 -31 81 -78.5t24 -103.5q0 -54 -19.5 -110t-53.5 -104q-33 -47 -86.5 -82.5t-109.5 -60.5
t-106 -40.5t-76 -23.5zM-77 1972q-2 -4 -2 -10q0 -8 7 -23t26.5 -34t46.5 -35t57 -20q6 15 10.5 38t4.5 47q0 31 -12.5 56t-45.5 28q-22 0 -50.5 -11.5t-41.5 -35.5z" />
    <glyph glyph-name="uniFE7A" unicode="&#xfe7a;" arabic-form="isolated" 
d="M-252 -440l504 188v-138l-504 -189v139z" />
    <glyph glyph-name="uniFE7C" unicode="&#xfe7c;" arabic-form="isolated" 
d="M-130 1609q-92 0 -144.5 51.5t-52.5 142.5v108h115v-108q0 -42 19.5 -61t62.5 -19q6 0 17.5 2.5t22.5 10.5t19.5 24t8.5 43v108h116v-108q0 -42 19.5 -61.5t63.5 -19.5q6 0 17 3t21.5 11.5t18.5 24.5t8 42t-9.5 64t-20.5 79l109 37q3 -13 9 -32.5t12 -43.5t10.5 -50.5
t4.5 -53.5q0 -50 -16.5 -86.5t-42.5 -60.5t-58.5 -36t-64.5 -12q-43 0 -79 13t-61 35q-26 -24 -59 -35.5t-66 -11.5z" />
    <glyph glyph-name="uniFE7E" unicode="&#xfe7e;" arabic-form="isolated" 
d="M-2 1599q-54 0 -97 16t-74 45t-47.5 71t-16.5 95t16.5 96t47.5 73t74.5 46t96.5 16q51 0 95.5 -16t76.5 -46t50.5 -72.5t18.5 -94.5t-18 -95t-50 -73t-76 -46q-42 -15 -91 -15h-6zM-2 1726q22 0 41.5 6.5t34.5 19.5t23.5 31.5t8.5 42.5t-8.5 43.5t-23.5 33t-34.5 21
t-41.5 7.5q-45 0 -77.5 -28t-32.5 -77q0 -51 29.5 -75.5t80.5 -24.5z" />
    <glyph glyph-name="uniFE82" unicode="&#x622;" horiz-adv-x="656" arabic-form="final" 
d="M674 -15h-90q-111 0 -199 39q-67 29 -117 79t-79 117q-39 88 -39 199v861h327v-861q0 -61 23 -84q22 -22 84 -22h90v-328zM793 1423h-490q-59 0 -99.5 -3.5t-69 -18t-47 -42t-33.5 -75.5l-186 55q26 90 71 147t108 89q54 26 117 34.5t139 8.5h490v-195z" />
    <glyph glyph-name="uniFE84" unicode="&#x623;" horiz-adv-x="599" arabic-form="final" 
d="M624 -15h-90q-111 0 -199 39q-67 29 -117 79t-79 117q-39 88 -39 199v861h327v-861q0 -61 23 -84q22 -22 84 -22h90v-328zM18 1355v149l124 40q-30 31 -49.5 70t-19.5 83q0 34 12 67t33 61t49.5 49t60.5 30q17 5 34.5 7.5t34.5 2.5q36 0 63.5 -8.5t51.5 -17.5l17 -8
l-30 -124q-14 3 -31 8t-34 8t-33.5 3.5t-29.5 -3.5q-14 -5 -27.5 -14t-22.5 -20.5t-12 -26.5q-2 -6 -2 -12q0 -10 4 -20q8 -26 37.5 -44t82.5 -18q10 0 21.5 1t30.5 5.5t48.5 13t75.5 23.5l8 -141z" />
    <glyph glyph-name="uniFE86" unicode="&#x624;" horiz-adv-x="1080" arabic-form="final" 
d="M678 312v103q0 92 -39 146q-39 53 -106 53q-68 0 -108 -53q-37 -49 -37 -127q0 -9 1 -19q3 -53 48 -80q38 -23 96 -23h145zM885 781q121 -147 121 -366v-103h99v-327h-102q-25 -311 -304 -445q-109 -52 -255 -75q-115 -19 -249 -19v328q250 0 376 70q102 56 102 141h-140
q-178 0 -303 96q-150 116 -150 334q0 207 100 351q121 176 353 176q221 0 352 -161zM163 994v149l124 40q-30 31 -49.5 70t-19.5 83q0 34 12 67t33 61t49.5 49t60.5 30q17 5 34.5 7.5t34.5 2.5q36 0 63.5 -8.5t51.5 -17.5l17 -8l-30 -124q-14 3 -31 8t-34 8t-33.5 3.5
t-29.5 -3.5q-14 -5 -27.5 -14t-22.5 -20.5t-12 -26.5q-2 -6 -2 -12q0 -10 4 -20q8 -26 37.5 -44t82.5 -18q10 0 21.5 1t30.5 5.5t48.5 13t75.5 23.5l8 -141z" />
    <glyph glyph-name="uniFE88" unicode="&#x625;" horiz-adv-x="597" arabic-form="final" 
d="M624 -15h-90q-111 0 -199 39q-67 29 -117 79t-79 117q-39 88 -39 199v1008h327v-1008q0 -61 23 -84q22 -22 84 -22h90v-328zM72 -692v149l124 40q-30 31 -49.5 70t-19.5 83q0 34 12 67t33 61t49.5 49t60.5 30q17 5 34.5 7.5t34.5 2.5q36 0 63.5 -8.5t51.5 -17.5l17 -8
l-30 -124q-14 3 -31 8t-34 8t-33.5 3.5t-29.5 -3.5q-14 -5 -27.5 -14t-22.5 -20.5t-12 -26.5q-2 -6 -2 -12q0 -10 4 -20q8 -26 37.5 -44t82.5 -18q10 0 21.5 1t30.5 5.5t48.5 13t75.5 23.5l8 -141z" />
    <glyph glyph-name="uniFE8A" unicode="&#x626;" horiz-adv-x="1811" arabic-form="final" 
d="M515 539q-116 -244 -116 -429q0 -18 1 -38q2 -25 7 -49q11 -63 38 -112q77 -138 258 -138h276q207 0 291 55q42 28 43 55q-142 83 -391 130v300h914v-328h-241q22 -35 22 -99q0 -23 -2 -46q-4 -32 -12 -62q-22 -83 -76 -147q-157 -185 -548 -185h-276q-333 0 -502 233
q-131 181 -131 431q0 184 75 396q38 106 75 175zM670 359v149l124 40q-30 31 -49.5 70t-19.5 83q0 34 12 67t33 61t49.5 49t60.5 30q17 5 34.5 7.5t34.5 2.5q36 0 63.5 -8.5t51.5 -17.5l17 -8l-30 -124q-14 3 -31 8t-34 8t-33.5 3.5t-29.5 -3.5q-14 -5 -27.5 -14
t-22.5 -20.5t-12 -26.5q-2 -6 -2 -12q0 -10 4 -20q8 -26 37.5 -44t82.5 -18q10 0 21.5 1t30.5 5.5t48.5 13t75.5 23.5l8 -141z" />
    <glyph glyph-name="uniFE8B" unicode="&#x626;" horiz-adv-x="927" arabic-form="initial" 
d="M843 493q8 -48 8 -92q0 -136 -78 -244q-125 -172 -407 -172h-391v328h384q90 0 127 24q38 23 38 73q0 15 -4 33q-10 51 -20 104q-4 20 -8 43l-4 19l-3 19q-15 82 -23 117l313 95q30 -141 68 -347zM112 841v149l124 40q-30 31 -49.5 70t-19.5 83q0 34 12 67t33 61t49.5 49
t60.5 30q17 5 34.5 7.5t34.5 2.5q36 0 63.5 -8.5t51.5 -17.5l17 -8l-30 -124q-14 3 -31 8t-34 8t-33.5 3.5t-29.5 -3.5q-14 -5 -27.5 -14t-22.5 -20.5t-12 -26.5q-2 -6 -2 -12q0 -10 4 -20q8 -26 37.5 -44t82.5 -18q10 0 21.5 1t30.5 5.5t48.5 13t75.5 23.5l8 -141z" />
    <glyph glyph-name="uniFE8C" unicode="&#x626;" horiz-adv-x="1024" arabic-form="medial" 
d="M788 404q0 -48 23 -68q26 -23 92 -23h146v-328h-146q-65 0 -123 14q-46 11 -86 31q-46 22 -69 44q-23 -22 -74 -44q-101 -45 -240 -45h-336v328h359q72 0 101 24q26 21 26 67v272h327v-272zM175 784v149l124 40q-30 31 -49.5 70t-19.5 83q0 34 12 67t33 61t49.5 49
t60.5 30q17 5 34.5 7.5t34.5 2.5q36 0 63.5 -8.5t51.5 -17.5l17 -8l-30 -124q-14 3 -31 8t-34 8t-33.5 3.5t-29.5 -3.5q-14 -5 -27.5 -14t-22.5 -20.5t-12 -26.5q-2 -6 -2 -12q0 -10 4 -20q8 -26 37.5 -44t82.5 -18q10 0 21.5 1t30.5 5.5t48.5 13t75.5 23.5l8 -141z" />
    <glyph glyph-name="uniFE8E" unicode="&#x627;" horiz-adv-x="597" arabic-form="final" 
d="M624 -15h-90q-111 0 -199 39q-67 29 -117 79t-79 117q-39 88 -39 199v1008h327v-1008q0 -61 23 -84q22 -22 84 -22h90v-328z" />
    <glyph glyph-name="uniFE90" unicode="&#x628;" horiz-adv-x="2236" arabic-form="final" 
d="M462 675q-51 -182 -68 -298q-1 -8 -1 -16q0 -19 7 -33q12 -26 43 -26h1181q72 0 72 66v309h328v-244q5 -64 25 -88q26 -32 97 -32h115v-328h-115q-180 0 -264 68q-78 -52 -217 -68q-101 -11 -359 -11h-567q-282 0 -361 14q-154 26 -235 149q-51 77 -64 176q-4 36 -4 75
q0 43 5 89q7 62 37 177q9 37 20 75q4 13 7 24q2 9 3 11zM870 -362l208 210l212 -212l-210 -210z" />
    <glyph glyph-name="uniFE91" unicode="&#x628;" horiz-adv-x="750" arabic-form="initial" 
d="M666 493q8 -48 8 -92q0 -136 -78 -244q-125 -172 -407 -172h-214v328h207q90 0 127 24q38 23 38 73q0 15 -4 33q-10 51 -20 104q-4 20 -8 43l-4 19l-3 19q-15 82 -23 117l313 95q30 -141 68 -347zM93 -363l208 210l212 -212l-210 -210z" />
    <glyph glyph-name="uniFE92" unicode="&#x628;" horiz-adv-x="770" arabic-form="medial" 
d="M640 404q0 -48 23 -68q26 -23 92 -23h40v-328h-40q-65 0 -123 14q-46 11 -86 31q-46 22 -69 44q-23 -22 -74 -44q-101 -45 -240 -45h-188v328h211q72 0 101 24q26 21 26 67v272h327v-272zM166 -374l208 210l212 -212l-210 -210z" />
    <glyph glyph-name="uniFE94" unicode="&#x629;" horiz-adv-x="1293" arabic-form="final" 
d="M635 414q54 44 54 116v5q-1 30 -12 80q-3 15 -10 46l-6 26l-6 27q-159 -55 -210 -106q-47 -47 -47 -103v-7q3 -59 52 -96q31 -23 80 -23q61 0 105 35zM977 772q8 -34 20 -87l10 -41l9 -39q21 -90 40 -162q22 -81 79 -105q34 -15 87 -21q36 -4 96 -4v-328q-90 0 -155 9
q-90 12 -162 44q-96 44 -160 120l-12 14q-51 -45 -116 -72q-83 -33 -176 -33l-10 1h-11q-114 5 -207 55q-174 91 -214 286q-11 52 -11 103q0 67 19 131q37 113 129 201q101 97 351 177l-19 88l320 73q57 -250 93 -410zM880 1290l-196 198l194 200l200 -200zM461 1289
l-196 198l193 200l200 -200z" />
    <glyph glyph-name="uniFE96" unicode="&#x62a;" horiz-adv-x="2236" arabic-form="final" 
d="M462 675q-51 -182 -68 -298q-1 -8 -1 -16q0 -19 7 -33q12 -26 43 -26h1181q72 0 72 66v309h328v-244q5 -64 25 -88q26 -32 97 -32h115v-328h-115q-180 0 -264 68q-78 -52 -217 -68q-101 -11 -359 -11h-567q-282 0 -361 14q-154 26 -235 149q-51 77 -64 176q-4 36 -4 75
q0 43 5 89q7 62 37 177q9 37 20 75q4 13 7 24q2 9 3 11zM1277 732l-196 198l194 200l200 -200zM858 731l-196 198l193 200l200 -200z" />
    <glyph glyph-name="uniFE97" unicode="&#x62a;" horiz-adv-x="927" arabic-form="initial" 
d="M843 493q8 -48 8 -92q0 -136 -78 -244q-125 -172 -407 -172h-391v328h384q90 0 127 24q38 23 38 73q0 15 -4 33q-10 51 -20 104q-4 20 -8 43l-4 19l-3 19q-15 82 -23 117l313 95q30 -141 68 -347zM637 992l-196 198l194 200l200 -200zM218 991l-196 198l193 200l200 -200
z" />
    <glyph glyph-name="uniFE98" unicode="&#x62a;" horiz-adv-x="1024" arabic-form="medial" 
d="M726 915l-196 198l194 200l200 -200zM307 914l-196 198l193 200l200 -200zM788 404q0 -48 23 -68q26 -23 92 -23h146v-328h-146q-65 0 -123 14q-46 11 -86 31q-46 22 -69 44q-23 -22 -74 -44q-101 -45 -240 -45h-336v328h359q72 0 101 24q26 21 26 67v272h327v-272z" />
    <glyph glyph-name="uniFE9A" unicode="&#x62b;" horiz-adv-x="2236" arabic-form="final" 
d="M462 675q-51 -182 -68 -298q-1 -8 -1 -16q0 -19 7 -33q12 -26 43 -26h1181q72 0 72 66v309h328v-244q5 -64 25 -88q26 -32 97 -32h115v-328h-115q-180 0 -264 68q-78 -52 -217 -68q-101 -11 -359 -11h-567q-282 0 -361 14q-154 26 -235 149q-51 77 -64 176q-4 36 -4 75
q0 43 5 89q7 62 37 177q9 37 20 75q4 13 7 24q2 9 3 11zM1056 887l-198 -200l-198 198l198 200zM1490 890l-196 -198l-203 196l200 200zM1250 1148l-174 -174l-172 172l174 174z" />
    <glyph glyph-name="uniFE9B" unicode="&#x62b;" horiz-adv-x="927" arabic-form="initial" 
d="M843 493q8 -48 8 -92q0 -136 -78 -244q-125 -172 -407 -172h-391v328h384q90 0 127 24q38 23 38 73q0 15 -4 33q-10 51 -20 104q-4 20 -8 43l-4 19l-3 19q-15 82 -23 117l313 95q30 -141 68 -347zM410 1163l-198 -200l-198 198l198 200zM844 1166l-196 -198l-203 196
l200 200zM604 1424l-174 -174l-172 172l174 174z" />
    <glyph glyph-name="uniFE9C" unicode="&#x62b;" horiz-adv-x="1024" arabic-form="medial" 
d="M788 404q0 -48 23 -68q26 -23 92 -23h146v-328h-146q-65 0 -123 14q-46 11 -86 31q-46 22 -69 44q-23 -22 -74 -44q-101 -45 -240 -45h-336v328h359q72 0 101 24q26 21 26 67v272h327v-272zM469 1101l-198 -200l-198 198l198 200zM903 1104l-196 -198l-203 196l200 200z
M663 1362l-174 -174l-172 172l174 174z" />
    <glyph glyph-name="uniFE9E" unicode="&#x62c;" horiz-adv-x="1568" arabic-form="final" 
d="M645 1126q96 -13 469 -181q112 -50 216 -98q36 -17 62 -30l23 -11l21 -319q-1 0 -44 -16q-56 -20 -165 -61q22 -45 40 -69q7 -9 14 -15q4 -4 8 -5q19 -10 107 -10h199v-328h-171q-191 0 -280 44q-85 43 -150 133q-40 58 -74 135l-103 -38l-48 -18q-254 -95 -306 -139
q-12 -9 -18 -18q-4 -6 -7 -15q-4 -11 -4 -29q0 -24 5 -56q15 -90 47 -133q12 -16 26 -26q6 -4 12 -7q5 -2 11 -5q77 -35 334 -35h438v-328h-438q-329 0 -470 65q-231 104 -283 415q-9 55 -9 105q0 197 145 318q75 63 207 115q154 59 598 192l-443 138q-15 5 -26 5
q-27 0 -49 -26q-19 -23 -47 -83l-308 81q47 177 171 275q105 82 235 82q31 0 55 -4zM641 10l208 210l212 -212l-210 -210z" />
    <glyph glyph-name="uniFE9F" unicode="&#x62c;" horiz-adv-x="1430" arabic-form="initial" 
d="M549 917q82 -12 408 -102q114 -31 241 -67q100 -29 154 -45l51 -289q-387 -284 -582 -351q-230 -78 -845 -78v328q397 0 574 28q214 34 382 141l-73 20l-70 20q-86 25 -129 36q-132 36 -166 36q-27 0 -51 -31q-25 -30 -38 -82l-317 83q46 178 171 275q106 83 228 83
q30 0 62 -5zM464 -358l208 210l212 -212l-210 -210z" />
    <glyph glyph-name="uniFEA0" unicode="&#x62c;" horiz-adv-x="1532" arabic-form="medial" 
d="M548 917q82 -12 408 -102q114 -31 241 -67q100 -29 154 -45l51 -289l-29 -22l-29 -20q-35 -26 -54 -40q51 -13 144 -17q33 -1 71 -2h52v-328q-307 0 -437 61q-76 35 -125 94q-84 -46 -175 -77q-230 -78 -845 -78v328q397 0 574 28q214 34 382 141l-73 20l-70 20
q-86 25 -129 36q-132 36 -166 36q-27 0 -51 -31q-25 -30 -38 -82l-317 83q46 178 171 275q106 83 228 83q30 0 62 -5zM481 -358l208 210l212 -212l-210 -210z" />
    <glyph glyph-name="uniFEA2" unicode="&#x62d;" horiz-adv-x="1568" arabic-form="final" 
d="M645 1126q96 -13 469 -181q112 -50 216 -98q36 -17 62 -30l23 -11l21 -319q-1 0 -44 -16q-56 -20 -165 -61q22 -45 40 -69q7 -9 14 -15q4 -4 8 -5q19 -10 107 -10h199v-328h-171q-191 0 -280 44q-85 43 -150 133q-40 58 -74 135l-103 -38l-48 -18q-254 -95 -306 -139
q-12 -9 -18 -18q-4 -6 -7 -15q-4 -11 -4 -29q0 -24 5 -56q15 -90 47 -133q12 -16 26 -26q6 -4 12 -7q5 -2 11 -5q77 -35 334 -35h438v-328h-438q-329 0 -470 65q-231 104 -283 415q-9 55 -9 105q0 197 145 318q75 63 207 115q154 59 598 192l-443 138q-15 5 -26 5
q-27 0 -49 -26q-19 -23 -47 -83l-308 81q47 177 171 275q105 82 235 82q31 0 55 -4z" />
    <glyph glyph-name="uniFEA3" unicode="&#x62d;" horiz-adv-x="1430" arabic-form="initial" 
d="M549 917q82 -12 408 -102q114 -31 241 -67q100 -29 154 -45l51 -289q-387 -284 -582 -351q-230 -78 -845 -78v328q397 0 574 28q214 34 382 141l-73 20l-70 20q-86 25 -129 36q-132 36 -166 36q-27 0 -51 -31q-25 -30 -38 -82l-317 83q46 178 171 275q106 83 228 83
q30 0 62 -5z" />
    <glyph glyph-name="uniFEA4" unicode="&#x62d;" horiz-adv-x="1532" arabic-form="medial" 
d="M548 917q82 -12 408 -102q114 -31 241 -67q100 -29 154 -45l51 -289l-29 -22l-29 -20q-35 -26 -54 -40q51 -13 144 -17q33 -1 71 -2h52v-328q-307 0 -437 61q-76 35 -125 94q-84 -46 -175 -77q-230 -78 -845 -78v328q397 0 574 28q214 34 382 141l-73 20l-70 20
q-86 25 -129 36q-132 36 -166 36q-27 0 -51 -31q-25 -30 -38 -82l-317 83q46 178 171 275q106 83 228 83q30 0 62 -5z" />
    <glyph glyph-name="uniFEA6" unicode="&#x62e;" horiz-adv-x="1568" arabic-form="final" 
d="M645 1126q96 -13 469 -181q112 -50 216 -98q36 -17 62 -30l23 -11l21 -319q-1 0 -44 -16q-56 -20 -165 -61q22 -45 40 -69q7 -9 14 -15q4 -4 8 -5q19 -10 107 -10h199v-328h-171q-191 0 -280 44q-85 43 -150 133q-40 58 -74 135l-103 -38l-48 -18q-254 -95 -306 -139
q-12 -9 -18 -18q-4 -6 -7 -15q-4 -11 -4 -29q0 -24 5 -56q15 -90 47 -133q12 -16 26 -26q6 -4 12 -7q5 -2 11 -5q77 -35 334 -35h438v-328h-438q-329 0 -470 65q-231 104 -283 415q-9 55 -9 105q0 197 145 318q75 63 207 115q154 59 598 192l-443 138q-15 5 -26 5
q-27 0 -49 -26q-19 -23 -47 -83l-308 81q47 177 171 275q105 82 235 82q31 0 55 -4zM359 1485l208 210l212 -212l-211 -210z" />
    <glyph glyph-name="uniFEA7" unicode="&#x62e;" horiz-adv-x="1430" arabic-form="initial" 
d="M549 917q82 -12 408 -102q114 -31 241 -67q100 -29 154 -45l51 -289q-387 -284 -582 -351q-230 -78 -845 -78v328q397 0 574 28q214 34 382 141l-73 20l-70 20q-86 25 -129 36q-132 36 -166 36q-27 0 -51 -31q-25 -30 -38 -82l-317 83q46 178 171 275q106 83 228 83
q30 0 62 -5zM278 1261l208 210l212 -212l-211 -210z" />
    <glyph glyph-name="uniFEA8" unicode="&#x62e;" horiz-adv-x="1532" arabic-form="medial" 
d="M548 917q82 -12 408 -102q114 -31 241 -67q100 -29 154 -45l51 -289l-29 -22l-29 -20q-35 -26 -54 -40q51 -13 144 -17q33 -1 71 -2h52v-328q-307 0 -437 61q-76 35 -125 94q-84 -46 -175 -77q-230 -78 -845 -78v328q397 0 574 28q214 34 382 141l-73 20l-70 20
q-86 25 -129 36q-132 36 -166 36q-27 0 -51 -31q-25 -30 -38 -82l-317 83q46 178 171 275q106 83 228 83q30 0 62 -5zM283 1261l208 210l212 -212l-211 -210z" />
    <glyph glyph-name="uniFEAA" unicode="&#x62f;" horiz-adv-x="1268" arabic-form="final" 
d="M627 1090q26 -40 70 -104q116 -175 281 -422q9 -14 19 -28q13 -18 25 -36q35 -48 66 -84q88 -104 135 -104h70v-327h-95q-146 0 -279 119q-43 -46 -98 -76q-102 -58 -230 -58q-141 0 -350 47q-66 15 -132 33q-22 6 -41 12q-7 2 -12 3l-4 1l-2 1l97 313q34 -10 80 -23
q59 -15 115 -27q154 -33 249 -33q75 0 99 45q8 14 8 29q0 26 -21 57q-88 130 -163 242q-57 85 -107 159l-78 117l274 179z" />
    <glyph glyph-name="uniFEAC" unicode="&#x630;" horiz-adv-x="1268" arabic-form="final" 
d="M627 1090q26 -40 70 -104q116 -175 281 -422q9 -14 19 -28q13 -18 25 -36q35 -48 66 -84q88 -104 135 -104h70v-327h-95q-146 0 -279 119q-43 -46 -98 -76q-102 -58 -230 -58q-141 0 -350 47q-66 15 -132 33q-22 6 -41 12q-7 2 -12 3l-4 1l-2 1l97 313q34 -10 80 -23
q59 -15 115 -27q154 -33 249 -33q75 0 99 45q8 14 8 29q0 26 -21 57q-88 130 -163 242q-57 85 -107 159l-78 117l274 179zM323 1455l208 210l212 -212l-211 -210z" />
    <glyph glyph-name="uniFEAE" unicode="&#x631;" horiz-adv-x="904" arabic-form="final" 
d="M768 677v-273q0 -43 44 -69q35 -22 71 -22h46v-328h-46q-58 0 -123 19q-29 -221 -149 -356q-175 -199 -512 -199h-99v328h99q184 0 262 83q79 83 79 278v539h328z" />
    <glyph glyph-name="uniFEB0" unicode="&#x632;" horiz-adv-x="904" arabic-form="final" 
d="M768 677v-273q0 -43 44 -69q35 -22 71 -22h46v-328h-46q-58 0 -123 19q-29 -221 -149 -356q-175 -199 -512 -199h-99v328h99q184 0 262 83q79 83 79 278v539h328zM398 1081l208 210l212 -212l-211 -210z" />
    <glyph glyph-name="uniFEB2" unicode="&#x633;" horiz-adv-x="2909" arabic-form="final" 
d="M2341 334q38 28 38 99v243h328v-243q0 -62 23 -88q27 -32 99 -32h105v-328h-105q-206 0 -287 91q-119 -91 -282 -91q-96 1 -158 17q-86 22 -129 74q-119 -91 -273 -91q-85 0 -154 19q-7 -223 -130 -366q-82 -96 -212 -144q-130 -46 -295 -46h-227q-162 0 -295 72
q-133 71 -214 201q-55 91 -79 197q-19 86 -19 182q0 24 1 48q15 251 157 535l293 -145q-113 -230 -123 -409q-1 -18 -1 -35q0 -121 50 -200q41 -66 111 -95q53 -23 119 -23h227q188 0 253 61q57 53 57 199v640h327v-243q0 -120 132 -120q55 0 87 21q45 29 45 99v243h328
v-243q0 -62 23 -88q27 -32 99 -32q53 0 81 21z" />
    <glyph glyph-name="uniFEB3" unicode="&#x633;" horiz-adv-x="1792" arabic-form="initial" 
d="M807 334q38 28 38 99v243h328v-243q0 -62 23 -88q27 -32 99 -32q114 0 114 79q0 17 -5 38q-57 235 -74 315l318 76q29 -120 75 -315q10 -43 10 -90q0 -38 -7 -79q-17 -93 -67 -169q-119 -183 -347 -183q-103 0 -193 31q-61 23 -111 60q-119 -91 -273 -91q-162 0 -281 91
q-81 -91 -287 -91h-192v328h192q72 0 99 32q23 26 23 88v243h328v-243q0 -71 34 -99q24 -21 75 -21q53 0 81 21z" />
    <glyph glyph-name="uniFEB4" unicode="&#x633;" horiz-adv-x="1890" arabic-form="medial" 
d="M754 334q34 28 34 99v243h328v-243q0 -65 18 -88q23 -32 94 -32q51 0 76 21q33 28 33 99v243h328v-243q0 -62 23 -88q27 -32 99 -32h128v-328h-128q-206 0 -287 91q-119 -91 -272 -91q-196 0 -277 91q-119 -91 -268 -91q-158 0 -277 91q-81 -91 -287 -91h-144v328h144
q72 0 99 32q23 26 23 88v243h328v-243q0 -71 34 -99q24 -21 75 -21t76 21z" />
    <glyph glyph-name="uniFEB6" unicode="&#x634;" horiz-adv-x="2909" arabic-form="final" 
d="M2341 334q38 28 38 99v243h328v-243q0 -62 23 -88q27 -32 99 -32h105v-328h-105q-206 0 -287 91q-119 -91 -282 -91q-96 1 -158 17q-86 22 -129 74q-119 -91 -273 -91q-85 0 -154 19q-7 -223 -130 -366q-82 -96 -212 -144q-130 -46 -295 -46h-227q-162 0 -295 72
q-133 71 -214 201q-55 91 -79 197q-19 86 -19 182q0 24 1 48q15 251 157 535l293 -145q-113 -230 -123 -409q-1 -18 -1 -35q0 -121 50 -200q41 -66 111 -95q53 -23 119 -23h227q188 0 253 61q57 53 57 199v640h327v-243q0 -120 132 -120q55 0 87 21q45 29 45 99v243h328
v-243q0 -62 23 -88q27 -32 99 -32q53 0 81 21zM1963 1086l-198 -200l-198 198l198 200zM2397 1089l-196 -198l-203 196l200 200zM2157 1347l-174 -174l-172 172l174 174z" />
    <glyph glyph-name="uniFEB7" unicode="&#x634;" horiz-adv-x="1792" arabic-form="initial" 
d="M807 334q38 28 38 99v243h328v-243q0 -62 23 -88q27 -32 99 -32q114 0 114 79q0 17 -5 38q-57 235 -74 315l318 76q29 -120 75 -315q10 -43 10 -90q0 -38 -7 -79q-17 -93 -67 -169q-119 -183 -347 -183q-103 0 -193 31q-61 23 -111 60q-119 -91 -273 -91q-162 0 -281 91
q-81 -91 -287 -91h-192v328h192q72 0 99 32q23 26 23 88v243h328v-243q0 -71 34 -99q24 -21 75 -21q53 0 81 21zM992 1118l-198 -200l-198 198l198 200zM1426 1121l-196 -198l-203 196l200 200zM1186 1379l-174 -174l-172 172l174 174z" />
    <glyph glyph-name="uniFEB8" unicode="&#x634;" horiz-adv-x="1890" arabic-form="medial" 
d="M754 334q34 28 34 99v243h328v-243q0 -65 18 -88q23 -32 94 -32q51 0 76 21q33 28 33 99v243h328v-243q0 -62 23 -88q27 -32 99 -32h128v-328h-128q-206 0 -287 91q-119 -91 -272 -91q-196 0 -277 91q-119 -91 -268 -91q-158 0 -277 91q-81 -91 -287 -91h-144v328h144
q72 0 99 32q23 26 23 88v243h328v-243q0 -71 34 -99q24 -21 75 -21t76 21zM932 1090l-198 -200l-198 198l198 200zM1366 1093l-196 -198l-203 196l200 200zM1126 1351l-174 -174l-172 172l174 174z" />
    <glyph glyph-name="uniFEBA" unicode="&#x635;" horiz-adv-x="2809" arabic-form="final" 
d="M921 -224q82 0 144 14q80 19 116 60q50 57 50 184v642h327l1 -262q103 143 202 242q110 110 222 169q140 74 286 74q269 0 387 -171q43 -62 62 -143q14 -60 14 -120q0 -84 -17 -152h119v-328h-1161q-55 0 -114 13q-8 -222 -131 -363q-84 -96 -213 -142q-124 -45 -294 -45
h-239q-162 0 -295 72q-133 71 -214 201q-55 91 -79 197q-19 86 -19 182q0 24 1 48q15 251 157 535l293 -145q-113 -230 -123 -409q-1 -18 -1 -35q0 -121 50 -200q41 -66 111 -95q53 -23 119 -23h239zM2252 313q114 0 153 48q15 19 20 47q4 19 4 53q0 111 -143 111
q-101 0 -257 -115q-54 -40 -106 -87q-41 -38 -57 -57h386z" />
    <glyph glyph-name="uniFEBB" unicode="&#x635;" horiz-adv-x="1831" arabic-form="initial" 
d="M1301 313q114 0 153 48q15 19 20 47q4 19 4 53q0 111 -143 111q-101 0 -257 -115q-54 -40 -106 -87q-41 -38 -57 -57h386zM1705 728q43 -62 62 -143q14 -60 14 -120q0 -296 -207 -414q-71 -40 -161 -56q-32 -6 -66 -8l-26 -2h-599q-160 0 -277 85q-123 -85 -314 -85h-156
v328h156q103 0 133 32q9 9 12 26q3 12 3 28v278h328v-264q106 147 203 243q110 110 222 169q140 74 286 74q269 0 387 -171z" />
    <glyph glyph-name="uniFEBC" unicode="&#x635;" horiz-adv-x="1901" arabic-form="medial" 
d="M1926 -15h-587v1q-10 -1 -21 -1h-596q-160 0 -277 85q-123 -85 -314 -85h-156v328h156q103 0 133 32q9 9 12 26q3 12 3 28v278h328v-264q106 147 203 243q110 110 222 169q140 74 286 74q269 0 387 -171q43 -62 62 -143q14 -60 14 -120q0 -84 -17 -152h162v-328z
M1301 313q114 0 153 48q15 19 20 47q4 19 4 53q0 111 -143 111q-101 0 -257 -115q-54 -40 -106 -87q-41 -38 -57 -57h386z" />
    <glyph glyph-name="uniFEBE" unicode="&#x636;" horiz-adv-x="2809" arabic-form="final" 
d="M921 -224q82 0 144 14q80 19 116 60q50 57 50 184v642h327l1 -262q103 143 202 242q110 110 222 169q140 74 286 74q269 0 387 -171q43 -62 62 -143q14 -60 14 -120q0 -84 -17 -152h119v-328h-1161q-55 0 -114 13q-8 -222 -131 -363q-84 -96 -213 -142q-124 -45 -294 -45
h-239q-162 0 -295 72q-133 71 -214 201q-55 91 -79 197q-19 86 -19 182q0 24 1 48q15 251 157 535l293 -145q-113 -230 -123 -409q-1 -18 -1 -35q0 -121 50 -200q41 -66 111 -95q53 -23 119 -23h239zM2252 313q114 0 153 48q15 19 20 47q4 19 4 53q0 111 -143 111
q-101 0 -257 -115q-54 -40 -106 -87q-41 -38 -57 -57h386zM2072 1243l208 210l212 -212l-211 -210z" />
    <glyph glyph-name="uniFEBF" unicode="&#x636;" horiz-adv-x="1831" arabic-form="initial" 
d="M1301 313q114 0 153 48q15 19 20 47q4 19 4 53q0 111 -143 111q-101 0 -257 -115q-54 -40 -106 -87q-41 -38 -57 -57h386zM1705 728q43 -62 62 -143q14 -60 14 -120q0 -296 -207 -414q-71 -40 -161 -56q-32 -6 -66 -8l-26 -2h-599q-160 0 -277 85q-123 -85 -314 -85h-156
v328h156q103 0 133 32q9 9 12 26q3 12 3 28v278h328v-264q106 147 203 243q110 110 222 169q140 74 286 74q269 0 387 -171zM1087 1238l208 210l212 -212l-211 -210z" />
    <glyph glyph-name="uniFEC0" unicode="&#x636;" horiz-adv-x="1901" arabic-form="medial" 
d="M1926 -15h-587v1q-10 -1 -21 -1h-596q-160 0 -277 85q-123 -85 -314 -85h-156v328h156q103 0 133 32q9 9 12 26q3 12 3 28v278h328v-264q106 147 203 243q110 110 222 169q140 74 286 74q269 0 387 -171q43 -62 62 -143q14 -60 14 -120q0 -84 -17 -152h162v-328z
M1301 313q114 0 153 48q15 19 20 47q4 19 4 53q0 111 -143 111q-101 0 -257 -115q-54 -40 -106 -87q-41 -38 -57 -57h386zM1104 1243l208 210l212 -212l-211 -210z" />
    <glyph glyph-name="uniFEC2" unicode="&#x637;" horiz-adv-x="1561" arabic-form="final" 
d="M644 818l-4 -35q24 16 70 42q140 74 286 74q270 0 387 -171q43 -62 62 -143q14 -59 14 -120q0 -84 -17 -152h143q1 0 1 -82t-1 -246h-1515v328h178l69 108v1007h327v-610zM979 313q114 0 153 48q15 19 20 47q4 19 4 53q0 111 -143 111q-101 0 -257 -115q-54 -40 -106 -87
q-41 -38 -57 -57h386z" />
    <glyph glyph-name="uniFEC3" unicode="&#x637;" horiz-adv-x="1417" arabic-form="initial" 
d="M887 313q114 0 153 48q15 19 20 47q4 19 4 53q0 111 -143 111q-101 0 -257 -115q-54 -40 -106 -87q-41 -38 -57 -57h386zM552 818l-4 -35q24 16 70 42q140 74 286 74q270 0 387 -171q43 -62 62 -143q14 -59 14 -120q0 -296 -207 -414q-71 -40 -161 -56q-32 -6 -66 -8
l-26 -2h-932v328h181l69 108v1007h327v-610z" />
    <glyph glyph-name="uniFEC4" unicode="&#x637;" horiz-adv-x="1465" arabic-form="medial" 
d="M552 818l-4 -35q24 16 70 42q140 74 286 74q270 0 387 -171q43 -62 62 -143q14 -59 14 -120q0 -84 -17 -152h139q1 0 1 -82t-1 -246h-1514v328h181l69 108v1007h327v-610zM887 313q114 0 153 48q15 19 20 47q4 19 4 53q0 111 -143 111q-101 0 -257 -115q-54 -40 -106 -87
q-41 -38 -57 -57h386z" />
    <glyph glyph-name="uniFEC6" unicode="&#x638;" horiz-adv-x="1561" arabic-form="final" 
d="M644 818l-4 -35q24 16 70 42q140 74 286 74q270 0 387 -171q43 -62 62 -143q14 -59 14 -120q0 -84 -17 -152h143q1 0 1 -82t-1 -246h-1515v328h178l69 108v1007h327v-610zM979 313q114 0 153 48q15 19 20 47q4 19 4 53q0 111 -143 111q-101 0 -257 -115q-54 -40 -106 -87
q-41 -38 -57 -57h386zM821 1284l208 210l212 -212l-211 -210z" />
    <glyph glyph-name="uniFEC7" unicode="&#x638;" horiz-adv-x="1417" arabic-form="initial" 
d="M887 313q114 0 153 48q15 19 20 47q4 19 4 53q0 111 -143 111q-101 0 -257 -115q-54 -40 -106 -87q-41 -38 -57 -57h386zM552 818l-4 -35q24 16 70 42q140 74 286 74q270 0 387 -171q43 -62 62 -143q14 -59 14 -120q0 -296 -207 -414q-71 -40 -161 -56q-32 -6 -66 -8
l-26 -2h-932v328h181l69 108v1007h327v-610zM709 1282l208 210l212 -212l-211 -210z" />
    <glyph glyph-name="uniFEC8" unicode="&#x638;" horiz-adv-x="1465" arabic-form="medial" 
d="M552 818l-4 -35q24 16 70 42q140 74 286 74q270 0 387 -171q43 -62 62 -143q14 -59 14 -120q0 -84 -17 -152h139q1 0 1 -82t-1 -246h-1514v328h181l69 108v1007h327v-610zM887 313q114 0 153 48q15 19 20 47q4 19 4 53q0 111 -143 111q-101 0 -257 -115q-54 -40 -106 -87
q-41 -38 -57 -57h386zM730 1283l208 210l212 -212l-211 -210z" />
    <glyph glyph-name="uniFECA" unicode="&#x639;" horiz-adv-x="1382" arabic-form="final" 
d="M904 608q73 53 85 70q0 2 -3 8q-4 7 -10 13q-16 18 -33 18h-371q-26 0 -40 -13q-5 -5 -8 -10l-3 -6v-1q27 -24 110 -93l31 -25q18 -14 30 -25q31 -26 48 -41q83 47 164 105zM905 1030q105 0 194 -54q88 -53 135 -141q40 -75 40 -157q0 -10 -1 -19q-6 -92 -59 -172
q-32 -47 -90 -95q-23 -20 -53 -41q-20 -15 -53 -38h389v-328h-364q-82 0 -164 34q-58 24 -126 71q-21 14 -57 41q-161 -83 -224 -144q-73 -72 -73 -167q0 -101 73 -176q72 -74 171 -74h593v-327h-593q-119 0 -224 46q-103 45 -181 125q-78 79 -122 183q-45 110 -45 223
q0 254 202 429q66 57 153 109l-165 141l-58 125q0 60 14 116q18 73 58 132q50 75 131 116q83 42 191 42h308z" />
    <glyph glyph-name="uniFECB" unicode="&#x639;" horiz-adv-x="1135" arabic-form="initial" 
d="M830 927q67 -26 190 -98l15 -8l-164 -284q-165 98 -258 108l-28 2q-75 0 -116 -47q-36 -41 -36 -101q0 -85 107 -136q104 -50 266 -50h203v-328h-1038v329h170q-37 89 -37 188q0 184 117 316q138 153 383 153q116 0 226 -44z" />
    <glyph glyph-name="uniFECC" unicode="&#x639;" horiz-adv-x="1280" arabic-form="medial" 
d="M718 493q31 33 59 66q74 89 74 113v1q-58 11 -190 11q-156 0 -226 -11l32 -32q16 -16 30 -29q19 -18 36 -35q98 -94 144 -126q13 12 41 42zM816 992q106 0 193 -51t131 -138q34 -68 34 -142q0 -19 -2 -39q-12 -96 -74 -179q-58 -77 -107 -130h304v-328h-376
q-101 0 -260 96q-236 -96 -609 -96h-65v328h65q149 0 271 16q-36 30 -73 62q-29 25 -58 51q-12 9 -23 20q-8 7 -17 15q-16 14 -17 15l-53 48v73q0 178 105 278q104 101 293 101h338z" />
    <glyph glyph-name="uniFECE" unicode="&#x63a;" horiz-adv-x="1382" arabic-form="final" 
d="M904 608q73 53 85 70q0 2 -3 8q-4 7 -10 13q-16 18 -33 18h-371q-26 0 -40 -13q-5 -5 -8 -10l-3 -6v-1q27 -24 110 -93l31 -25q18 -14 30 -25q31 -26 48 -41q83 47 164 105zM905 1030q105 0 194 -54q88 -53 135 -141q40 -75 40 -157q0 -10 -1 -19q-6 -92 -59 -172
q-32 -47 -90 -95q-23 -20 -53 -41q-20 -15 -53 -38h389v-328h-364q-82 0 -164 34q-58 24 -126 71q-21 14 -57 41q-161 -83 -224 -144q-73 -72 -73 -167q0 -101 73 -176q72 -74 171 -74h593v-327h-593q-119 0 -224 46q-103 45 -181 125q-78 79 -122 183q-45 110 -45 223
q0 254 202 429q66 57 153 109l-165 141l-58 125q0 60 14 116q18 73 58 132q50 75 131 116q83 42 191 42h308zM526 1326l208 210l212 -212l-211 -210z" />
    <glyph glyph-name="uniFECF" unicode="&#x63a;" horiz-adv-x="1135" arabic-form="initial" 
d="M830 927q67 -26 190 -98l15 -8l-164 -284q-165 98 -258 108l-28 2q-75 0 -116 -47q-36 -41 -36 -101q0 -85 107 -136q104 -50 266 -50h203v-328h-1038v329h170q-37 89 -37 188q0 184 117 316q138 153 383 153q116 0 226 -44zM387 1274l208 210l212 -212l-211 -210z" />
    <glyph glyph-name="uniFED0" unicode="&#x63a;" horiz-adv-x="1280" arabic-form="medial" 
d="M718 493q31 33 59 66q74 89 74 113v1q-58 11 -190 11q-156 0 -226 -11l32 -32q16 -16 30 -29q19 -18 36 -35q98 -94 144 -126q13 12 41 42zM816 992q106 0 193 -51t131 -138q34 -68 34 -142q0 -19 -2 -39q-12 -96 -74 -179q-58 -77 -107 -130h304v-328h-376
q-101 0 -260 96q-236 -96 -609 -96h-65v328h65q149 0 271 16q-36 30 -73 62q-29 25 -58 51q-12 9 -23 20q-8 7 -17 15q-16 14 -17 15l-53 48v73q0 178 105 278q104 101 293 101h338zM441 1292l208 210l212 -212l-211 -210z" />
    <glyph glyph-name="uniFED2" unicode="&#x641;" horiz-adv-x="2105" arabic-form="final" 
d="M1915 875q136 -144 136 -356q0 -114 -42 -206h119v-328h-145q-244 0 -425 55q-171 -55 -426 -55h-393q-282 0 -361 14q-154 26 -235 149q-51 77 -64 176q-4 36 -4 75q0 43 5 89q7 62 37 177q9 37 20 75q4 13 7 24q2 9 3 11l315 -89q-51 -182 -68 -298q-1 -8 -1 -16
q0 -19 7 -33q12 -26 43 -26h663q-42 92 -42 206q0 212 136 356q141 149 358 149t357 -149zM1700 422q30 39 30 97q0 70 -40 119q-47 58 -132 58t-132 -58q-40 -49 -40 -119q0 -58 31 -97q41 -54 141 -81q100 27 142 81zM1353 1339l208 210l212 -212l-211 -210z" />
    <glyph glyph-name="uniFED3" unicode="&#x641;" horiz-adv-x="1105" arabic-form="initial" 
d="M743 659l-2 23q-3 25 -6 45q-8 53 -23 89q-38 95 -135 104l-10 1h-9q-65 0 -103 -39q-34 -36 -34 -91v-9q4 -97 98 -126q59 -18 226 -18zM972 993q92 -177 92 -459q0 -303 -232 -445q-171 -104 -421 -104h-420v328h420q167 0 247 22q-229 0 -374 98q-172 117 -172 344
q0 67 19 136q23 84 71 149q123 170 374 170q273 0 396 -239zM295 1560l208 210l212 -212l-211 -210z" />
    <glyph glyph-name="uniFED4" unicode="&#x641;" horiz-adv-x="1101" arabic-form="medial" 
d="M693 422q30 39 30 97q0 70 -40 119q-47 58 -132 58t-132 -58q-40 -49 -40 -119q0 -58 31 -97q41 -54 141 -81q100 27 142 81zM908 875q136 -144 136 -356q0 -114 -42 -206h119v-328h-145q-244 0 -425 55q-171 -55 -426 -55h-145v328h119q-42 92 -42 206q0 212 136 356
q141 149 358 149t357 -149zM336 1330l208 210l212 -212l-211 -210z" />
    <glyph glyph-name="uniFED6" unicode="&#x642;" horiz-adv-x="1644" arabic-form="final" 
d="M1444 781q121 -147 121 -366v-102h105v-328h-110q-15 -209 -127 -344q-82 -94 -213 -143q-125 -46 -294 -46h-195q-172 0 -309 63q-156 71 -245 209q-96 152 -96 356q0 23 1 47q12 233 143 517l298 -137q-105 -226 -114 -397q-1 -14 -1 -28q0 -112 45 -181
q44 -70 136 -100q35 -12 76 -17q32 -4 66 -4h195q162 0 232 52q63 46 74 153h-140q-179 0 -303 96q-151 116 -151 334q0 207 100 351q122 176 354 176q221 0 352 -161zM1237 312v103q0 92 -39 146q-39 53 -106 53q-68 0 -108 -53q-37 -49 -37 -127q0 -9 1 -19q3 -53 47 -80
q38 -23 97 -23h145zM1296 1043l-196 198l194 200l200 -200zM877 1042l-196 198l193 200l200 -200z" />
    <glyph glyph-name="uniFED7" unicode="&#x642;" horiz-adv-x="1105" arabic-form="initial" 
d="M734 659l-2 23q-3 25 -6 45q-8 53 -23 89q-38 95 -135 104l-10 1h-9q-65 0 -103 -39q-34 -36 -34 -91v-9q4 -97 98 -126q59 -18 226 -18zM963 993q92 -177 92 -459q0 -303 -232 -445q-171 -104 -421 -104h-420v328h420q167 0 247 22q-229 0 -374 98q-172 117 -172 344
q0 67 19 136q23 84 71 149q123 170 374 170q273 0 396 -239zM713 1336l-196 198l194 200l200 -200zM294 1335l-196 198l193 200l200 -200z" />
    <glyph glyph-name="uniFED8" unicode="&#x642;" horiz-adv-x="1101" arabic-form="medial" 
d="M693 422q30 39 30 97q0 70 -40 119q-47 58 -132 58t-132 -58q-40 -49 -40 -119q0 -58 31 -97q41 -54 141 -81q100 27 142 81zM908 875q136 -144 136 -356q0 -114 -42 -206h119v-328h-145q-244 0 -425 55q-171 -55 -426 -55h-145v328h119q-42 92 -42 206q0 212 136 356
q141 149 358 149t357 -149zM756 1140l-196 198l194 200l200 -200zM337 1139l-196 198l193 200l200 -200z" />
    <glyph glyph-name="uniFEDA" unicode="&#x643;" horiz-adv-x="2195" arabic-form="final" 
d="M1135 965q-61 -36 -102 -68q-30 -24 -48 -45q19 0 45 2l45 4q24 2 44 2q25 0 44 -3q57 -7 91 -40q14 -12 23 -28q7 -13 11 -26q7 -21 7 -42q0 -35 -20 -70q-41 -69 -153 -113q-45 -17 -103 -32q-41 -10 -101 -22l-32 161q24 5 62 10l62 10q70 11 93 20h-23q-24 1 -46 1
q-68 1 -90 4q-53 6 -87 32q-26 20 -39 50q-13 28 -13 59q0 17 4 34q15 63 83 127q61 56 159 114zM1983 433q5 -64 25 -88q26 -32 97 -32h115v-328h-115q-206 0 -291 66q-78 -42 -184 -54q-81 -9 -309 -9h-567q-282 0 -361 14q-154 26 -235 149q-69 104 -69 252q0 42 6 88
q14 128 67 287l315 -89q-51 -182 -68 -298q-1 -8 -1 -16q0 -19 7 -33q12 -26 43 -26h1125q68 0 72 59v1052h328v-994z" />
    <glyph glyph-name="uniFEDB" unicode="&#x643;" horiz-adv-x="1190" arabic-form="initial" 
d="M1190 1313l-655 -298q86 -85 241 -249q133 -143 187 -266q37 -86 37 -165v-8q-1 -64 -25 -119q-22 -52 -63 -94q-53 -54 -134 -86q-112 -43 -273 -43h-530v328h530q155 0 185 17q-2 9 -10 26q-10 19 -27 44q-43 65 -116 142q-174 185 -302 309q-22 21 -42 39
q-15 15 -29 27q-5 5 -10 9l-7 7l-3 2l-1 2l-2 1l38 274l875 400z" />
    <glyph glyph-name="uniFEDC" unicode="&#x643;" horiz-adv-x="1239" arabic-form="medial" 
d="M1069 368q70 -55 195 -55v-328q-235 0 -395 124q-36 27 -81 72q-62 -82 -161 -133q-121 -63 -265 -63h-387v328h387q57 0 108 23q51 24 67 58q8 16 8 37q0 51 -51 128l-34 45q-67 83 -175 220q-39 49 -70 89q-28 36 -29 37l57 248l867 419l143 -295l-683 -330
q50 -62 308 -401q130 -176 191 -223z" />
    <glyph glyph-name="uniFEDE" unicode="&#x644;" horiz-adv-x="1438" arabic-form="final" 
d="M1463 313v-328h-25q-63 0 -116 14q-1 -81 -14 -146q-22 -120 -84 -206q-75 -103 -203 -153q-117 -47 -291 -47h-63q-158 0 -282 59q-138 64 -218 190q-86 138 -86 318q0 24 2 49q12 208 129 451l296 -141q-78 -164 -94 -295q-4 -34 -4 -65q0 -86 35 -142t108 -80
q29 -9 61 -14q26 -3 53 -3h63q77 0 131 12q71 16 97 53q37 50 37 200v1390h328v-996q0 -57 31 -88q30 -32 84 -32h25z" />
    <glyph glyph-name="uniFEDF" unicode="&#x644;" horiz-adv-x="578" arabic-form="initial" 
d="M528 433q0 -98 -32 -178q-35 -86 -101 -148q-131 -122 -340 -122h-80v328h80q94 0 128 47q12 16 16 39q1 9 2 19v1009h327v-994z" />
    <glyph glyph-name="uniFEE0" unicode="&#x644;" horiz-adv-x="634" arabic-form="medial" 
d="M528 433q0 -120 131 -120v-328q-92 0 -175 30q-69 25 -120 66q-125 -96 -310 -96h-79v328h79q94 0 128 47q12 16 16 39q1 9 2 19v1009h328v-994z" />
    <glyph glyph-name="uniFEE2" unicode="&#x645;" horiz-adv-x="1500" arabic-form="final" 
d="M1525 -15q-65 0 -116 11q-73 16 -129 55q-114 -162 -302 -162q-92 0 -176 30q-89 31 -314 144l-56 29q-33 18 -54 29v-880h-328v1189l216 125q53 -30 89 -50q13 -7 30 -16l28 -16q46 153 110 250q79 119 188 173q83 40 178 40q105 0 205 -49q87 -45 154 -124
q64 -76 98 -169q16 -41 23 -80q22 -105 57 -152q37 -49 99 -49v-328zM1051 248q27 56 27 142t-52 150q-55 68 -137 68q-60 0 -119 -98q-49 -82 -75 -186q173 -79 272 -119q13 -6 25 -6q35 0 59 49z" />
    <glyph glyph-name="uniFEE3" unicode="&#x645;" horiz-adv-x="1155" arabic-form="initial" 
d="M788 272q13 36 13 78q0 11 -1 22q-5 77 -45 133q-41 57 -95 57q-74 0 -122 -88q-17 -30 -31 -74q-5 -14 -11 -34l-4 -15l-4 -13q58 -50 148 -83q74 -26 118 -26q18 0 34 43zM1014 696q47 -75 71 -170q20 -81 20 -154q0 -243 -122 -364q-46 -47 -108 -72q-50 -20 -101 -23
q-10 -1 -28 -1q-125 0 -266 62q-48 20 -103 51l-22 12l-20 11q-23 14 -33 19q-82 -82 -273 -82h-54v328h41q101 0 133 42q14 19 56 150q3 9 6 17q3 11 8 22q10 28 23 54q34 73 80 129q133 163 338 163q232 0 354 -194z" />
    <glyph glyph-name="uniFEE4" unicode="&#x645;" horiz-adv-x="1198" arabic-form="medial" 
d="M1223 -15q-118 0 -208 45q-49 -58 -117 -89q-55 -24 -112 -28q-13 -1 -26 -1q-121 0 -258 58q-50 21 -109 53l-23 13l-11 6l-10 6q-25 14 -35 19q-108 -81 -307 -81h-32v327h32q104 0 143 42q29 31 67 150q3 9 6 17q3 11 8 22q10 28 23 55q34 72 80 129q132 163 338 163
q228 0 350 -189q47 -73 72 -166q21 -79 23 -153q0 -31 19 -48q25 -23 87 -23v-327zM800 273q13 36 13 78q0 11 -1 22q-5 76 -45 132q-41 58 -95 58q-74 0 -122 -88q-17 -30 -31 -74q-5 -14 -11 -34l-4 -15l-4 -13q58 -51 148 -83q73 -26 118 -26q18 0 34 43z" />
    <glyph glyph-name="uniFEE6" unicode="&#x646;" horiz-adv-x="1685" arabic-form="final" 
d="M1521 414q0 -47 32 -74q31 -27 82 -27h75v-328h-105l-31 2q-34 3 -55 12q-12 -226 -128 -361q-82 -94 -213 -143q-125 -46 -295 -46h-151q-172 0 -310 63q-157 72 -245 209q-95 152 -95 353q0 25 1 50q12 233 143 517l298 -137q-105 -226 -114 -397q-1 -17 -1 -34
q0 -107 45 -175q44 -70 136 -100q35 -12 76 -17q32 -4 66 -4h151q187 0 254 69q57 59 57 207v623h327v-262zM641 751l208 210l212 -212l-211 -210z" />
    <glyph glyph-name="uniFEE7" unicode="&#x646;" horiz-adv-x="750" arabic-form="initial" 
d="M666 493q8 -48 8 -92q0 -136 -78 -244q-125 -172 -407 -172h-214v328h207q90 0 127 24q38 23 38 73q0 15 -4 33q-10 51 -20 104q-4 20 -8 43l-4 19l-3 19q-15 82 -23 117l313 95q30 -141 68 -347zM100 1227l208 210l212 -212l-211 -210z" />
    <glyph glyph-name="uniFEE8" unicode="&#x646;" horiz-adv-x="770" arabic-form="medial" 
d="M640 404q0 -48 23 -68q26 -23 92 -23h40v-328h-40q-65 0 -123 14q-46 11 -86 31q-46 22 -69 44q-23 -22 -74 -44q-101 -45 -240 -45h-188v328h211q72 0 101 24q26 21 26 67v272h327v-272zM197 1137l208 210l212 -212l-211 -210z" />
    <glyph glyph-name="uniFEEA" unicode="&#x647;" horiz-adv-x="1293" arabic-form="final" 
d="M635 414q54 44 54 116v5q-1 30 -12 80q-3 15 -10 46l-6 26l-6 27q-159 -55 -210 -106q-47 -47 -47 -103v-7q3 -59 52 -96q31 -23 80 -23q61 0 105 35zM977 772q8 -34 20 -87l10 -41l9 -39q21 -90 40 -162q22 -81 79 -105q34 -15 87 -21q36 -4 96 -4v-328q-90 0 -155 9
q-90 12 -162 44q-96 44 -160 120l-12 14q-51 -45 -116 -72q-83 -33 -176 -33l-10 1h-11q-114 5 -207 55q-174 91 -214 286q-11 52 -11 103q0 67 19 131q37 113 129 201q101 97 351 177l-19 88l320 73q57 -250 93 -410z" />
    <glyph glyph-name="uniFEEB" unicode="&#x647;" horiz-adv-x="1727" arabic-form="initial" 
d="M772 480q0 80 -58 126q-45 36 -96 36q-23 0 -50 -8q-31 -9 -56 -26q-66 -46 -66 -128q0 -54 53 -103q52 -47 119 -58q154 53 154 161zM1499 714q137 -186 147 -383q1 -16 1 -33q0 -178 -112 -308q-133 -155 -399 -155q-146 0 -359 79q-68 25 -141 58q-12 6 -26 12
q-9 4 -21 9q-21 10 -25 12q-163 -20 -383 -20h-198v328h184q-43 107 -43 167q0 181 113 317q137 163 381 163q213 0 350 -155q125 -141 125 -325q0 -108 -56 -212q-29 -52 -57 -82q80 -33 188 -33q58 0 98 29q40 28 54 77q8 26 8 54q0 89 -79 194q-244 327 -330 445l255 205
q170 -230 325 -443z" />
    <glyph glyph-name="uniFEEC" unicode="&#x647;" horiz-adv-x="1264" arabic-form="medial" 
d="M725 -20q10 42 25 81q5 14 10 26l4 8q1 3 2 4q-129 -66 -270 -77q14 -80 92 -162q67 -71 132 -98q-12 42 -12 91q0 58 17 127zM729 447q24 24 34 51q3 10 4 20l1 8v6q0 37 -24 63q-28 29 -79 29q-80 0 -134 -110q-19 -39 -34 -90q-6 -19 -10 -40q-4 -15 -7 -31
q180 25 249 94zM955 848q133 -109 133 -316q0 -126 -65 -229q43 10 79 10h187v-328h-165q-34 0 -61 -28q-25 -27 -35 -71q-6 -24 -6 -48q0 -73 58 -135l-104 -267q-58 -8 -106 -8q-309 0 -522 228q-78 84 -131 186q-44 83 -56 146q-102 -3 -186 -3v328h81q48 1 89 3
q23 225 110 375q71 122 176 186q106 65 234 65q176 0 290 -94z" />
    <glyph glyph-name="uniFEEE" unicode="&#x648;" horiz-adv-x="1080" arabic-form="final" 
d="M678 312v103q0 92 -39 146q-39 53 -106 53q-68 0 -108 -53q-37 -49 -37 -127q0 -9 1 -19q3 -53 48 -80q38 -23 96 -23h145zM885 781q121 -147 121 -366v-103h99v-327h-102q-25 -311 -304 -445q-109 -52 -255 -75q-115 -19 -249 -19v328q250 0 376 70q102 56 102 141h-140
q-178 0 -303 96q-150 116 -150 334q0 207 100 351q121 176 353 176q221 0 352 -161z" />
    <glyph glyph-name="uniFEF0" unicode="&#x649;" horiz-adv-x="1811" arabic-form="final" 
d="M515 539q-116 -244 -116 -429q0 -18 1 -38q2 -25 7 -49q11 -63 38 -112q77 -138 258 -138h276q207 0 291 55q42 28 43 55q-142 83 -391 130v300h914v-328h-241q22 -35 22 -99q0 -23 -2 -46q-4 -32 -12 -62q-22 -83 -76 -147q-157 -185 -548 -185h-276q-333 0 -502 233
q-131 181 -131 431q0 184 75 396q38 106 75 175z" />
    <glyph glyph-name="uniFEF2" unicode="&#x64a;" horiz-adv-x="1811" arabic-form="final" 
d="M515 539q-116 -244 -116 -429q0 -18 1 -38q2 -25 7 -49q11 -63 38 -112q77 -138 258 -138h276q207 0 291 55q42 28 43 55q-142 83 -391 130v300h914v-328h-241q22 -35 22 -99q0 -23 -2 -46q-4 -32 -12 -62q-22 -83 -76 -147q-157 -185 -548 -185h-276q-333 0 -502 233
q-131 181 -131 431q0 184 75 396q38 106 75 175zM1067 -1050l-196 198l194 200l200 -200zM645 -1051l-196 198l193 200l200 -200z" />
    <glyph glyph-name="uniFEF3" unicode="&#x64a;" horiz-adv-x="927" arabic-form="initial" 
d="M843 493q8 -48 8 -92q0 -136 -78 -244q-125 -172 -407 -172h-391v328h384q90 0 127 24q38 23 38 73q0 15 -4 33q-10 51 -20 104q-4 20 -8 43l-4 19l-3 19q-15 82 -23 117l313 95q30 -141 68 -347zM621 -594l-196 198l194 200l200 -200zM199 -595l-196 198l193 200
l200 -200z" />
    <glyph glyph-name="uniFEF4" unicode="&#x64a;" horiz-adv-x="1024" arabic-form="medial" 
d="M788 404q0 -48 23 -68q26 -23 92 -23h146v-328h-146q-65 0 -123 14q-46 11 -86 31q-46 22 -69 44q-23 -22 -74 -44q-101 -45 -240 -45h-336v328h359q72 0 101 24q26 21 26 67v272h327v-272zM669 -598l-196 198l194 200l200 -200zM247 -599l-196 198l193 200l200 -200z
" />
    <glyph glyph-name=".notdef" horiz-adv-x="1229" 
d="M102 -362v1806h1024v-1806h-1024zM217 -248h795v1577h-795v-1577z" />
    <glyph glyph-name=".null" 
 />
    <glyph glyph-name="uni000D" horiz-adv-x="602" 
 />
    <glyph glyph-name="uniFEFF" unicode="&#xfeff;" 
 />
    <glyph glyph-name="uniFEFF" 
 />
    <glyph glyph-name="space" unicode=" " horiz-adv-x="696" 
 />
    <glyph glyph-name="space" unicode="&#xa0;" horiz-adv-x="696" 
 />
    <glyph glyph-name="exclam" unicode="!" horiz-adv-x="620" 
d="M461 314h-293l-47 1190h386zM100 -12l208 210l212 -212l-210 -210z" />
    <glyph glyph-name="quotedbl" unicode="&#x22;" horiz-adv-x="697" 
d="M274 1502l-46 -461h-201v610h247v-149zM651 1502l-46 -461h-199v610h245v-149z" />
    <glyph glyph-name="numbersign" unicode="#" horiz-adv-x="1278" 
d="M657 440h-173l-71 -440h-214l72 440h-239v197h271l47 284h-237v196h269l75 447h212l-73 -447h173l74 447h214l-74 -447h248v-196h-280l-48 -284h246v-197h-278l-72 -440h-214zM517 637h173l47 284h-173z" />
    <glyph glyph-name="dollar" unicode="$" horiz-adv-x="1274" 
d="M816 415q0 85 -41.5 133t-147 91t-194.5 87t-153.5 102t-99 134.5t-34.5 184.5q0 182 122.5 299.5t326.5 136.5v227h171v-231q197 -29 309 -161.5t112 -336.5h-363q0 111 -43 171.5t-123 60.5q-70 0 -109.5 -44.5t-39.5 -123.5t45 -126t145 -89.5t188.5 -88t153 -103.5
t101 -135.5t36.5 -185.5q0 -184 -116.5 -300t-317.5 -135v-216h-170v217q-235 25 -360 160.5t-125 358.5h362q0 -123 54.5 -187t154.5 -64q73 0 114.5 43.5t41.5 120.5z" />
    <glyph glyph-name="percent" unicode="%" horiz-adv-x="1633" 
d="M97 1263q0 145 94.5 234.5t253.5 89.5q161 0 254.5 -89t93.5 -240v-77q0 -145 -93.5 -233.5t-252.5 -88.5q-158 0 -254 87.5t-96 240.5v76zM330 1181q0 -56 31 -91t86 -35q113 0 113 144v64q0 56 -30 92t-85 36q-53 0 -84 -35t-31 -95v-80zM840 383q0 147 95 235t253 88
q160 0 254.5 -87t94.5 -243v-75q0 -146 -93.5 -234t-253.5 -88q-158 0 -254 87.5t-96 239.5v77zM1072 301q0 -51 34.5 -89t83.5 -38q104 0 113 99l1 110q0 57 -31 92t-85 35q-51 0 -82.5 -32.5t-33.5 -88.5v-88zM516 117l-169 85l764 1222l168 -84z" />
    <glyph glyph-name="ampersand" unicode="&#x26;" horiz-adv-x="1482" 
d="M334 824q-63 90 -99 171.5t-36 168.5q0 190 122.5 306.5t319.5 116.5q178 0 294 -108t116 -268q0 -200 -221 -355l-81 -57l240 -276q59 118 59 259h304q0 -317 -146 -508l239 -274h-404l-73 83q-90 -54 -184 -80t-213 -26q-232 0 -371.5 122t-139.5 321q0 109 55.5 197
t215.5 205zM595 257q95 0 181 44l-282 320l-10 -7q-61 -75 -61 -169q0 -79 49.5 -133.5t122.5 -54.5zM511 1169q0 -75 82 -183l72 45q49 32 71.5 66.5t22.5 87.5q0 49 -34 85.5t-85 36.5q-60 0 -94.5 -38t-34.5 -100z" />
    <glyph glyph-name="quotesingle" unicode="'" horiz-adv-x="339" 
d="M304 1476l-35 -444h-223v618h258v-174z" />
    <glyph glyph-name="parenleft" unicode="(" horiz-adv-x="840" 
d="M740 1488q-20 -23 -43.5 -58.5t-53.5 -85.5t-61 -113q-28 -57 -57 -129.5t-53 -157.5t-39 -181t-15 -199t15 -198t39 -179.5t53 -156.5t57 -129q31 -63 60.5 -112.5t90.5 -137.5l-212 -177q-2 2 -19.5 24t-45 62t-61.5 97t-70 128q-83 167 -132 343q-30 109 -45 218
t-15 218t15 218.5t45 219.5q24 88 57 174t75 171q36 72 70.5 129t62 97.5t44.5 62.5t19 24z" />
    <glyph glyph-name="parenright" unicode=")" horiz-adv-x="823" 
d="M100 1488l219 172q2 -2 19 -24t44.5 -62.5t62 -97.5t70.5 -129q42 -85 75 -171t57 -174q30 -110 45 -219.5t15 -218.5t-15 -218t-45 -218q-49 -176 -132 -343q-36 -71 -70 -128t-61.5 -97t-45 -62t-19.5 -24l-212 177q61 88 90.5 137.5t60.5 112.5q28 57 57 129t53 156.5
t39 179.5t15 198t-15 199t-39 181t-53 157.5t-57 129.5q-31 63 -61 113t-53.5 85.5t-43.5 58.5z" />
    <glyph glyph-name="asterisk" unicode="*" horiz-adv-x="1023" 
d="M378 1027l-350 97l70 203l342 -141l-26 378h229l-27 -386l333 138l69 -205l-354 -97l235 -285l-186 -126l-196 315l-198 -305l-186 122z" />
    <glyph glyph-name="plus" unicode="+" horiz-adv-x="1175" 
d="M754 887h366v-310h-366v-420h-338v420h-368v310h368v409h338v-409z" />
    <glyph glyph-name="comma" unicode="," horiz-adv-x="593" 
d="M229 -421l-183 86l37 73q75 140 78 266v269h290l-1 -233q-1 -124 -63.5 -251.5t-157.5 -209.5z" />
    <glyph glyph-name="hyphen" unicode="-" horiz-adv-x="989" 
d="M809 534h-646v280h646v-280z" />
    <glyph glyph-name="period" unicode="." horiz-adv-x="665" 
d="M325 351q86 0 143 -51t57 -130q0 -80 -57 -131t-143 -51q-87 0 -143 51.5t-56 130.5q0 78 56 129.5t143 51.5z" />
    <glyph glyph-name="slash" unicode="/" horiz-adv-x="772" 
d="M226 -134h-257l534 1698h258z" />
    <glyph glyph-name="zero" unicode="0" horiz-adv-x="1490" 
d="M855 459q46 46 46 110q0 65 -46 110q-45 46 -110 46q-64 0 -110 -46q-46 -45 -46 -110q0 -64 46 -110t110 -46q65 0 110 46zM1087 911q142 -144 142 -342q0 -200 -142 -342t-342 -142q-202 0 -342 142q-142 140 -142 342q0 200 142 342t342 142q198 0 342 -142z" />
    <glyph glyph-name="one" unicode="1" horiz-adv-x="1490" 
d="M645 -15q0 45 2 155l1 61l1 64q1 37 1 70q0 34 -1 65q-1 159 -11 296q-28 359 -125 667l312 99q108 -340 138 -737q12 -150 13 -320q1 -33 1 -68q0 -36 -1 -74q0 -31 -1 -67v-31l-1 -31q-2 -108 -2 -149h-327z" />
    <glyph glyph-name="two" unicode="2" horiz-adv-x="1490" 
d="M1218 1458q2 -6 3 -10q5 -16 9 -31q13 -46 24 -91q32 -138 32 -229q0 -209 -118 -336q-120 -131 -311 -131q-99 0 -189 39q12 -149 16 -318q1 -64 1 -141q0 -29 -1 -66v-160h-328q0 15 1 49v106q1 32 1 58q0 67 -1 124q-2 147 -12 277q-24 342 -103 637v1q-18 67 -37 124
l313 99q20 -61 40 -138q1 -4 3 -10q3 -8 5 -16q9 -24 19 -48q29 -71 65 -130q100 -159 207 -159q48 0 70 25q31 33 31 114q0 48 -19 135q-16 72 -35 132l312 100z" />
    <glyph glyph-name="three" unicode="3" horiz-adv-x="1490" 
d="M1393 1443q4 -13 8 -29q11 -44 21 -90q29 -135 29 -225q0 -198 -76 -314q-97 -153 -281 -153q-147 0 -255 97l-12 11q-88 -93 -226 -110q-30 -4 -50 -4q-22 0 -48 3q9 -134 11 -286q1 -58 1 -127q0 -26 -1 -60v-56q-1 -27 -1 -60v-54h-328v57q0 33 1 60v29l1 30v62
q0 72 -1 133q-2 161 -14 302q-31 375 -134 699l313 99q85 -329 108 -391q41 -110 99 -111q11 0 19 2q12 3 21 10q25 20 34 71q9 48 9 107q0 28 -2 58q-2 35 -7 87l-5 45l-5 46l316 46q6 -65 16 -132q13 -89 29 -157q43 -185 99 -186h1q43 0 44 95q0 97 -45 326l306 86
q2 -5 5 -16z" />
    <glyph glyph-name="four" unicode="4" horiz-adv-x="1490" 
d="M1400 624q-1 0 -8 -2q-8 -1 -20 -3q-32 -6 -72 -11q-122 -16 -261 -23q-46 -2 -90 -2q-220 0 -395 54q11 -141 13 -300q1 -62 1 -134v-219h-328v100q0 59 1 95q0 55 -1 102q-1 121 -6 228q-14 277 -61 520q-8 32 -11 49h1q-32 149 -74 282l312 99q55 -173 92 -358
q6 -20 10 -29v17l-1 18q0 15 3 37q5 28 13 57q22 80 67 145q131 190 403 190q91 0 173 -34q33 -14 75 -37q15 -9 38 -22l40 -24l29 -18l15 -9l16 -9l-159 -273q-58 33 -114 54q-76 27 -141 27q-68 0 -112 -34q-40 -31 -44 -77q-1 -9 -1 -17q0 -73 64 -116q63 -43 175 -43
q34 0 72 4q120 12 205 33z" />
    <glyph glyph-name="five" unicode="5" horiz-adv-x="1490" 
d="M1389 475q0 -230 -96 -357q-54 -73 -141 -106q-66 -25 -154 -25q-70 0 -136 30q-67 30 -107 79q-89 -112 -232 -112q-107 0 -195 43q-87 44 -142 125q-85 124 -85 323q0 143 87 323q63 130 170 281q61 86 141 183q-31 25 -49 40l201 259l10 -8q5 -4 10 -9q7 -5 14 -11
q39 -33 81 -69q130 -117 240 -237q383 -424 383 -752zM1062 350q21 34 21 114q0 186 -317 539l-14 16l-15 16q-8 -10 -21 -25l-11 -14l-12 -14q-31 -37 -52 -62q-65 -80 -109 -144q-127 -184 -127 -301q0 -73 30 -116q31 -47 88 -47q76 0 96 58q7 21 7 56q0 27 -4 62l1 -1
l277 42q5 -51 10 -120v-10l2 -14q2 -19 9 -33q18 -38 67 -38h10q44 4 64 36z" />
    <glyph glyph-name="six" unicode="6" horiz-adv-x="1490" 
d="M826 1209l-39 -9l-38 -8q-44 -10 -71 -18q-73 -22 -103 -55q-32 -34 -32 -78q0 -10 2 -21q7 -49 38 -74q38 -30 84 -30q110 0 273 158l95 91l228 -234q-1 -2 -26 -26l-12 -11l-37 -37l-2 -3l-6 -6q-7 -9 -15 -19q-23 -26 -46 -55q-69 -86 -134 -178q-99 -139 -185 -284
q-113 -191 -192 -373l-301 130q109 254 288 536q-59 7 -119 33q-82 37 -140 101q-108 118 -108 284q0 22 2 44q16 198 164 316q103 81 310 118l31 6q19 3 32 6z" />
    <glyph glyph-name="seven" unicode="7" horiz-adv-x="1490" 
d="M1430 1276q-211 -255 -373 -679q-149 -392 -149 -614h-328q0 223 -148 614q-161 426 -372 679l252 209q145 -173 265 -400q148 -281 168 -493q22 214 170 493q120 229 263 400z" />
    <glyph glyph-name="eight" unicode="8" horiz-adv-x="1490" 
d="M1178 -71q-143 171 -263 400q-148 279 -170 493q-20 -212 -168 -493q-120 -227 -265 -400l-252 209q211 253 372 679q148 391 148 614h328q0 -222 149 -614q162 -424 373 -679z" />
    <glyph glyph-name="nine" unicode="9" horiz-adv-x="1490" 
d="M838 882v62q-1 55 -1 61q0 68 -23 105q-33 52 -110 52t-110 -54q-23 -38 -23 -103q0 -63 30 -90q37 -33 132 -33h105zM895 1435q58 -24 108 -66q162 -138 162 -434q0 -429 26 -681q10 -93 22 -155q9 -46 19 -72l-307 -115q-47 127 -69 414q-9 135 -13 241h-132
q-13 0 -25 1q-33 1 -63 5q-82 10 -148 40q-102 49 -155 133q-63 96 -63 230q0 252 141 381q122 111 323 111q95 0 174 -33z" />
    <glyph glyph-name="colon" unicode=":" horiz-adv-x="661" 
d="M327 351q86 0 142.5 -51t56.5 -130q0 -80 -56.5 -131t-142.5 -51q-87 0 -143.5 51.5t-56.5 130.5q0 78 56.5 129.5t143.5 51.5zM327 1208q86 0 142.5 -51t56.5 -130q0 -80 -56.5 -131t-142.5 -51q-87 0 -143.5 52t-56.5 130t56.5 129.5t143.5 51.5z" />
    <glyph glyph-name="semicolon" unicode=";" horiz-adv-x="634" 
d="M316 1208q86 0 143 -51t57 -130q0 -80 -57 -131t-143 -51q-87 0 -143.5 52t-56.5 130t56.5 129.5t143.5 51.5zM256 -421l-183 86l37 73q75 140 78 266v269h290l-1 -233q-1 -124 -63.5 -251.5t-157.5 -209.5z" />
    <glyph glyph-name="less" unicode="&#x3c;" horiz-adv-x="1121" 
d="M411 654l588 -197v-330l-950 386v286l950 387v-329z" />
    <glyph glyph-name="equal" unicode="=" horiz-adv-x="1288" 
d="M1132 776h-994v279h994v-279zM1132 304h-994v279h994v-279z" />
    <glyph glyph-name="greater" unicode="&#x3e;" horiz-adv-x="1128" 
d="M704 657l-585 199v329l944 -387v-286l-944 -386v328z" />
    <glyph glyph-name="question" unicode="?" horiz-adv-x="1120" 
d="M370 495q0 157 35 248t114.5 157.5t121 121.5t41.5 122q0 162 -140 162q-64 0 -103.5 -47t-42.5 -128h-363q2 215 135.5 335t373.5 120t371.5 -111t131.5 -315q0 -89 -35.5 -162t-113.5 -149l-124 -115q-52 -51 -72.5 -104t-22.5 -135h-307zM325 169q0 79 57.5 130
t143.5 51t143.5 -51t57.5 -130q0 -80 -57.5 -131t-143.5 -51t-143.5 51t-57.5 131z" />
    <glyph glyph-name="at" unicode="@" horiz-adv-x="1970" 
d="M1886 591q-10 -281 -139 -447.5t-344 -166.5q-88 0 -156 38.5t-105 108.5q-105 -142 -283 -142q-103 0 -180 60.5t-113 172.5q-26 81 -26 176q0 38 4 77q32 269 172.5 432t344.5 163q158 0 272 -73l68 -45l-55 -630q-2 -19 -2 -36q0 -114 105 -114q91 0 153 117t68 298
q2 37 2 72q0 307 -158.5 492.5t-481.5 185.5q-205 0 -364.5 -105t-252.5 -296.5t-105 -436.5q-2 -35 -2 -68q0 -326 160 -516.5t496 -190.5q90 0 191 21t164 49l40 -178q-66 -43 -177 -69.5t-223 -26.5q-293 0 -495.5 112.5t-301.5 332.5q-89 198 -89 472q0 31 1 62
q13 296 137 531t339.5 363.5t486.5 128.5q270 0 466.5 -112.5t295.5 -322.5q88 -188 88 -430q0 -29 -1 -59zM812 468q-3 -36 -3 -68q0 -90 29.5 -152t104.5 -62q51 0 93.5 45t69.5 129l43 490q-32 8 -66 8q-120 0 -185 -94t-86 -296z" />
    <glyph glyph-name="A" unicode="A" horiz-adv-x="1499" 
d="M1007 292h-517l-90 -292h-403l573 1564h355l578 -1564h-405zM580 583h336l-168 543z" />
    <glyph glyph-name="B" unicode="B" horiz-adv-x="1419" 
d="M118 0v1564h562q302 0 459.5 -110.5t157.5 -321.5q0 -121 -56 -207t-165 -127q123 -32 188.5 -120t65.5 -215q0 -230 -145.5 -345.5t-431.5 -117.5h-635zM495 665v-375h247q102 0 157 46.5t55 131.5q0 196 -195 197h-264zM495 912h197q123 1 176 45t53 130
q0 99 -57 142.5t-184 43.5h-185v-361z" />
    <glyph glyph-name="C" unicode="C" horiz-adv-x="1444" 
d="M1384 530q-8 -164 -88.5 -289t-226 -193.5t-332.5 -68.5q-308 0 -485.5 200.5t-177.5 567.5v77q0 230 80 402.5t230.5 266.5t348.5 94q284 0 457 -150t197 -413h-376q-4 143 -72 205t-206 62q-141 0 -206.5 -105t-68.5 -336v-111q0 -250 62.5 -357.5t216.5 -107.5
q130 0 198.5 61t73.5 195h375z" />
    <glyph glyph-name="D" unicode="D" horiz-adv-x="1422" 
d="M118 0v1564h504q207 0 372.5 -94t258.5 -265.5t94 -383.5v-72q0 -215 -90.5 -385.5t-255.5 -266.5t-368 -97h-515zM495 1273v-983h131q162 0 249.5 115.5t87.5 343.5v67q0 227 -87.5 342t-253.5 115h-127z" />
    <glyph glyph-name="E" unicode="E" horiz-adv-x="1231" 
d="M1088 663h-593v-373h701v-290h-1078v1564h1080v-291h-703v-330h593v-280z" />
    <glyph glyph-name="F" unicode="F" horiz-adv-x="1203" 
d="M1103 623h-608v-623h-377v1564h1046v-291h-669v-360h608v-290z" />
    <glyph glyph-name="G" unicode="G" horiz-adv-x="1500" 
d="M1399 193q-87 -96 -255 -155t-367 -59q-308 0 -491.5 187.5t-196.5 523.5l-1 135q0 231 81.5 403.5t233.5 265.5t352 93q292 0 454 -134t189 -399h-364q-19 131 -83.5 187t-182.5 56q-142 0 -219 -120.5t-78 -343.5v-95q0 -234 80 -351.5t251 -117.5q148 0 220 65v243
h-263v259h640v-643z" />
    <glyph glyph-name="H" unicode="H" horiz-adv-x="1546" 
d="M1425 0h-374v653h-556v-653h-377v1564h377v-621h556v621h374v-1564z" />
    <glyph glyph-name="I" unicode="I" horiz-adv-x="664" 
d="M520 0h-376v1564h376v-1564z" />
    <glyph glyph-name="J" unicode="J" horiz-adv-x="1236" 
d="M741 1564h376v-1073q0 -149 -69 -266.5t-193.5 -181.5t-276.5 -64q-256 0 -397.5 128.5t-141.5 365.5h378q0 -108 37 -156t124 -48q78 0 120.5 58.5t42.5 163.5v1073z" />
    <glyph glyph-name="K" unicode="K" horiz-adv-x="1407" 
d="M650 582l-155 -169v-413h-377v1564h377v-690l131 199l338 491h466l-529 -692l529 -872h-447z" />
    <glyph glyph-name="L" unicode="L" horiz-adv-x="1192" 
d="M495 290h657v-290h-1034v1564h377v-1274z" />
    <glyph glyph-name="M" unicode="M" horiz-adv-x="1928" 
d="M613 1564l350 -1088l348 1088h496v-1564h-378v365l36 748l-378 -1113h-249l-379 1114l36 -749v-365h-377v1564h495z" />
    <glyph glyph-name="N" unicode="N" horiz-adv-x="1545" 
d="M1424 0h-374l-555 973v-973h-377v1564h377l553 -973v973h376v-1564z" />
    <glyph glyph-name="O" unicode="O" horiz-adv-x="1519" 
d="M1443 750q0 -229 -85 -405t-241.5 -271t-355.5 -95q-200 0 -355 91.5t-241.5 262.5t-90.5 392v88q0 230 84.5 405.5t242 271.5t357.5 96q199 0 355 -95t242.5 -269.5t87.5 -399.5v-72zM1059 815q0 233 -78 354t-223 121q-283 0 -299 -425l-1 -115q0 -230 76 -353.5
t227 -123.5q142 0 219.5 121.5t78.5 348.5v72z" />
    <glyph glyph-name="P" unicode="P" horiz-adv-x="1432" 
d="M495 531v-531h-377v1564h624q180 0 318 -66t213.5 -188t75.5 -277q0 -228 -163.5 -365t-449.5 -137h-241zM495 822h247q110 0 167.5 54.5t57.5 154.5q0 110 -59 175.5t-161 66.5h-252v-451z" />
    <glyph glyph-name="Q" unicode="Q" horiz-adv-x="1519" 
d="M1445 750q0 -217 -72 -379t-199 -259l253 -200l-234 -198l-336 271q-47 -6 -94 -6q-200 0 -354.5 92t-241 264t-90.5 395v83q0 231 84.5 406t241 271t358.5 96q198 0 354 -95t242.5 -269.5t87.5 -399.5v-72zM1061 815q0 233 -77.5 354t-222.5 121q-150 0 -225 -119
t-76 -349v-72q0 -231 76 -354t227 -123q144 0 220.5 121.5t77.5 348.5v72z" />
    <glyph glyph-name="R" unicode="R" horiz-adv-x="1435" 
d="M699 552h-204v-552h-377v1564h616q278 0 435 -123.5t157 -349.5q0 -163 -66.5 -270.5t-206.5 -173.5l326 -631v-16h-404zM495 843h239q107 0 161.5 56.5t54.5 157.5t-55 158.5t-161 57.5h-239v-430z" />
    <glyph glyph-name="S" unicode="S" horiz-adv-x="1377" 
d="M925 416q0 82 -58.5 128.5t-206 96t-240.5 95.5q-304 149 -304 410q0 130 75.5 229.5t214.5 155t312 55.5q168 0 302 -60.5t208 -171.5t74 -254h-376q0 96 -58.5 148.5t-158.5 52.5q-101 0 -159.5 -44.5t-58.5 -113.5q0 -60 64.5 -109t226.5 -101t266 -112
q254 -146 254 -403q0 -205 -154.5 -322t-424.5 -117q-190 0 -344 68t-232 186.5t-78 273.5h378q0 -126 65 -185.5t211 -59.5q93 0 147.5 40.5t54.5 113.5z" />
    <glyph glyph-name="T" unicode="T" horiz-adv-x="1387" 
d="M1346 1273h-469v-1273h-377v1273h-461v291h1307v-291z" />
    <glyph glyph-name="U" unicode="U" horiz-adv-x="1462" 
d="M1345 1564v-1024q0 -174 -74 -301t-212.5 -193.5t-328.5 -66.5q-285 0 -449.5 148t-167.5 406v1031h379v-1039q6 -256 238 -256q118 0 178 64t60 209v1022h377z" />
    <glyph glyph-name="V" unicode="V" horiz-adv-x="1453" 
d="M725 425l312 1139h421l-527 -1564h-412l-522 1564h418z" />
    <glyph glyph-name="W" unicode="W" horiz-adv-x="1912" 
d="M1330 583l179 981h374l-332 -1564h-391l-209 892l-205 -892h-390l-333 1564h374l180 -981l215 981h320z" />
    <glyph glyph-name="X" unicode="X" horiz-adv-x="1404" 
d="M701 1044l256 520h431l-437 -776l449 -788h-435l-264 530l-263 -530h-434l448 788l-436 776h430z" />
    <glyph glyph-name="Y" unicode="Y" horiz-adv-x="1381" 
d="M691 885l288 679h407l-504 -1002v-562h-382v562l-503 1002h405z" />
    <glyph glyph-name="Z" unicode="Z" horiz-adv-x="1342" 
d="M541 290h748v-290h-1218v199l745 1074h-749v291h1215v-193z" />
    <glyph glyph-name="bracketleft" unicode="[" horiz-adv-x="620" 
d="M606 1568h-127v-1680h127v-263h-490v2208h490v-265z" />
    <glyph glyph-name="backslash" unicode="\" horiz-adv-x="938" 
d="M-21 1564h377l653 -1698h-380z" />
    <glyph glyph-name="bracketright" unicode="]" horiz-adv-x="620" 
d="M15 1833h490v-2208h-490v263h128v1680h-128v265z" />
    <glyph glyph-name="asciicircum" unicode="^" horiz-adv-x="984" 
d="M494 1270l-184 -487h-271l321 781h267l323 -781h-273z" />
    <glyph glyph-name="underscore" unicode="_" horiz-adv-x="971" 
d="M970 -270h-970v270h970v-270z" />
    <glyph glyph-name="grave" unicode="`" horiz-adv-x="747" 
d="M655 1313h-294l-303 337h382z" />
    <glyph glyph-name="a" unicode="a" horiz-adv-x="1168" 
d="M756 0q-19 35 -34 104q-100 -125 -279 -125q-165 0 -280 99t-115 250q0 189 140 285.5t406 96.5h112v61q0 160 -139 160q-129 0 -129 -126h-362q0 168 143.5 273.5t366.5 105.5q222 0 351 -108.5t132 -297.5v-515q2 -160 49 -245v-18h-362zM530 236q67 0 111.5 29
t64.5 66v186h-106q-189 0 -189 -170q0 -49 33.5 -80t85.5 -31z" />
    <glyph glyph-name="b" unicode="b" horiz-adv-x="1239" 
d="M1181 571q0 -285 -118.5 -438.5t-333.5 -153.5q-177 0 -285 140l-15 -119h-325v1650h362v-581q101 115 261 115q217 0 335.5 -156t118.5 -438v-19zM817 594q0 168 -44.5 239t-136.5 71q-123 0 -170 -93v-462q46 -92 172 -92q128 0 162 124q17 62 17 213z" />
    <glyph glyph-name="c" unicode="c" horiz-adv-x="1143" 
d="M593 258q76 0 118 42q41 40 41 112v3h339q0 -192 -137 -314t-352 -122q-254 0 -400 158.5t-146 440.5v15q0 176 65 311t187.5 207.5t289.5 72.5q227 0 360 -126t133 -340h-339q0 90 -44 138t-118 48q-141 0 -165 -179q-7 -57 -7 -157q0 -175 42 -242.5t133 -67.5z" />
    <glyph glyph-name="d" unicode="d" horiz-adv-x="1238" 
d="M56 590q0 276 119 435t333 159q156 0 262 -123v589h363v-1650h-325l-18 125q-112 -146 -284 -146q-207 0 -328.5 158.5t-121.5 452.5zM418 567q0 -309 180 -309q121 0 172 101v442q-49 103 -170 103q-167 0 -181 -270z" />
    <glyph glyph-name="e" unicode="e" horiz-adv-x="1198" 
d="M664 -21q-268 0 -433 159.5t-165 414.5v30q0 179 66 315t192.5 211t300.5 75q245 0 387 -152t142 -424v-141h-720q19 -97 84.5 -153t170.5 -56q171 0 268 120l166 -195q-68 -94 -192 -149t-267 -55zM623 904q-159 0 -189 -210h365v35q0 82 -45 128.5t-131 46.5z" />
    <glyph glyph-name="f" unicode="f" horiz-adv-x="797" 
d="M182 0v911h-169v251h169v93q0 198 117 308t328 110q78 0 170 -23l1 -266q-33 9 -89 9q-164 0 -164 -142v-89h226v-251h-226v-911h-363z" />
    <glyph glyph-name="g" unicode="g" horiz-adv-x="1265" 
d="M59 590q0 176 58 311.5t166.5 209t252.5 73.5q182 0 284 -123l13 101h328v-1118q0 -154 -71.5 -267t-206.5 -174t-314 -61q-127 0 -247 48.5t-183 125.5l151 213q101 -119 266 -119q241 0 241 247v36q-104 -114 -263 -114q-213 0 -344 162.5t-131 435.5v13zM422 567
q0 -143 54 -226t150 -83q117 0 171 78v489q-53 79 -169 79q-96 0 -151 -86t-55 -251z" />
    <glyph glyph-name="h" unicode="h" horiz-adv-x="1242" 
d="M455 1038q116 146 297 146q192 0 290 -114t100 -336v-734h-363v725q0 92 -37.5 135.5t-128.5 43.5q-111 0 -158 -70v-834h-362v1650h362v-612z" />
    <glyph glyph-name="i" unicode="i" horiz-adv-x="605" 
d="M483 0h-363v1162h363v-1162zM99 1462q0 77 56 126.5t145 49.5t145 -49.5t56 -126.5t-56 -126.5t-145 -49.5t-145 49.5t-56 126.5z" />
    <glyph glyph-name="j" unicode="j" horiz-adv-x="594" 
d="M491 1162v-1202q-1 -206 -118 -317.5t-327 -111.5q-90 0 -171 18v274q63 -10 102 -10q151 0 151 149v1200h363zM101 1462q0 77 56 126.5t145 49.5t145 -49.5t56 -126.5t-56 -126.5t-145 -49.5t-145 49.5t-56 126.5z" />
    <glyph glyph-name="k" unicode="k" horiz-adv-x="1203" 
d="M568 433l-102 -102v-331h-362v1651h362v-876l37 48l273 339h434l-408 -478l434 -684h-414z" />
    <glyph glyph-name="l" unicode="l" horiz-adv-x="605" 
d="M483 0h-363v1650h363v-1650z" />
    <glyph glyph-name="m" unicode="m" horiz-adv-x="1895" 
d="M444 1162l11 -136q124 158 332 158q221 0 298 -175q118 175 342 175q353 0 363 -428v-756h-363v734q0 89 -30.5 129.5t-109.5 40.5q-108 0 -160 -95l1 -15v-794h-363v732q0 91 -29 131.5t-111 40.5q-104 0 -159 -95v-809h-362v1162h340z" />
    <glyph glyph-name="n" unicode="n" horiz-adv-x="1241" 
d="M434 1162l12 -136q120 158 332 158q181 0 271 -108.5t93 -326.5v-749h-363v734q0 88 -35.5 129t-129.5 41q-106 0 -157 -83v-821h-362v1162h339z" />
    <glyph glyph-name="o" unicode="o" horiz-adv-x="1235" 
d="M56 592q0 174 67.5 310t194.5 209t298 73q261 0 411 -162t150 -440v-13q0 -271 -151 -430.5t-408 -159.5q-248 0 -398.5 148.5t-162.5 403.5zM418 569q0 -161 50.5 -236t149.5 -75q193 0 197 297v37q0 312 -199 312q-182 0 -197 -269z" />
    <glyph glyph-name="p" unicode="p" horiz-adv-x="1239" 
d="M1181 573q0 -271 -122 -432.5t-330 -161.5q-160 0 -263 117v-543h-362v1609h339l10 -107q105 129 274 129q215 0 334.5 -158.5t119.5 -435.5v-17zM819 595q0 309 -181 309q-129 0 -172 -92v-458q47 -96 174 -96q173 0 179 298v39z" />
    <glyph glyph-name="q" unicode="q" horiz-adv-x="1236" 
d="M56 593q0 277 120 434t332 157q178 0 286 -146l26 124h313v-1609h-363v544q-104 -118 -264 -118q-206 0 -328 159.5t-122 454.5zM418 570q0 -312 180 -312q125 0 172 94v460q-45 92 -170 92q-168 0 -181 -269z" />
    <glyph glyph-name="r" unicode="r" horiz-adv-x="834" 
d="M805 835l-120 8q-170 0 -219 -107v-736h-362v1162h340l11 -149q92 171 255 171q58 0 101 -13z" />
    <glyph glyph-name="s" unicode="s" horiz-adv-x="1127" 
d="M710 327q0 46 -48.5 74t-183.5 58t-223 79t-134.5 118.5t-46.5 159.5q0 160 132 264t346 104q230 0 369.5 -104.5t139.5 -273.5h-363q0 139 -147 139q-57 0 -95.5 -31.5t-38.5 -78.5q0 -49 47 -79t151 -49t182 -46q262 -91 262 -324q0 -159 -141 -258.5t-366 -99.5
q-149 0 -266 53.5t-182.5 146t-65.5 194.5h338q2 -81 53.5 -118t132.5 -37q74 0 111 30t37 79z" />
    <glyph glyph-name="t" unicode="t" horiz-adv-x="755" 
d="M523 1451v-289h191v-251h-191v-532q0 -65 23.5 -91t93.5 -26q54 0 90 7v-259q-97 -31 -204 -31q-187 0 -276 88t-89 267v577h-148v251h148v289h362z" />
    <glyph glyph-name="u" unicode="u" horiz-adv-x="1241" 
d="M794 126q-115 -147 -311 -147q-191 0 -289 111t-98 319v753h362v-755q0 -149 145 -149q124 0 177 89v815h364v-1162h-339z" />
    <glyph glyph-name="v" unicode="v" horiz-adv-x="1137" 
d="M565 431l184 731h381l-379 -1162h-370l-379 1162h383z" />
    <glyph glyph-name="w" unicode="w" horiz-adv-x="1597" 
d="M1105 477l117 685h347l-273 -1162h-307l-192 690l-193 -690h-306l-274 1162h347l115 -701l184 701h253z" />
    <glyph glyph-name="x" unicode="x" horiz-adv-x="1132" 
d="M573 842l168 320h376l-306 -566l321 -596h-378l-183 344l-179 -344h-380l322 596l-305 566h380z" />
    <glyph glyph-name="y" unicode="y" horiz-adv-x="1140" 
d="M566 507l193 655h388l-473 -1356l-21 -50q-101 -225 -357 -225q-70 0 -149 21v259h47q77 0 117 22t60 79l29 77l-404 1173h386z" />
    <glyph glyph-name="z" unicode="z" horiz-adv-x="1132" 
d="M529 279h529v-279h-987v202l516 681h-494v279h953v-195z" />
    <glyph glyph-name="braceleft" unicode="{" horiz-adv-x="714" 
d="M604 -387q-387 109 -387 500v212q0 217 -174 217v244q174 0 174 218v226q3 193 100.5 312.5t286.5 173.5l67 -190q-135 -51 -140 -288v-234q0 -240 -199 -339q199 -99 199 -341v-232q5 -237 140 -289z" />
    <glyph glyph-name="bar" unicode="|" horiz-adv-x="562" 
d="M382 -290h-197v1854h197v-1854z" />
    <glyph glyph-name="braceright" unicode="}" horiz-adv-x="714" 
d="M44 -197q135 52 141 289v233q0 242 200 340q-200 98 -200 339v234q-6 237 -141 288l68 190q192 -54 288.5 -176t97.5 -320v-216q0 -218 174 -218v-244q-174 0 -174 -215v-229q-7 -378 -386 -485z" />
    <glyph glyph-name="asciitilde" unicode="~" horiz-adv-x="1391" 
d="M1286 858q0 -210 -98.5 -337t-260.5 -127q-81 0 -145.5 31.5t-147 112.5t-152.5 81q-53 0 -89 -53t-36 -131l-256 4q0 211 96 335t261 124q81 0 149 -31.5t148 -111.5t147 -80q55 0 90 53t35 131z" />
    <glyph glyph-name="exclamdown" unicode="&#xa1;" horiz-adv-x="661" 
d="M184 669h293l46 -1069h-385zM534 1002q0 -79 -57.5 -130t-143.5 -51t-143.5 51t-57.5 131q0 79 57.5 130t143.5 51t143.5 -51t57.5 -131z" />
    <glyph glyph-name="cent" unicode="&#xa2;" horiz-adv-x="1299" 
d="M642 258q77 0 119 42q40 40 40 111v4h340q0 -168 -104.5 -282.5t-273.5 -144.5v-251h-215v249q-207 30 -325 184t-118 404v19q0 241 117 397t326 186v240h215v-242q177 -31 277.5 -152t100.5 -304h-340q0 90 -44 138t-118 48q-141 0 -164 -179q-8 -57 -8 -157
q0 -175 42 -242.5t133 -67.5z" />
    <glyph glyph-name="sterling" unicode="&#xa3;" horiz-adv-x="1320" 
d="M667 603l5 -121q0 -122 -63 -192h653v-290h-1148v290h111q61 16 64 111l1 57l-5 145h-174v280h165l-6 233q0 220 131.5 344t355.5 124q241 0 376 -123.5t135 -334.5h-355q0 168 -146 168q-55 0 -88 -43.5t-33 -134.5l9 -233h330v-280h-318z" />
    <glyph glyph-name="currency" unicode="&#xa4;" horiz-adv-x="1501" 
d="M1140 115q-171 -136 -388 -136q-218 0 -388 135l-138 -142l-152 155l145 147q-107 168 -107 379q0 219 117 392l-155 158l152 155l152 -156q167 124 374 124q208 0 375 -126l155 159l152 -156l-159 -162q115 -171 115 -388q0 -207 -105 -375l149 -151l-152 -156zM312 653
q0 -127 58 -235t160 -170t222 -62q119 0 221 62t160 170t58 235q0 128 -58.5 236t-160 169t-220.5 61q-120 0 -221.5 -61t-160 -169t-58.5 -236z" />
    <glyph glyph-name="yen" unicode="&#xa5;" horiz-adv-x="1352" 
d="M680 945l253 619h408l-388 -767h218v-204h-308v-107h308v-203h-308v-283h-375v283h-343v203h343v107h-343v204h261l-389 767h408z" />
    <glyph glyph-name="brokenbar" unicode="&#xa6;" horiz-adv-x="563" 
d="M128 -290v854h314v-854h-314zM442 750h-314v814h314v-814z" />
    <glyph glyph-name="section" unicode="&#xa7;" horiz-adv-x="1398" 
d="M1285 537q0 -190 -167 -288q149 -110 149 -315q0 -190 -152 -296.5t-419 -106.5q-288 0 -441.5 114.5t-153.5 327.5h363q0 -80 54.5 -121t177.5 -41q207 0 207 122q0 63 -61.5 101.5t-254 92t-290 112.5t-147 139t-49.5 189q0 189 169 290q-152 114 -152 314
q0 187 156 301t418 114q268 0 419.5 -120.5t151.5 -336.5h-362q0 81 -55 129t-154 48q-102 0 -156 -35.5t-54 -97.5q0 -71 60.5 -107.5t217 -76.5t249 -80t153 -92.5t92 -121t31.5 -158.5zM641 700q-66 18 -125 39q-53 -43 -53 -129q0 -73 48 -111t230 -95l127 -37
q60 48 60 129q0 67 -59 109.5t-228 94.5z" />
    <glyph glyph-name="dieresis" unicode="&#xa8;" horiz-adv-x="1088" 
d="M262 1609q68 0 114.5 -42t46.5 -101t-46.5 -101t-114.5 -42q-69 0 -115.5 42t-46.5 101t46.5 101t115.5 42zM820 1609q67 0 114 -42t47 -101t-47 -101t-114 -42q-69 0 -116 42t-47 101t47 101t116 42z" />
    <glyph glyph-name="copyright" unicode="&#xa9;" horiz-adv-x="1727" 
d="M1199 640q0 -163 -94 -250t-266 -87t-273.5 114.5t-101.5 307.5v121q0 187 102.5 301.5t272.5 114.5q175 0 268 -88.5t93 -248.5h-168q0 103 -49.5 147.5t-143.5 44.5q-99 0 -153 -72.5t-55 -193.5v-132q0 -126 54.5 -198.5t153.5 -72.5q96 0 144 43.5t48 148.5h168z
M222 783q0 -177 80 -330.5t227.5 -246.5t324.5 -93q176 0 322.5 92.5t227.5 246t81 331.5t-81 331.5t-228 245t-322 91.5q-171 0 -317.5 -88t-230.5 -242.5t-84 -337.5zM91 783q0 217 100.5 403t278.5 293t384 107t384 -107t278.5 -293t100.5 -403q0 -219 -102 -405.5
t-279 -292.5t-382 -106q-207 0 -384 107t-278 293t-101 404z" />
    <glyph glyph-name="ordfeminine" unicode="&#xaa;" horiz-adv-x="971" 
d="M645 757q-11 29 -19 73q-82 -88 -216 -88q-126 0 -196.5 66t-70.5 179q0 118 90 183t276 65h110v55q0 137 -125 137q-70 0 -109 -27.5t-39 -79.5l-186 15q0 112 94 181.5t240 69.5q145 0 229 -77.5t84 -220.5v-339q0 -105 28 -192h-190zM457 897q43 0 88 20t74 47v146
h-114q-82 -1 -128 -33.5t-46 -84.5q0 -95 126 -95z" />
    <glyph glyph-name="guillemotleft" unicode="&#xab;" horiz-adv-x="1022" 
d="M921 173l-165 -138q-4 3 -31.5 42t-62.5 107.5t-61.5 161t-26.5 201.5q0 110 26.5 202.5t61.5 161.5t62.5 108t31.5 43l165 -137h1q-2 -1 -22 -30t-45.5 -80t-46 -119.5t-20.5 -148.5q0 -79 20.5 -147t46 -119t45.5 -79q18 -26 21 -29zM595 1038q-2 -2 -28 -39
t-59.5 -103.5t-60 -156t-26.5 -193.5t26.5 -192.5t60 -154t59 -102t27.5 -38.5l-165 -138q-5 5 -38.5 52.5t-76 131t-75 196t-32.5 245.5q0 134 32.5 247.5t75 197.5t76 132t38.5 52z" />
    <glyph glyph-name="logicalnot" unicode="&#xac;" horiz-adv-x="1207" 
d="M1031 402h-215v279h-682v184h897v-463z" />
    <glyph glyph-name="uni00AD" unicode="&#xad;" horiz-adv-x="989" 
d="M809 534h-646v280h646v-280z" />
    <glyph glyph-name="registered" unicode="&#xae;" horiz-adv-x="1727" 
d="M91 783q0 217 100.5 403t278.5 293t384 107t384 -107t278.5 -293t100.5 -403q0 -219 -102 -405.5t-279 -292.5t-382 -106q-207 0 -384 107t-278 293t-101 404zM222 783q0 -177 80 -330.5t227.5 -246.5t324.5 -93q176 0 322.5 92.5t227.5 246t81 331.5t-81 331.5t-228 245
t-322 91.5q-171 0 -317.5 -88t-230.5 -242.5t-84 -337.5zM699 701v-362h-162v914h302q165 0 257 -75.5t92 -208.5q0 -118 -115 -183q62 -34 87 -94t25 -149t3.5 -125.5t14.5 -60.5v-18h-166q-14 37 -14 209q0 81 -35.5 117t-118.5 36h-170zM699 845h138q81 0 135.5 34
t54.5 91q0 75 -38 107t-138 33h-152v-265z" />
    <glyph glyph-name="macron" unicode="&#xaf;" horiz-adv-x="1144" 
d="M961 1380h-788v186h788v-186z" />
    <glyph glyph-name="degree" unicode="&#xb0;" horiz-adv-x="873" 
d="M134 1284q0 125 90 213.5t212 88.5q120 0 208 -88.5t88 -213.5t-86.5 -211.5t-209.5 -86.5q-124 0 -213 86.5t-89 211.5zM436 1150q57 0 93.5 39t36.5 95t-36.5 96.5t-93.5 40.5t-96 -40t-39 -97t40 -95.5t95 -38.5z" />
    <glyph glyph-name="plusminus" unicode="&#xb1;" horiz-adv-x="1184" 
d="M739 1046h335v-291h-335v-374h-316v374h-333v291h333v343h316v-343zM1052 1h-944v284h944v-284z" />
    <glyph glyph-name="uni00B2" unicode="&#xb2;" horiz-adv-x="825" 
d="M749 717h-675v157l307 272q54 47 80.5 93t26.5 67q0 82 -92 82q-46 0 -73 -32.5t-27 -78.5h-241q0 127 91.5 213.5t238.5 86.5q165 0 254 -70t89 -201q0 -80 -45.5 -147.5t-201.5 -180.5l-87 -74h355v-187z" />
    <glyph glyph-name="uni00B3" unicode="&#xb3;" horiz-adv-x="825" 
d="M298 1225h94q109 0 109 88q0 34 -27.5 54t-76.5 20q-37 0 -66 -14t-29 -41h-241q0 110 91.5 177t237.5 67q165 0 258 -66t93 -178q0 -129 -148 -182q165 -44 165 -196q0 -112 -101 -181t-267 -69q-156 0 -251 74t-95 196h244q0 -31 31.5 -56t87.5 -25q60 0 84.5 26.5
t24.5 60.5q0 91 -117 92h-101v153z" />
    <glyph glyph-name="acute" unicode="&#xb4;" horiz-adv-x="742" 
d="M308 1650h383l-299 -337h-295z" />
    <glyph glyph-name="mu" unicode="&#xb5;" horiz-adv-x="1410" 
d="M505 1162v-679q1 -115 39 -168.5t136 -53.5q137 0 194 98v803h362v-1162h-340l-5 57q-96 -80 -226 -80q-91 0 -160 37v-461h-363v1609h363z" />
    <glyph glyph-name="paragraph" unicode="&#xb6;" horiz-adv-x="1075" 
d="M706 0v559h-86q-247 0 -389.5 136t-142.5 366q0 229 143 366t390 137h331v-1564h-246z" />
    <glyph glyph-name="periodcentered" unicode="&#xb7;" horiz-adv-x="706" 
d="M348 917q87 0 143.5 -51.5t56.5 -129.5q0 -79 -56.5 -130.5t-143.5 -51.5q-86 0 -143 51t-57 131q0 79 57 130t143 51z" />
    <glyph glyph-name="cedilla" unicode="&#xb8;" horiz-adv-x="611" 
d="M401 11l-11 -66q161 -30 161 -186q0 -124 -106.5 -195t-295.5 -71l-7 200q94 0 94 82q0 41 -33.5 57.5t-110.5 21.5l34 157h275z" />
    <glyph glyph-name="uni00B9" unicode="&#xb9;" horiz-adv-x="825" 
d="M582 717h-239v572l-189 -39v180l408 131h20v-844z" />
    <glyph glyph-name="ordmasculine" unicode="&#xba;" horiz-adv-x="1008" 
d="M126 1204q0 172 102.5 277t269.5 105q166 0 269 -104.5t103 -282.5v-78q0 -170 -101 -275t-269 -105q-170 0 -272 105.5t-102 280.5v77zM314 1121q0 -105 50 -164t136 -59q83 0 132 58t50 162v86q0 104 -50 163.5t-135 59.5q-83 0 -133 -59t-50 -168v-79z" />
    <glyph glyph-name="guillemotright" unicode="&#xbb;" horiz-adv-x="1022" 
d="M101 173q3 3 21 29q20 28 45.5 79t46 119t20.5 147q0 80 -20.5 148.5t-46 119.5t-45.5 80t-22 30h1l165 137q4 -4 31.5 -43t62.5 -108t61.5 -161.5t26.5 -202.5q0 -109 -26.5 -201.5t-61.5 -161t-62.5 -107.5t-31.5 -42zM427 1038l166 137q5 -4 38.5 -52t76 -132
t75 -197.5t32.5 -247.5q0 -133 -32.5 -245.5t-75 -196t-76 -131t-38.5 -52.5l-165 138q2 2 27.5 38.5t59 102t60 154t26.5 192.5t-26.5 193.5t-60 156t-59.5 103.5t-28 39z" />
    <glyph glyph-name="onequarter" unicode="&#xbc;" horiz-adv-x="1560" 
d="M550 713h-240v573l-189 -39v180l409 131h20v-845zM496 126l-168 85l763 1222l169 -85zM1384 360h84v-191h-84v-169h-242v169h-358l-16 155l374 524h242v-488zM994 360h148v205l-17 -25z" />
    <glyph glyph-name="onehalf" unicode="&#xbd;" horiz-adv-x="1651" 
d="M453 126l-168 85l763 1222l169 -85zM524 722h-239v572l-189 -38v179l408 131h20v-844zM1579 0h-675v158l308 272q53 47 79.5 92.5t26.5 67.5q0 81 -91 81q-46 0 -73 -32t-27 -78h-242q0 127 92 213t238 86q165 0 254.5 -69.5t89.5 -200.5q0 -81 -46 -148t-201 -181
l-87 -73h354v-188z" />
    <glyph glyph-name="threequarters" unicode="&#xbe;" horiz-adv-x="1814" 
d="M692 126l-169 85l764 1222l169 -85zM1596 360h85v-191h-85v-169h-241v169h-358l-16 155l374 524h241v-488zM1206 360h149v205l-18 -25zM345 1226h94q109 0 109 88q0 34 -27.5 54t-75.5 20q-38 0 -67 -14t-29 -41h-241q0 110 91.5 177t237.5 67q166 0 258.5 -66t92.5 -178
q0 -129 -148 -181q166 -44 166 -197q0 -112 -101 -181t-268 -69q-156 0 -251 74t-95 196h244q0 -31 32 -56t87 -25q61 0 85 26.5t24 60.5q0 91 -117 92h-101v153z" />
    <glyph glyph-name="questiondown" unicode="&#xbf;" horiz-adv-x="1120" 
d="M755 677q0 -161 -32.5 -247.5t-110.5 -152.5l-71 -65q-99 -97 -99 -200q0 -76 35.5 -111t92.5 -35q72 0 112.5 45.5t42.5 129.5h364q-4 -216 -136.5 -335.5t-373.5 -119.5q-240 0 -370.5 111.5t-130.5 314.5q0 89 41 168t140 171l91 84q83 71 93 164l5 78h307zM611 822
q-86 0 -143.5 51t-57.5 131q0 79 57.5 130t143.5 51q88 0 144.5 -52t56.5 -129q0 -78 -56.5 -130t-144.5 -52z" />
    <glyph glyph-name="Agrave" unicode="&#xc0;" horiz-adv-x="1499" 
d="M1007 292h-517l-90 -292h-403l573 1564h355l578 -1564h-405zM580 583h336l-168 543zM924 1646h-295l-302 337h382z" />
    <glyph glyph-name="Aacute" unicode="&#xc1;" horiz-adv-x="1499" 
d="M1007 292h-517l-90 -292h-403l573 1564h355l578 -1564h-405zM580 583h336l-168 543zM797 1983h382l-298 -337h-296z" />
    <glyph glyph-name="Acircumflex" unicode="&#xc2;" horiz-adv-x="1499" 
d="M1007 292h-517l-90 -292h-403l573 1564h355l578 -1564h-405zM580 583h336l-168 543zM1207 1681v-14h-285l-171 146l-171 -146h-279v18l347 298h207z" />
    <glyph glyph-name="Atilde" unicode="&#xc3;" horiz-adv-x="1499" 
d="M1007 292h-517l-90 -292h-403l573 1564h355l578 -1564h-405zM580 583h336l-168 543zM1166 1973q0 -122 -71.5 -207.5t-177.5 -85.5q-71 0 -158 45t-140 45q-35 0 -59 -23.5t-24 -72.5l-201 10q0 120 71.5 207t175.5 87q54 0 141 -39.5t110 -45t49 -5.5q34 0 59 24t25 73z
" />
    <glyph glyph-name="Adieresis" unicode="&#xc4;" horiz-adv-x="1499" 
d="M1007 292h-517l-90 -292h-403l573 1564h355l578 -1564h-405zM580 583h336l-168 543zM468 1942q68 0 114.5 -42t46.5 -101t-46.5 -101t-114.5 -42t-115 42t-47 101t47 101t115 42zM1026 1942q68 0 114.5 -42t46.5 -101t-46.5 -101t-114.5 -42q-69 0 -115.5 42t-46.5 101
t46.5 101t115.5 42z" />
    <glyph glyph-name="Aring" unicode="&#xc5;" horiz-adv-x="1499" 
d="M1007 292h-517l-90 -292h-403l573 1564h355l578 -1564h-405zM580 583h336l-168 543zM512 1857q0 93 70.5 155.5t171.5 62.5q100 0 170.5 -62.5t70.5 -155.5q0 -91 -69.5 -152t-171.5 -61q-103 0 -172.5 61t-69.5 152zM754 1746q52 0 81.5 32t29.5 80q0 47 -29.5 80
t-81.5 33q-53 0 -82.5 -33t-29.5 -80q0 -48 29.5 -80t82.5 -32z" />
    <glyph glyph-name="AE" unicode="&#xc6;" horiz-adv-x="2069" 
d="M1988 0h-963l-15 353h-411l-163 -353h-419l790 1564h1116v-284h-590l14 -339h489v-284h-477l16 -373h613v-284zM734 643h264l-23 523z" />
    <glyph glyph-name="Ccedilla" unicode="&#xc7;" horiz-adv-x="1444" 
d="M1384 530q-8 -164 -88.5 -289t-226 -193.5t-332.5 -68.5q-308 0 -485.5 200.5t-177.5 567.5v77q0 230 80 402.5t230.5 266.5t348.5 94q284 0 457 -150t197 -413h-376q-4 143 -72 205t-206 62q-141 0 -206.5 -105t-68.5 -336v-111q0 -250 62.5 -357.5t216.5 -107.5
q130 0 198.5 61t73.5 195h375zM879 11l-11 -66q161 -30 161 -186q0 -124 -106.5 -195t-295.5 -71l-7 200q94 0 94 82q0 41 -33.5 57.5t-110.5 21.5l34 157h275z" />
    <glyph glyph-name="Egrave" unicode="&#xc8;" horiz-adv-x="1231" 
d="M1088 663h-593v-373h701v-290h-1078v1564h1080v-291h-703v-330h593v-280zM864 1646h-295l-303 337h383z" />
    <glyph glyph-name="Eacute" unicode="&#xc9;" horiz-adv-x="1231" 
d="M1088 663h-593v-373h701v-290h-1078v1564h1080v-291h-703v-330h593v-280zM737 1983h382l-298 -337h-296z" />
    <glyph glyph-name="Ecircumflex" unicode="&#xca;" horiz-adv-x="1231" 
d="M1088 663h-593v-373h701v-290h-1078v1564h1080v-291h-703v-330h593v-280zM1147 1681v-14h-285l-171 146l-171 -146h-279v18l347 298h207z" />
    <glyph glyph-name="Edieresis" unicode="&#xcb;" horiz-adv-x="1231" 
d="M1088 663h-593v-373h701v-290h-1078v1564h1080v-291h-703v-330h593v-280zM408 1942q68 0 114.5 -42t46.5 -101t-46.5 -101t-114.5 -42q-69 0 -115.5 42t-46.5 101t46.5 101t115.5 42zM966 1942q67 0 114 -42t47 -101t-47 -101t-114 -42q-69 0 -115.5 42t-46.5 101
t46.5 101t115.5 42z" />
    <glyph glyph-name="Igrave" unicode="&#xcc;" horiz-adv-x="664" 
d="M520 0h-376v1564h376v-1564zM505 1646h-294l-303 337h382z" />
    <glyph glyph-name="Iacute" unicode="&#xcd;" horiz-adv-x="664" 
d="M520 0h-376v1564h376v-1564zM377 1983h382l-298 -337h-296z" />
    <glyph glyph-name="Icircumflex" unicode="&#xce;" horiz-adv-x="664" 
d="M520 0h-376v1564h376v-1564zM788 1681v-14h-285l-171 146l-171 -146h-279v18l347 298h207z" />
    <glyph glyph-name="Idieresis" unicode="&#xcf;" horiz-adv-x="664" 
d="M520 0h-376v1564h376v-1564zM49 1942q68 0 115 -42t47 -101t-47 -101t-115 -42t-115 42t-47 101t47 101t115 42zM607 1942q68 0 114.5 -42t46.5 -101t-46.5 -101t-114.5 -42q-69 0 -115.5 42t-46.5 101t46.5 101t115.5 42z" />
    <glyph glyph-name="Eth" unicode="&#xd0;" horiz-adv-x="1454" 
d="M150 0v682h-182v205h182v677h504q208 0 373 -94t258 -265.5t94 -383.5v-72q0 -215 -90.5 -385.5t-255.5 -266.5t-368 -97h-515zM752 682h-225v-392h131q163 0 250 115.5t87 343.5v67q0 227 -87 342t-254 115h-127v-386h225v-205z" />
    <glyph glyph-name="Ntilde" unicode="&#xd1;" horiz-adv-x="1545" 
d="M1424 0h-374l-555 973v-973h-377v1564h377l553 -973v973h376v-1564zM1195 1973q0 -122 -71.5 -207.5t-177.5 -85.5q-71 0 -158 45t-140 45q-35 0 -59 -23.5t-24 -72.5l-201 10q0 120 71.5 207t175.5 87q54 0 141 -39.5t110 -45t49 -5.5q34 0 59 24t25 73z" />
    <glyph glyph-name="Ograve" unicode="&#xd2;" horiz-adv-x="1519" 
d="M1443 750q0 -229 -85 -405t-241.5 -271t-355.5 -95q-200 0 -355 91.5t-241.5 262.5t-90.5 392v88q0 230 84.5 405.5t242 271.5t357.5 96q199 0 355 -95t242.5 -269.5t87.5 -399.5v-72zM1059 815q0 233 -78 354t-223 121q-283 0 -299 -425l-1 -115q0 -230 76 -353.5
t227 -123.5q142 0 219.5 121.5t78.5 348.5v72zM929 1646h-294l-303 337h382z" />
    <glyph glyph-name="Oacute" unicode="&#xd3;" horiz-adv-x="1519" 
d="M1443 750q0 -229 -85 -405t-241.5 -271t-355.5 -95q-200 0 -355 91.5t-241.5 262.5t-90.5 392v88q0 230 84.5 405.5t242 271.5t357.5 96q199 0 355 -95t242.5 -269.5t87.5 -399.5v-72zM1059 815q0 233 -78 354t-223 121q-283 0 -299 -425l-1 -115q0 -230 76 -353.5
t227 -123.5q142 0 219.5 121.5t78.5 348.5v72zM802 1983h383l-299 -337h-295z" />
    <glyph glyph-name="Ocircumflex" unicode="&#xd4;" horiz-adv-x="1519" 
d="M1443 750q0 -229 -85 -405t-241.5 -271t-355.5 -95q-200 0 -355 91.5t-241.5 262.5t-90.5 392v88q0 230 84.5 405.5t242 271.5t357.5 96q199 0 355 -95t242.5 -269.5t87.5 -399.5v-72zM1059 815q0 233 -78 354t-223 121q-283 0 -299 -425l-1 -115q0 -230 76 -353.5
t227 -123.5q142 0 219.5 121.5t78.5 348.5v72zM1213 1681v-14h-286l-171 146l-171 -146h-279v18l347 298h207z" />
    <glyph glyph-name="Otilde" unicode="&#xd5;" horiz-adv-x="1519" 
d="M1443 750q0 -229 -85 -405t-241.5 -271t-355.5 -95q-200 0 -355 91.5t-241.5 262.5t-90.5 392v88q0 230 84.5 405.5t242 271.5t357.5 96q199 0 355 -95t242.5 -269.5t87.5 -399.5v-72zM1059 815q0 233 -78 354t-223 121q-283 0 -299 -425l-1 -115q0 -230 76 -353.5
t227 -123.5q142 0 219.5 121.5t78.5 348.5v72zM1171 1973q0 -122 -71.5 -207.5t-176.5 -85.5q-71 0 -158 45t-141 45q-34 0 -58.5 -23.5t-24.5 -72.5l-200 10q0 120 71 207t176 87q53 0 140 -39.5t110.5 -45t48.5 -5.5q35 0 59.5 24t24.5 73z" />
    <glyph glyph-name="Odieresis" unicode="&#xd6;" horiz-adv-x="1519" 
d="M1443 750q0 -229 -85 -405t-241.5 -271t-355.5 -95q-200 0 -355 91.5t-241.5 262.5t-90.5 392v88q0 230 84.5 405.5t242 271.5t357.5 96q199 0 355 -95t242.5 -269.5t87.5 -399.5v-72zM1059 815q0 233 -78 354t-223 121q-283 0 -299 -425l-1 -115q0 -230 76 -353.5
t227 -123.5q142 0 219.5 121.5t78.5 348.5v72zM474 1942q67 0 114 -42t47 -101t-47 -101t-114 -42q-69 0 -115.5 42t-46.5 101t46.5 101t115.5 42zM1031 1942q68 0 114.5 -42t46.5 -101t-46.5 -101t-114.5 -42t-115 42t-47 101t47 101t115 42z" />
    <glyph glyph-name="multiply" unicode="&#xd7;" horiz-adv-x="1163" 
d="M57 409l321 328l-321 329l207 196l315 -321l315 321l207 -196l-322 -329l322 -328l-207 -196l-315 320l-315 -320z" />
    <glyph glyph-name="Oslash" unicode="&#xd8;" horiz-adv-x="1514" 
d="M1454 750q0 -229 -84.5 -405t-241 -271t-356.5 -95q-174 0 -313 69l-87 -150h-223l152 263q-214 214 -214 597v55q0 231 84.5 406t240.5 271t358 96q169 0 309 -69l65 114h223l-129 -227q216 -215 216 -599v-55zM1071 815q0 143 -31 246l-426 -740q65 -48 158 -48
q144 0 221 121.5t78 348.5v72zM469 750q0 -143 29 -244l424 738q-65 46 -152 46q-149 0 -224 -119t-77 -349v-72z" />
    <glyph glyph-name="Ugrave" unicode="&#xd9;" horiz-adv-x="1462" 
d="M1345 1564v-1024q0 -174 -74 -301t-212.5 -193.5t-328.5 -66.5q-285 0 -449.5 148t-167.5 406v1031h379v-1039q6 -256 238 -256q118 0 178 64t60 209v1022h377zM897 1646h-294l-303 337h382z" />
    <glyph glyph-name="Uacute" unicode="&#xda;" horiz-adv-x="1462" 
d="M1345 1564v-1024q0 -174 -74 -301t-212.5 -193.5t-328.5 -66.5q-285 0 -449.5 148t-167.5 406v1031h379v-1039q6 -256 238 -256q118 0 178 64t60 209v1022h377zM770 1983h383l-299 -337h-295z" />
    <glyph glyph-name="Ucircumflex" unicode="&#xdb;" horiz-adv-x="1462" 
d="M1345 1564v-1024q0 -174 -74 -301t-212.5 -193.5t-328.5 -66.5q-285 0 -449.5 148t-167.5 406v1031h379v-1039q6 -256 238 -256q118 0 178 64t60 209v1022h377zM1181 1681v-14h-286l-171 146l-171 -146h-279v18l347 298h207z" />
    <glyph glyph-name="Udieresis" unicode="&#xdc;" horiz-adv-x="1462" 
d="M1345 1564v-1024q0 -174 -74 -301t-212.5 -193.5t-328.5 -66.5q-285 0 -449.5 148t-167.5 406v1031h379v-1039q6 -256 238 -256q118 0 178 64t60 209v1022h377zM442 1942q67 0 114 -42t47 -101t-47 -101t-114 -42q-69 0 -116 42t-47 101t47 101t116 42zM999 1942
q68 0 114.5 -42t46.5 -101t-46.5 -101t-114.5 -42q-69 0 -115.5 42t-46.5 101t46.5 101t115.5 42z" />
    <glyph glyph-name="Yacute" unicode="&#xdd;" horiz-adv-x="1381" 
d="M691 885l288 679h407l-504 -1002v-562h-382v562l-503 1002h405zM737 1983h382l-298 -337h-296z" />
    <glyph glyph-name="Thorn" unicode="&#xde;" horiz-adv-x="1360" 
d="M489 1564v-277h220q184 -1 318.5 -62.5t205.5 -173t71 -258.5q0 -225 -159.5 -358.5t-435.5 -135.5h-220v-299h-364v1564h364zM489 1008v-430h212q111 0 175 56t64 157q0 102 -63.5 159.5t-172.5 57.5h-215z" />
    <glyph glyph-name="germandbls" unicode="&#xdf;" horiz-adv-x="1429" 
d="M507 0h-363v1181q0 237 143.5 366.5t408.5 129.5q211 0 343 -112t132 -296q0 -115 -51 -197t-51 -175q0 -33 26 -68.5t117 -123.5q153 -150 153 -310q0 -201 -133.5 -308.5t-378.5 -107.5q-81 0 -162 14.5t-126 39.5l63 272q92 -47 227 -47q65 0 107 35t42 99
q0 44 -26.5 82.5t-112.5 113t-122 142.5t-36 148q0 110 50.5 200.5t50.5 175.5q0 63 -43 104t-109 41q-79 0 -114 -56t-35 -168v-1175z" />
    <glyph glyph-name="agrave" unicode="&#xe0;" horiz-adv-x="1168" 
d="M756 0q-19 35 -34 104q-100 -125 -279 -125q-165 0 -280 99t-115 250q0 189 140 285.5t406 96.5h112v61q0 160 -139 160q-129 0 -129 -126h-362q0 168 143.5 273.5t366.5 105.5q222 0 351 -108.5t132 -297.5v-515q2 -160 49 -245v-18h-362zM530 236q67 0 111.5 29
t64.5 66v186h-106q-189 0 -189 -170q0 -49 33.5 -80t85.5 -31zM747 1313h-295l-303 337h383z" />
    <glyph glyph-name="aacute" unicode="&#xe1;" horiz-adv-x="1168" 
d="M756 0q-19 35 -34 104q-100 -125 -279 -125q-165 0 -280 99t-115 250q0 189 140 285.5t406 96.5h112v61q0 160 -139 160q-129 0 -129 -126h-362q0 168 143.5 273.5t366.5 105.5q222 0 351 -108.5t132 -297.5v-515q2 -160 49 -245v-18h-362zM530 236q67 0 111.5 29
t64.5 66v186h-106q-189 0 -189 -170q0 -49 33.5 -80t85.5 -31zM620 1650h382l-298 -337h-296z" />
    <glyph glyph-name="acircumflex" unicode="&#xe2;" horiz-adv-x="1168" 
d="M756 0q-19 35 -34 104q-100 -125 -279 -125q-165 0 -280 99t-115 250q0 189 140 285.5t406 96.5h112v61q0 160 -139 160q-129 0 -129 -126h-362q0 168 143.5 273.5t366.5 105.5q222 0 351 -108.5t132 -297.5v-515q2 -160 49 -245v-18h-362zM530 236q67 0 111.5 29
t64.5 66v186h-106q-189 0 -189 -170q0 -49 33.5 -80t85.5 -31zM1030 1348v-14h-286l-170 146l-171 -146h-279v18l347 298h207z" />
    <glyph glyph-name="atilde" unicode="&#xe3;" horiz-adv-x="1168" 
d="M756 0q-19 35 -34 104q-100 -125 -279 -125q-165 0 -280 99t-115 250q0 189 140 285.5t406 96.5h112v61q0 160 -139 160q-129 0 -129 -126h-362q0 168 143.5 273.5t366.5 105.5q222 0 351 -108.5t132 -297.5v-515q2 -160 49 -245v-18h-362zM530 236q67 0 111.5 29
t64.5 66v186h-106q-189 0 -189 -170q0 -49 33.5 -80t85.5 -31zM988 1641q0 -122 -71.5 -207.5t-176.5 -85.5q-71 0 -158 45t-140 45q-35 0 -59 -23.5t-24 -72.5l-201 10q0 120 71.5 207t175.5 87q54 0 141 -39.5t110 -44.5t49 -5q34 0 58.5 23.5t24.5 72.5z" />
    <glyph glyph-name="adieresis" unicode="&#xe4;" horiz-adv-x="1168" 
d="M756 0q-19 35 -34 104q-100 -125 -279 -125q-165 0 -280 99t-115 250q0 189 140 285.5t406 96.5h112v61q0 160 -139 160q-129 0 -129 -126h-362q0 168 143.5 273.5t366.5 105.5q222 0 351 -108.5t132 -297.5v-515q2 -160 49 -245v-18h-362zM530 236q67 0 111.5 29
t64.5 66v186h-106q-189 0 -189 -170q0 -49 33.5 -80t85.5 -31zM291 1609q68 0 114.5 -42t46.5 -101t-46.5 -101t-114.5 -42q-69 0 -115.5 42t-46.5 101t46.5 101t115.5 42zM849 1609q67 0 114 -42t47 -101t-47 -101t-114 -42q-69 0 -116 42t-47 101t47 101t116 42z" />
    <glyph glyph-name="aring" unicode="&#xe5;" horiz-adv-x="1168" 
d="M756 0q-19 35 -34 104q-100 -125 -279 -125q-165 0 -280 99t-115 250q0 189 140 285.5t406 96.5h112v61q0 160 -139 160q-129 0 -129 -126h-362q0 168 143.5 273.5t366.5 105.5q222 0 351 -108.5t132 -297.5v-515q2 -160 49 -245v-18h-362zM530 236q67 0 111.5 29
t64.5 66v186h-106q-189 0 -189 -170q0 -49 33.5 -80t85.5 -31zM335 1524q0 93 70.5 155.5t171.5 62.5q100 0 170 -62.5t70 -155.5q0 -91 -69 -152t-171 -61q-103 0 -172.5 61t-69.5 152zM577 1413q51 0 81 32t30 80q0 47 -30 80t-81 33q-53 0 -82.5 -33t-29.5 -80
q0 -48 29.5 -80t82.5 -32z" />
    <glyph glyph-name="ae" unicode="&#xe6;" horiz-adv-x="1858" 
d="M1330 -21q-258 0 -408 143q-71 -70 -176.5 -106.5t-225.5 -36.5q-214 0 -334 98t-120 271q0 170 139 262.5t413 93.5h152v49q0 71 -36.5 111t-106.5 40q-77 0 -118 -31.5t-41 -77.5l-362 20q0 163 144 266t382 103q217 0 342 -98q133 98 336 98h8q228 0 360 -143
t132 -387v-187h-686q15 -105 80.5 -157t174.5 -52q136 0 240 43l66 29l87 -222q-72 -55 -195 -92t-247 -37zM589 228q95 0 181 67v189h-149q-84 -1 -138.5 -39.5t-54.5 -100.5q0 -116 161 -116zM1318 904q-88 0 -134.5 -52t-58.5 -158h332v28q0 87 -35.5 134.5t-103.5 47.5z
" />
    <glyph glyph-name="ccedilla" unicode="&#xe7;" horiz-adv-x="1143" 
d="M593 258q76 0 118 42q41 40 41 112v3h339q0 -192 -137 -314t-352 -122q-254 0 -400 158.5t-146 440.5v15q0 176 65 311t187.5 207.5t289.5 72.5q227 0 360 -126t133 -340h-339q0 90 -44 138t-118 48q-141 0 -165 -179q-7 -57 -7 -157q0 -175 42 -242.5t133 -67.5zM750 11
l-11 -66q161 -30 161 -186q0 -124 -106 -195t-296 -71l-7 200q94 0 94 82q0 41 -33.5 57.5t-109.5 21.5l33 157h275z" />
    <glyph glyph-name="egrave" unicode="&#xe8;" horiz-adv-x="1198" 
d="M664 -21q-268 0 -433 159.5t-165 414.5v30q0 179 66 315t192.5 211t300.5 75q245 0 387 -152t142 -424v-141h-720q19 -97 84.5 -153t170.5 -56q171 0 268 120l166 -195q-68 -94 -192 -149t-267 -55zM623 904q-159 0 -189 -210h365v35q0 82 -45 128.5t-131 46.5zM746 1314
h-295l-303 337h383z" />
    <glyph glyph-name="eacute" unicode="&#xe9;" horiz-adv-x="1198" 
d="M664 -21q-268 0 -433 159.5t-165 414.5v30q0 179 66 315t192.5 211t300.5 75q245 0 387 -152t142 -424v-141h-720q19 -97 84.5 -153t170.5 -56q171 0 268 120l166 -195q-68 -94 -192 -149t-267 -55zM623 904q-159 0 -189 -210h365v35q0 82 -45 128.5t-131 46.5zM619 1651
h382l-298 -337h-296z" />
    <glyph glyph-name="ecircumflex" unicode="&#xea;" horiz-adv-x="1198" 
d="M664 -21q-268 0 -433 159.5t-165 414.5v30q0 179 66 315t192.5 211t300.5 75q245 0 387 -152t142 -424v-141h-720q19 -97 84.5 -153t170.5 -56q171 0 268 120l166 -195q-68 -94 -192 -149t-267 -55zM623 904q-159 0 -189 -210h365v35q0 82 -45 128.5t-131 46.5z
M1029 1349v-14h-286l-170 146l-171 -146h-280v19l347 297h208z" />
    <glyph glyph-name="edieresis" unicode="&#xeb;" horiz-adv-x="1198" 
d="M664 -21q-268 0 -433 159.5t-165 414.5v30q0 179 66 315t192.5 211t300.5 75q245 0 387 -152t142 -424v-141h-720q19 -97 84.5 -153t170.5 -56q171 0 268 120l166 -195q-68 -94 -192 -149t-267 -55zM623 904q-159 0 -189 -210h365v35q0 82 -45 128.5t-131 46.5zM290 1610
q68 0 114.5 -42t46.5 -101t-46.5 -100.5t-114.5 -41.5q-69 0 -115.5 41.5t-46.5 100.5t46.5 101t115.5 42zM848 1610q67 0 114 -42t47 -101t-47 -100.5t-114 -41.5q-69 0 -116 41.5t-47 100.5t47 101t116 42z" />
    <glyph glyph-name="igrave" unicode="&#xec;" horiz-adv-x="627" 
d="M496 0h-364v1162h364v-1162zM489 1291h-295l-302 338h382z" />
    <glyph glyph-name="iacute" unicode="&#xed;" horiz-adv-x="627" 
d="M496 0h-364v1162h364v-1162zM361 1629h382l-298 -338h-296z" />
    <glyph glyph-name="icircumflex" unicode="&#xee;" horiz-adv-x="627" 
d="M496 0h-364v1162h364v-1162zM772 1327v-14h-285l-171 146l-171 -146h-279v18l347 298h207z" />
    <glyph glyph-name="idieresis" unicode="&#xef;" horiz-adv-x="627" 
d="M496 0h-364v1162h364v-1162zM33 1588q68 0 114.5 -42t46.5 -101t-46.5 -101t-114.5 -42t-115 42t-47 101t47 101t115 42zM591 1588q67 0 114 -42t47 -101t-47 -101t-114 -42q-69 0 -115.5 42t-46.5 101t46.5 101t115.5 42z" />
    <glyph glyph-name="eth" unicode="&#xf0;" horiz-adv-x="1251" 
d="M926 1405q280 -278 280 -707v-61q0 -190 -75.5 -342t-209 -234t-297.5 -82q-159 0 -287 68t-198 189t-70 267q0 250 129 389.5t358 139.5q137 0 245 -66q-52 149 -167 259l-191 -119l-84 127l146 90q-116 71 -262 111l116 262q253 -51 446 -189l175 109l82 -127zM628 258
q101 0 158 88.5t57 251.5v105q-71 70 -208 70q-105 0 -154 -72.5t-49 -197.5q0 -110 53.5 -177.5t142.5 -67.5z" />
    <glyph glyph-name="ntilde" unicode="&#xf1;" horiz-adv-x="1241" 
d="M434 1162l12 -136q120 158 332 158q181 0 271 -108.5t93 -326.5v-749h-363v734q0 88 -35.5 129t-129.5 41q-106 0 -157 -83v-821h-362v1162h339zM1034 1641q0 -122 -71 -207.5t-177 -85.5q-71 0 -158 45t-140 45q-35 0 -59 -23.5t-24 -72.5l-201 10q0 120 71.5 207
t175.5 87q54 0 141 -39.5t110 -44.5t49 -5q34 0 59 23.5t25 72.5z" />
    <glyph glyph-name="ograve" unicode="&#xf2;" horiz-adv-x="1235" 
d="M56 592q0 174 67.5 310t194.5 209t298 73q261 0 411 -162t150 -440v-13q0 -271 -151 -430.5t-408 -159.5q-248 0 -398.5 148.5t-162.5 403.5zM418 569q0 -161 50.5 -236t149.5 -75q193 0 197 297v37q0 312 -199 312q-182 0 -197 -269zM792 1313h-295l-303 337h383z" />
    <glyph glyph-name="oacute" unicode="&#xf3;" horiz-adv-x="1235" 
d="M56 592q0 174 67.5 310t194.5 209t298 73q261 0 411 -162t150 -440v-13q0 -271 -151 -430.5t-408 -159.5q-248 0 -398.5 148.5t-162.5 403.5zM418 569q0 -161 50.5 -236t149.5 -75q193 0 197 297v37q0 312 -199 312q-182 0 -197 -269zM665 1650h382l-298 -337h-296z" />
    <glyph glyph-name="ocircumflex" unicode="&#xf4;" horiz-adv-x="1235" 
d="M56 592q0 174 67.5 310t194.5 209t298 73q261 0 411 -162t150 -440v-13q0 -271 -151 -430.5t-408 -159.5q-248 0 -398.5 148.5t-162.5 403.5zM418 569q0 -161 50.5 -236t149.5 -75q193 0 197 297v37q0 312 -199 312q-182 0 -197 -269zM1075 1348v-14h-285l-171 146
l-171 -146h-279v18l347 298h207z" />
    <glyph glyph-name="otilde" unicode="&#xf5;" horiz-adv-x="1235" 
d="M56 592q0 174 67.5 310t194.5 209t298 73q261 0 411 -162t150 -440v-13q0 -271 -151 -430.5t-408 -159.5q-248 0 -398.5 148.5t-162.5 403.5zM418 569q0 -161 50.5 -236t149.5 -75q193 0 197 297v37q0 312 -199 312q-182 0 -197 -269zM1033 1641q0 -122 -71 -207.5
t-177 -85.5q-71 0 -158 45t-140 45q-35 0 -59 -23.5t-24 -72.5l-201 10q0 120 71.5 207t175.5 87q54 0 141 -39.5t110 -44.5t49 -5q34 0 59 23.5t25 72.5z" />
    <glyph glyph-name="odieresis" unicode="&#xf6;" horiz-adv-x="1235" 
d="M56 592q0 174 67.5 310t194.5 209t298 73q261 0 411 -162t150 -440v-13q0 -271 -151 -430.5t-408 -159.5q-248 0 -398.5 148.5t-162.5 403.5zM418 569q0 -161 50.5 -236t149.5 -75q193 0 197 297v37q0 312 -199 312q-182 0 -197 -269zM336 1609q68 0 114.5 -42t46.5 -101
t-46.5 -101t-114.5 -42q-69 0 -115.5 42t-46.5 101t46.5 101t115.5 42zM894 1609q67 0 114 -42t47 -101t-47 -101t-114 -42q-69 0 -115.5 42t-46.5 101t46.5 101t115.5 42z" />
    <glyph glyph-name="divide" unicode="&#xf7;" horiz-adv-x="1253" 
d="M1185 605h-1122v262h1122v-262zM423 1167q0 76 55 126t145 50t145 -50t55 -126q0 -77 -55 -127t-145 -50t-145 50t-55 127zM423 298q0 76 55 126t145 50t145 -50t55 -126q0 -77 -55 -127t-145 -50t-145 50t-55 127z" />
    <glyph glyph-name="oslash" unicode="&#xf8;" horiz-adv-x="1236" 
d="M56 592q0 174 67.5 310t194.5 209t298 73q101 0 190 -27l74 152h190l-111 -227q218 -159 218 -513q0 -271 -151 -430.5t-408 -159.5q-100 0 -184 23l-76 -158h-190l111 231q-223 158 -223 517zM418 569q0 -103 19 -168l241 494q-28 9 -62 9q-182 0 -197 -269zM815 592
q0 91 -18 158l-235 -486q23 -6 56 -6q193 0 197 297v37z" />
    <glyph glyph-name="ugrave" unicode="&#xf9;" horiz-adv-x="1241" 
d="M794 126q-115 -147 -311 -147q-191 0 -289 111t-98 319v753h362v-755q0 -149 145 -149q124 0 177 89v815h364v-1162h-339zM792 1313h-295l-303 337h383z" />
    <glyph glyph-name="uacute" unicode="&#xfa;" horiz-adv-x="1241" 
d="M794 126q-115 -147 -311 -147q-191 0 -289 111t-98 319v753h362v-755q0 -149 145 -149q124 0 177 89v815h364v-1162h-339zM665 1650h382l-298 -337h-296z" />
    <glyph glyph-name="ucircumflex" unicode="&#xfb;" horiz-adv-x="1241" 
d="M794 126q-115 -147 -311 -147q-191 0 -289 111t-98 319v753h362v-755q0 -149 145 -149q124 0 177 89v815h364v-1162h-339zM1075 1348v-14h-285l-171 146l-171 -146h-279v18l347 298h207z" />
    <glyph glyph-name="udieresis" unicode="&#xfc;" horiz-adv-x="1241" 
d="M794 126q-115 -147 -311 -147q-191 0 -289 111t-98 319v753h362v-755q0 -149 145 -149q124 0 177 89v815h364v-1162h-339zM336 1609q68 0 114.5 -42t46.5 -101t-46.5 -101t-114.5 -42q-69 0 -115.5 42t-46.5 101t46.5 101t115.5 42zM894 1609q67 0 114 -42t47 -101
t-47 -101t-114 -42q-69 0 -115.5 42t-46.5 101t46.5 101t115.5 42z" />
    <glyph glyph-name="yacute" unicode="&#xfd;" horiz-adv-x="1140" 
d="M566 507l193 655h388l-473 -1356l-21 -50q-101 -225 -357 -225q-70 0 -149 21v259h47q77 0 117 22t60 79l29 77l-404 1173h386zM613 1650h383l-299 -337h-295z" />
    <glyph glyph-name="thorn" unicode="&#xfe;" horiz-adv-x="1233" 
d="M1177 573q0 -270 -120.5 -432t-329.5 -162q-161 0 -262 114v-540h-363v2097h363v-579q101 113 260 113q212 0 332 -156.5t120 -436.5v-18zM815 595q0 309 -180 309q-125 0 -170 -90v-463q46 -93 172 -93q173 0 178 296v41z" />
    <glyph glyph-name="ydieresis" unicode="&#xff;" horiz-adv-x="1140" 
d="M566 507l193 655h388l-473 -1356l-21 -50q-101 -225 -357 -225q-70 0 -149 21v259h47q77 0 117 22t60 79l29 77l-404 1173h386zM285 1609q67 0 114 -42t47 -101t-47 -101t-114 -42q-69 0 -116 42t-47 101t47 101t116 42zM842 1609q68 0 114.5 -42t46.5 -101t-46.5 -101
t-114.5 -42q-69 0 -115.5 42t-46.5 101t46.5 101t115.5 42z" />
    <glyph glyph-name="uni060C" unicode="&#x60c;" horiz-adv-x="530" 
d="M395 526q-11 -8 -29 -23q-23 -20 -43 -41q-57 -61 -72 -113q23 5 44 5q77 0 131 -54t54 -131q0 -76 -59 -131q-58 -54 -135 -54q-91 0 -157 60q-79 72 -79 203q0 127 87 257q69 105 143 150z" />
    <glyph glyph-name="uni060D" unicode="&#x60d;" horiz-adv-x="709" 
d="M734 -16h-141q-45 0 -85 -22.5t-76 -72t-68 -129.5t-61 -194l-266 117q81 309 231 469t323 160h143v-328z" />
    <glyph glyph-name="uni0615" unicode="&#x615;" 
d="M-352 1194v109h104q3 4 5.5 8.5t7 11.5t12 17.5t18.5 26.5v488h107v-343q36 38 79.5 63t95.5 25q34 0 68 -12t61 -37.5t43.5 -66t16.5 -96.5q0 -54 -18 -91t-46 -60t-62.5 -33t-67.5 -10h-424zM77 1491q-26 0 -52 -16.5t-51 -43.5t-48 -60.5t-44 -67.5h190q36 0 62 20
t26 65q0 53 -22.5 78t-60.5 25z" />
    <glyph glyph-name="uni061B" unicode="&#x61b;" horiz-adv-x="530" 
d="M395 1031q-11 -8 -29 -23q-23 -20 -43 -41q-57 -61 -72 -113q23 5 44 5q77 0 131 -54t54 -131q0 -76 -59 -131q-58 -54 -135 -54q-91 0 -157 60q-79 72 -79 203q0 127 87 257q69 105 143 150zM152 299q54 54 130 54q77 0 130 -54q54 -53 54 -130q0 -76 -54 -130
q-53 -54 -130 -54q-76 0 -130 54t-54 130q0 77 54 130z" />
    <glyph glyph-name="uni061F" unicode="&#x61f;" horiz-adv-x="1134" 
d="M714 1527q95 -26 169 -81q191 -141 191 -433h-328q0 216 -188 216q-75 0 -122 -40q-48 -41 -48 -107t36 -105q12 -13 123 -98q150 -116 198 -210q38 -77 38 -213v-155h-328v142q0 38 -21 77q-29 54 -101 115l-46 38q-30 24 -47 39q-55 47 -88 90q-92 116 -92 280
q0 218 150 347q138 120 348 120q78 0 156 -22zM414 -12l208 210l212 -212l-210 -210z" />
    <glyph glyph-name="uni0640" unicode="&#x640;" horiz-adv-x="449" 
d="M433 313q41 0 41 -38v-250q0 -40 -41 -40h-418q-40 0 -40 40v250q0 38 40 38h418z" />
    <glyph glyph-name="uni064B" unicode="&#x64b;" 
d="M-252 1711l504 187v-138l-504 -189v140zM-252 1952l504 187v-137l-504 -189v139z" />
    <glyph glyph-name="uni064C" unicode="&#x64c;" 
d="M-277 1664q4 9 10.5 21t12 26t9.5 29t4 29q0 8 -4 18.5t-7 17.5q-14 17 -35 17q-18 0 -39 -9.5t-35 -20.5l-72 71q3 4 15.5 17t32.5 26t47 23q24 8 53 8h7q37 -2 67.5 -22t48.5 -51q11 -21 16.5 -46.5t5.5 -48.5q0 -13 -1 -25t-3 -24q42 14 88.5 32.5t83.5 41.5
q-35 13 -63.5 33t-49 44t-31.5 51.5t-11 56.5q0 33 16 65q12 25 32 47.5t44 39t51.5 26t54.5 9.5q34 0 63 -14q55 -26 79.5 -75.5t24.5 -105.5q0 -48 -15.5 -97.5t-42.5 -90.5q-22 -32 -58 -59.5t-77.5 -49.5t-85 -38.5t-80 -28t-63 -17.5t-34.5 -7zM71 2050q-10 0 -23 -3.5
t-26 -9.5t-24.5 -15t-18.5 -20q0 -21 13.5 -39t33 -32t42 -24.5t40.5 -17.5q5 19 8 39.5t3 41.5q0 24 -7 44q-5 14 -15.5 25t-25.5 11z" />
    <glyph glyph-name="uni064D" unicode="&#x64d;" 
d="M-252 -681l504 187v-137l-504 -190v140zM-252 -440l504 188v-138l-504 -189v139z" />
    <glyph glyph-name="uni064E" unicode="&#x64e;" 
d="M-252 1711l504 187v-138l-504 -189v140z" />
    <glyph glyph-name="uni064F" unicode="&#x64f;" 
d="M-298 1635q33 10 70.5 22.5t75 27.5t72.5 32.5t63 38.5q-37 12 -67.5 32t-52.5 46t-34.5 55.5t-12.5 61.5q0 33 13 62q12 25 32 48t44.5 40t52.5 27t56 10q36 0 67 -17q57 -31 81 -78.5t24 -103.5q0 -54 -19.5 -110t-53.5 -104q-33 -47 -86.5 -82.5t-109.5 -60.5
t-106 -40.5t-76 -23.5zM-77 1972q-2 -4 -2 -10q0 -8 7 -23t26.5 -34t46.5 -35t57 -20q6 15 10.5 38t4.5 47q0 31 -12.5 56t-45.5 28q-22 0 -50.5 -11.5t-41.5 -35.5z" />
    <glyph glyph-name="uni0650" unicode="&#x650;" 
d="M-252 -440l504 188v-138l-504 -189v139z" />
    <glyph glyph-name="uni0651" unicode="&#x651;" 
d="M-130 1679q-92 0 -144.5 51.5t-52.5 142.5v108h115v-108q0 -42 19.5 -61t62.5 -19q6 0 17.5 2.5t22.5 10.5t19.5 24t8.5 43v108h116v-108q0 -42 19.5 -61.5t63.5 -19.5q6 0 17 3t21.5 11.5t18.5 24.5t8 42t-9.5 64t-20.5 79l109 37q3 -13 9 -32.5t12 -43.5t10.5 -50.5
t4.5 -53.5q0 -50 -16.5 -86.5t-42.5 -60.5t-58.5 -36t-64.5 -12q-43 0 -79 13t-61 35q-26 -24 -59 -35.5t-66 -11.5z" />
    <glyph glyph-name="uni0652" unicode="&#x652;" 
d="M-2 1659q-54 0 -97 16t-74 45t-47.5 71t-16.5 95t16.5 96t47.5 73t74.5 46t96.5 16q51 0 95.5 -16t76.5 -46t50.5 -72.5t18.5 -94.5t-18 -95t-50 -73t-76 -46q-42 -15 -91 -15h-6zM-2 1786q22 0 41.5 6.5t34.5 19.5t23.5 31.5t8.5 42.5t-8.5 43.5t-23.5 33t-34.5 21
t-41.5 7.5q-45 0 -77.5 -28t-32.5 -77q0 -51 29.5 -75.5t80.5 -24.5z" />
    <glyph glyph-name="uni0653" unicode="&#x653;" 
d="M424 1598h-490q-59 0 -99.5 -3.5t-69 -18t-47 -42t-33.5 -75.5l-186 55q26 90 71 147t108 89q54 26 117 34.5t139 8.5h490v-195z" />
    <glyph glyph-name="uni0654" unicode="&#x654;" 
d="M-283 1480v149l124 40q-30 31 -49.5 70t-19.5 83q0 34 12 67t33 61t49.5 49t60.5 30q17 5 34.5 7.5t34.5 2.5q36 0 63.5 -8.5t51.5 -17.5l17 -8l-30 -124q-14 3 -31 8t-34 8t-33.5 3.5t-29.5 -3.5q-14 -5 -27.5 -14t-22.5 -20.5t-12 -26.5q-2 -6 -2 -12q0 -10 4 -20
q8 -26 37.5 -44t82.5 -18q10 0 21.5 1t30.5 5.5t48.5 13t75.5 23.5l8 -141z" />
    <glyph glyph-name="uni0655" unicode="&#x655;" 
d="M-240 -651v149l124 40q-30 31 -49.5 70t-19.5 83q0 34 12 67t33 61t49.5 49t60.5 30q17 5 34.5 7.5t34.5 2.5q36 0 63.5 -8.5t51.5 -17.5l17 -8l-30 -124q-14 3 -31 8t-34 8t-33.5 3.5t-29.5 -3.5q-14 -5 -27.5 -14t-22.5 -20.5t-12 -26.5q-2 -6 -2 -12q0 -10 4 -20
q8 -26 37.5 -44t82.5 -18q10 0 21.5 1t30.5 5.5t48.5 13t75.5 23.5l8 -141z" />
    <glyph glyph-name="uni0656" unicode="&#x656;" 
d="M-71 -383h140v-409h-140v409z" />
    <glyph glyph-name="uni065A" unicode="&#x65a;" 
d="M299 1426l-231 -413h-131l-234 413h171l126 -253l130 253h169z" />
    <glyph glyph-name="uni065B" unicode="&#x65b;" 
d="M-278 1067l231 415h90l233 -415h-150l-126 255l-131 -255h-147z" />
    <glyph glyph-name="uni0660" unicode="&#x660;" horiz-adv-x="1490" 
d="M855 459q46 46 46 110q0 65 -46 110q-45 46 -110 46q-64 0 -110 -46q-46 -45 -46 -110q0 -64 46 -110t110 -46q65 0 110 46zM1087 911q142 -144 142 -342q0 -200 -142 -342t-342 -142q-202 0 -342 142q-142 140 -142 342q0 200 142 342t342 142q198 0 342 -142z" />
    <glyph glyph-name="uni0661" unicode="&#x661;" horiz-adv-x="1490" 
d="M645 -15q0 45 2 155l1 61l1 64q1 37 1 70q0 34 -1 65q-1 159 -11 296q-28 359 -125 667l312 99q108 -340 138 -737q12 -150 13 -320q1 -33 1 -68q0 -36 -1 -74q0 -31 -1 -67v-31l-1 -31q-2 -108 -2 -149h-327z" />
    <glyph glyph-name="uni0662" unicode="&#x662;" horiz-adv-x="1490" 
d="M1218 1458q2 -6 3 -10q5 -16 9 -31q13 -46 24 -91q32 -138 32 -229q0 -209 -118 -336q-120 -131 -311 -131q-99 0 -189 39q12 -149 16 -318q1 -64 1 -141q0 -29 -1 -66v-160h-328q0 15 1 49v106q1 32 1 58q0 67 -1 124q-2 147 -12 277q-24 342 -103 637v1q-18 67 -37 124
l313 99q20 -61 40 -138q1 -4 3 -10q3 -8 5 -16q9 -24 19 -48q29 -71 65 -130q100 -159 207 -159q48 0 70 25q31 33 31 114q0 48 -19 135q-16 72 -35 132l312 100z" />
    <glyph glyph-name="uni0663" unicode="&#x663;" horiz-adv-x="1490" 
d="M1393 1443q4 -13 8 -29q11 -44 21 -90q29 -135 29 -225q0 -198 -76 -314q-97 -153 -281 -153q-147 0 -255 97l-12 11q-88 -93 -226 -110q-30 -4 -50 -4q-22 0 -48 3q9 -134 11 -286q1 -58 1 -127q0 -26 -1 -60v-56q-1 -27 -1 -60v-54h-328v57q0 33 1 60v29l1 30v62
q0 72 -1 133q-2 161 -14 302q-31 375 -134 699l313 99q85 -329 108 -391q41 -110 99 -111q11 0 19 2q12 3 21 10q25 20 34 71q9 48 9 107q0 28 -2 58q-2 35 -7 87l-5 45l-5 46l316 46q6 -65 16 -132q13 -89 29 -157q43 -185 99 -186h1q43 0 44 95q0 97 -45 326l306 86
q2 -5 5 -16z" />
    <glyph glyph-name="uni0664" unicode="&#x664;" horiz-adv-x="1490" 
d="M1400 624q-1 0 -8 -2q-8 -1 -20 -3q-32 -6 -72 -11q-122 -16 -261 -23q-46 -2 -90 -2q-220 0 -395 54q11 -141 13 -300q1 -62 1 -134v-219h-328v100q0 59 1 95q0 55 -1 102q-1 121 -6 228q-14 277 -61 520q-8 32 -11 49h1q-32 149 -74 282l312 99q55 -173 92 -358
q6 -20 10 -29v17l-1 18q0 15 3 37q5 28 13 57q22 80 67 145q131 190 403 190q91 0 173 -34q33 -14 75 -37q15 -9 38 -22l40 -24l29 -18l15 -9l16 -9l-159 -273q-58 33 -114 54q-76 27 -141 27q-68 0 -112 -34q-40 -31 -44 -77q-1 -9 -1 -17q0 -73 64 -116q63 -43 175 -43
q34 0 72 4q120 12 205 33z" />
    <glyph glyph-name="uni0665" unicode="&#x665;" horiz-adv-x="1490" 
d="M1389 475q0 -230 -96 -357q-54 -73 -141 -106q-66 -25 -154 -25q-70 0 -136 30q-67 30 -107 79q-89 -112 -232 -112q-107 0 -195 43q-87 44 -142 125q-85 124 -85 323q0 143 87 323q63 130 170 281q61 86 141 183q-31 25 -49 40l201 259l10 -8q5 -4 10 -9q7 -5 14 -11
q39 -33 81 -69q130 -117 240 -237q383 -424 383 -752zM1062 350q21 34 21 114q0 186 -317 539l-14 16l-15 16q-8 -10 -21 -25l-11 -14l-12 -14q-31 -37 -52 -62q-65 -80 -109 -144q-127 -184 -127 -301q0 -73 30 -116q31 -47 88 -47q76 0 96 58q7 21 7 56q0 27 -4 62l1 -1
l277 42q5 -51 10 -120v-10l2 -14q2 -19 9 -33q18 -38 67 -38h10q44 4 64 36z" />
    <glyph glyph-name="uni0666" unicode="&#x666;" horiz-adv-x="1490" 
d="M826 1209l-39 -9l-38 -8q-44 -10 -71 -18q-73 -22 -103 -55q-32 -34 -32 -78q0 -10 2 -21q7 -49 38 -74q38 -30 84 -30q110 0 273 158l95 91l228 -234q-1 -2 -26 -26l-12 -11l-37 -37l-2 -3l-6 -6q-7 -9 -15 -19q-23 -26 -46 -55q-69 -86 -134 -178q-99 -139 -185 -284
q-113 -191 -192 -373l-301 130q109 254 288 536q-59 7 -119 33q-82 37 -140 101q-108 118 -108 284q0 22 2 44q16 198 164 316q103 81 310 118l31 6q19 3 32 6z" />
    <glyph glyph-name="uni0667" unicode="&#x667;" horiz-adv-x="1490" 
d="M1430 1276q-211 -255 -373 -679q-149 -392 -149 -614h-328q0 223 -148 614q-161 426 -372 679l252 209q145 -173 265 -400q148 -281 168 -493q22 214 170 493q120 229 263 400z" />
    <glyph glyph-name="uni0668" unicode="&#x668;" horiz-adv-x="1490" 
d="M1178 -71q-143 171 -263 400q-148 279 -170 493q-20 -212 -168 -493q-120 -227 -265 -400l-252 209q211 253 372 679q148 391 148 614h328q0 -222 149 -614q162 -424 373 -679z" />
    <glyph glyph-name="uni0669" unicode="&#x669;" horiz-adv-x="1490" 
d="M838 882v62q-1 55 -1 61q0 68 -23 105q-33 52 -110 52t-110 -54q-23 -38 -23 -103q0 -63 30 -90q37 -33 132 -33h105zM895 1435q58 -24 108 -66q162 -138 162 -434q0 -429 26 -681q10 -93 22 -155q9 -46 19 -72l-307 -115q-47 127 -69 414q-9 135 -13 241h-132
q-13 0 -25 1q-33 1 -63 5q-82 10 -148 40q-102 49 -155 133q-63 96 -63 230q0 252 141 381q122 111 323 111q95 0 174 -33z" />
    <glyph glyph-name="uni066A" unicode="&#x66a;" horiz-adv-x="1152" 
d="M890 -4l-213 213l212 211l213 -213zM263 1116l-213 213l212 211l213 -213zM449 1h-314l605 1542h315z" />
    <glyph glyph-name="uni066B" unicode="&#x66b;" horiz-adv-x="860" 
d="M334 -230h-314l495 1086h315z" />
    <glyph glyph-name="uni066C" unicode="&#x66c;" horiz-adv-x="534" 
d="M50 -257q143 85 212 183q13 18 13 33q0 4 -1 7q-4 20 -35 20q-76 0 -131 54q-54 55 -54 131t59 131q58 54 135 54q91 0 157 -60q79 -72 79 -203q0 -153 -117 -295q-94 -115 -221 -182z" />
    <glyph glyph-name="uni066D" unicode="&#x66d;" horiz-adv-x="1126" 
d="M792 1013l186 -220l-265 -193l-151 273l-149 -274l-265 193l208 221l-301 64l101 311l271 -119l-29 295h328l-23 -295l266 118l100 -312z" />
    <glyph glyph-name="uni066E" unicode="&#x66e;" horiz-adv-x="2074" 
d="M739 -26q-282 0 -361 14q-154 26 -235 149q-51 77 -64 176q-4 36 -4 75q0 43 5 89q7 62 37 177q9 37 20 75q4 13 7 24q2 9 3 11l315 -89q-51 -182 -68 -298q-1 -8 -1 -16q0 -19 7 -33q12 -26 43 -26h1088q90 0 127 24q38 23 38 73q0 15 -4 33q-10 51 -20 104q-4 20 -8 43
l-4 19l-3 19q-7 38 -12 66l314 88q25 -124 56 -289q8 -48 8 -92q0 -136 -78 -244q-125 -172 -407 -172h-799z" />
    <glyph glyph-name="uni066F" unicode="&#x66f;" horiz-adv-x="1615" 
d="M1444 781q121 -147 121 -366v-367q0 -245 -132 -407q-82 -94 -213 -143q-125 -46 -294 -46h-195q-172 0 -309 63q-156 71 -245 209q-96 152 -96 356q0 23 1 47q12 233 143 517l298 -137q-105 -226 -114 -397q-1 -14 -1 -28q0 -112 45 -181q44 -70 136 -100q35 -12 76 -17
q32 -4 66 -4h195q162 0 232 52q63 46 74 153h-140q-179 0 -303 96q-151 116 -151 334q0 207 100 351q122 176 354 176q221 0 352 -161zM1237 312v103q0 92 -39 146q-39 53 -106 53q-68 0 -108 -53q-37 -49 -37 -127q0 -9 1 -19q3 -53 47 -80q38 -23 97 -23h145z" />
    <glyph glyph-name="uni0670" unicode="&#x670;" 
d="M-71 2070h140v-408h-140v408z" />
    <glyph glyph-name="uni0692" unicode="&#x692;" horiz-adv-x="836" 
d="M768 137q0 -312 -157 -490q-175 -199 -512 -199h-99v328h99q184 0 262 83q79 83 79 278v539h328v-539zM899 1281l-231 -413h-131l-234 413h171l126 -253l130 253h169z" />
    <glyph glyph-name="uni0695" unicode="&#x695;" horiz-adv-x="836" 
d="M768 137q0 -312 -157 -490q-175 -199 -512 -199h-99v328h99q184 0 262 83q79 83 79 278v539h328v-539zM647 -679l-231 -413h-131l-234 413h171l126 -253l130 253h169z" />
    <glyph glyph-name="uni06A4" unicode="&#x6a4;" horiz-adv-x="2097" 
d="M1955 992q92 -177 92 -459q0 -303 -232 -445q-171 -104 -421 -104h-655q-282 0 -361 14q-154 26 -235 149q-51 77 -64 176q-4 36 -4 75q0 43 5 89q7 62 37 177q9 37 20 75q4 13 7 24q2 9 3 11l315 -89q-51 -182 -68 -298q-1 -8 -1 -16q0 -19 7 -33q12 -26 43 -26h951
q167 0 247 22q-229 0 -374 98q-172 117 -172 344q0 67 19 136q23 84 71 149q123 170 374 170q273 0 396 -239zM1726 658l-2 23q-3 25 -6 45q-8 53 -23 89q-38 95 -135 104q-7 1 -19 1q-65 0 -103 -39q-34 -36 -34 -91v-9q4 -97 98 -126q59 -18 226 -18zM1519 1508l-198 -200
l-198 198l198 200zM1953 1511l-196 -198l-203 196l200 200zM1713 1769l-174 -174l-172 172l174 174z" />
    <glyph glyph-name="uni06A8" unicode="&#x6a8;" horiz-adv-x="1615" 
d="M1444 781q121 -147 121 -366v-367q0 -245 -132 -407q-82 -94 -213 -143q-125 -46 -294 -46h-195q-172 0 -309 63q-156 71 -245 209q-96 152 -96 356q0 23 1 47q12 233 143 517l298 -137q-105 -226 -114 -397q-1 -14 -1 -28q0 -112 45 -181q44 -70 136 -100q35 -12 76 -17
q32 -4 66 -4h195q162 0 232 52q63 46 74 153h-140q-179 0 -303 96q-151 116 -151 334q0 207 100 351q122 176 354 176q221 0 352 -161zM1237 312v103q0 92 -39 146q-39 53 -106 53q-68 0 -108 -53q-37 -49 -37 -127q0 -9 1 -19q3 -53 47 -80q38 -23 97 -23h145zM1085 1300
l-198 -200l-198 198l198 200zM1519 1303l-196 -198l-203 196l200 200zM1279 1561l-174 -174l-172 172l174 174z" />
    <glyph glyph-name="uni06AA" unicode="&#x6aa;" horiz-adv-x="2301" 
d="M1704 1088l-9 -3q-10 -3 -24 -8q-40 -15 -84 -33q-137 -56 -250 -120q-119 -66 -190 -128h527q238 0 413 -175q164 -162 164 -350q0 -123 -79 -202q-35 -35 -81 -55q-60 -27 -135 -27h-126l-837 -2h-156q-382 0 -506 32q-131 34 -199 126q-62 86 -62 221q0 79 35 222
q12 49 27 100q5 19 11 37q4 14 7 23l156 -50l156 -49q-25 -78 -44 -160q-20 -88 -20 -123q0 -7 1 -15v-11q13 -5 39 -9q34 -6 85 -10q95 -6 315 -6h154l837 1h81q-15 34 -47 67q-13 15 -29 28q-20 16 -41 28q-57 31 -119 31h-355q-134 0 -251 1h-199l-163 164q0 187 170 359
q111 113 305 221q130 72 284 135q49 20 95 37q15 5 28 10q4 1 8 3l3 1h1z" />
    <glyph glyph-name="uni06B5" unicode="&#x6b5;" horiz-adv-x="1373" 
d="M1323 50q0 -114 -15 -198q-22 -119 -85 -206q-75 -104 -202 -153q-117 -47 -291 -47h-63q-155 0 -282 59q-138 65 -218 191q-86 137 -86 317q0 24 2 49q12 208 129 452l296 -141q-78 -163 -95 -295q-4 -33 -4 -63q0 -87 35 -144q36 -56 109 -80q29 -10 61 -14
q26 -3 53 -3h63q77 0 131 12q71 16 97 52q22 30 31 93q6 45 6 119v1377h328v-1377zM1437 2012l-231 -413h-131l-234 413h171l126 -253l130 253h169z" />
    <glyph glyph-name="uni06C2" unicode="&#x6c2;" horiz-adv-x="1041" 
d="M623 308q54 38 54 113q0 45 -78 127q-39 40 -78 72q-142 -117 -142 -204q0 -74 56 -111q21 -14 49 -21q23 -6 45 -6q53 0 94 30zM479 1135q2 -1 5 -4q6 -7 15 -17q28 -29 62 -66q107 -115 235 -255q40 -45 66 -78q37 -46 63 -89q66 -112 66 -224q0 -113 -45 -202
q-35 -67 -93 -115q-123 -100 -324 -100t-323 101q-57 47 -91 113q-45 87 -45 199q0 197 162 377l66 75l-59 63l239 224zM166 1148v149l124 40q-30 31 -49.5 70t-19.5 83q0 34 12 67t33 61t49.5 49t60.5 30q17 5 34.5 7.5t34.5 2.5q36 0 63.5 -8.5t51.5 -17.5l17 -8l-30 -124
q-14 3 -31 8t-34 8t-33.5 3.5t-29.5 -3.5q-14 -5 -27.5 -14t-22.5 -20.5t-12 -26.5q-2 -6 -2 -12q0 -10 4 -20q8 -26 37.5 -44t82.5 -18q10 0 21.5 1t30.5 5.5t48.5 13t75.5 23.5l8 -141z" />
    <glyph glyph-name="uni06C3" unicode="&#x6c3;" horiz-adv-x="1041" 
d="M623 308q54 38 54 113q0 45 -78 127q-39 40 -78 72q-142 -117 -142 -204q0 -74 56 -111q21 -14 49 -21q23 -6 45 -6q53 0 94 30zM479 1135q2 -1 5 -4q6 -7 15 -17q28 -29 62 -66q107 -115 235 -255q40 -45 66 -78q37 -46 63 -89q66 -112 66 -224q0 -113 -45 -202
q-35 -67 -93 -115q-123 -100 -324 -100t-323 101q-57 47 -91 113q-45 87 -45 199q0 197 162 377l66 75l-59 63l239 224zM700 1166l-196 198l194 200l200 -200zM281 1165l-196 198l193 200l200 -200z" />
    <glyph glyph-name="uni06C6" unicode="&#x6c6;" horiz-adv-x="1057" 
d="M679 312v103q0 92 -39 146q-39 53 -106 53q-68 0 -108 -53q-37 -49 -37 -127q0 -9 1 -19q3 -53 47 -80q38 -23 97 -23h145zM886 781q121 -147 121 -366v-367q0 -348 -287 -497q-111 -58 -264 -84q-119 -21 -260 -21v328q250 0 376 70q102 56 102 141h-140q-179 0 -303 96
q-151 116 -151 334q0 207 100 351q122 176 354 176q221 0 352 -161zM831 1473l-231 -413h-131l-234 413h171l126 -253l130 253h169z" />
    <glyph glyph-name="uni06CE" unicode="&#x6ce;" horiz-adv-x="1642" 
d="M1581 913l-83 -317q-74 19 -141 23q-7 1 -20 1q-127 0 -214 -79q-88 -81 -88 -201q214 -60 321 -93q77 -24 112 -46q60 -37 86 -92q10 -21 14 -44q4 -17 4 -36q1 -18 1 -36q0 -546 -592 -546h-298q-249 0 -420 157q-193 177 -193 484q0 279 157 598l294 -144
q-123 -253 -123 -413q0 -67 7 -114q10 -68 35 -115q67 -125 243 -125h298q79 0 135 13q73 17 98 56q24 37 28 100q-12 4 -482 128q-53 100 -53 262q0 214 143 389q182 224 515 224q116 0 216 -34zM914 1222l-231 -413h-131l-234 413h171l126 -253l130 253h169z" />
    <glyph glyph-name="uni06D5" unicode="&#x6d5;" horiz-adv-x="1041" 
d="M623 308q54 38 54 113q0 45 -78 127q-39 40 -78 72q-142 -117 -142 -204q0 -74 56 -111q21 -14 49 -21q23 -6 45 -6q53 0 94 30zM479 1135q2 -1 5 -4q6 -7 15 -17q28 -29 62 -66q107 -115 235 -255q40 -45 66 -78q37 -46 63 -89q66 -112 66 -224q0 -113 -45 -202
q-35 -67 -93 -115q-123 -100 -324 -100t-323 101q-57 47 -91 113q-45 87 -45 199q0 197 162 377l66 75l-59 63l239 224z" />
    <glyph glyph-name="uni06F0" unicode="&#x6f0;" horiz-adv-x="1490" 
d="M855 459q46 46 46 110q0 65 -46 110q-45 46 -110 46q-64 0 -110 -46q-46 -45 -46 -110q0 -64 46 -110t110 -46q65 0 110 46zM1087 911q142 -144 142 -342q0 -200 -142 -342t-342 -142q-202 0 -342 142q-142 140 -142 342q0 200 142 342t342 142q198 0 342 -142z" />
    <glyph glyph-name="uni06F1" unicode="&#x6f1;" horiz-adv-x="1490" 
d="M645 -15q0 45 2 155l1 61l1 64q1 37 1 70q0 34 -1 65q-1 159 -11 296q-28 359 -125 667l312 99q108 -340 138 -737q12 -150 13 -320q1 -33 1 -68q0 -36 -1 -74q0 -31 -1 -67v-31l-1 -31q-2 -108 -2 -149h-327z" />
    <glyph glyph-name="uni06F2" unicode="&#x6f2;" horiz-adv-x="1490" 
d="M1218 1458q2 -6 3 -10q5 -16 9 -31q13 -46 24 -91q32 -138 32 -229q0 -209 -118 -336q-120 -131 -311 -131q-99 0 -189 39q12 -149 16 -318q1 -64 1 -141q0 -29 -1 -66v-160h-328q0 15 1 49v106q1 32 1 58q0 67 -1 124q-2 147 -12 277q-24 342 -103 637v1q-18 67 -37 124
l313 99q20 -61 40 -138q1 -4 3 -10q3 -8 5 -16q9 -24 19 -48q29 -71 65 -130q100 -159 207 -159q48 0 70 25q31 33 31 114q0 48 -19 135q-16 72 -35 132l312 100z" />
    <glyph glyph-name="uni06F3" unicode="&#x6f3;" horiz-adv-x="1490" 
d="M1393 1443q4 -13 8 -29q11 -44 21 -90q29 -135 29 -225q0 -198 -76 -314q-97 -153 -281 -153q-147 0 -255 97l-12 11q-88 -93 -226 -110q-30 -4 -50 -4q-22 0 -48 3q9 -134 11 -286q1 -58 1 -127q0 -26 -1 -60v-56q-1 -27 -1 -60v-54h-328v57q0 33 1 60v29l1 30v62
q0 72 -1 133q-2 161 -14 302q-31 375 -134 699l313 99q85 -329 108 -391q41 -110 99 -111q11 0 19 2q12 3 21 10q25 20 34 71q9 48 9 107q0 28 -2 58q-2 35 -7 87l-5 45l-5 46l316 46q6 -65 16 -132q13 -89 29 -157q43 -185 99 -186h1q43 0 44 95q0 97 -45 326l306 86
q2 -5 5 -16z" />
    <glyph glyph-name="uni06F4" unicode="&#x6f4;" horiz-adv-x="1490" 
d="M1400 624q-1 0 -8 -2q-8 -1 -20 -3q-32 -6 -72 -11q-122 -16 -261 -23q-46 -2 -90 -2q-220 0 -395 54q11 -141 13 -300q1 -62 1 -134v-219h-328v100q0 59 1 95q0 55 -1 102q-1 121 -6 228q-14 277 -61 520q-8 32 -11 49h1q-32 149 -74 282l312 99q55 -173 92 -358
q6 -20 10 -29v17l-1 18q0 15 3 37q5 28 13 57q22 80 67 145q131 190 403 190q91 0 173 -34q33 -14 75 -37q15 -9 38 -22l40 -24l29 -18l15 -9l16 -9l-159 -273q-58 33 -114 54q-76 27 -141 27q-68 0 -112 -34q-40 -31 -44 -77q-1 -9 -1 -17q0 -73 64 -116q63 -43 175 -43
q34 0 72 4q120 12 205 33z" />
    <glyph glyph-name="uni06F5" unicode="&#x6f5;" horiz-adv-x="1490" 
d="M1389 475q0 -230 -96 -357q-54 -73 -141 -106q-66 -25 -154 -25q-70 0 -136 30q-67 30 -107 79q-89 -112 -232 -112q-107 0 -195 43q-87 44 -142 125q-85 124 -85 323q0 143 87 323q63 130 170 281q61 86 141 183q-31 25 -49 40l201 259l10 -8q5 -4 10 -9q7 -5 14 -11
q39 -33 81 -69q130 -117 240 -237q383 -424 383 -752zM1062 350q21 34 21 114q0 186 -317 539l-14 16l-15 16q-8 -10 -21 -25l-11 -14l-12 -14q-31 -37 -52 -62q-65 -80 -109 -144q-127 -184 -127 -301q0 -73 30 -116q31 -47 88 -47q76 0 96 58q7 21 7 56q0 27 -4 62l1 -1
l277 42q5 -51 10 -120v-10l2 -14q2 -19 9 -33q18 -38 67 -38h10q44 4 64 36z" />
    <glyph glyph-name="uni06F6" unicode="&#x6f6;" horiz-adv-x="1490" 
d="M826 1209l-39 -9l-38 -8q-44 -10 -71 -18q-73 -22 -103 -55q-32 -34 -32 -78q0 -10 2 -21q7 -49 38 -74q38 -30 84 -30q110 0 273 158l95 91l228 -234q-1 -2 -26 -26l-12 -11l-37 -37l-2 -3l-6 -6q-7 -9 -15 -19q-23 -26 -46 -55q-69 -86 -134 -178q-99 -139 -185 -284
q-113 -191 -192 -373l-301 130q109 254 288 536q-59 7 -119 33q-82 37 -140 101q-108 118 -108 284q0 22 2 44q16 198 164 316q103 81 310 118l31 6q19 3 32 6z" />
    <glyph glyph-name="uni06F7" unicode="&#x6f7;" horiz-adv-x="1490" 
d="M1430 1276q-211 -255 -373 -679q-149 -392 -149 -614h-328q0 223 -148 614q-161 426 -372 679l252 209q145 -173 265 -400q148 -281 168 -493q22 214 170 493q120 229 263 400z" />
    <glyph glyph-name="uni06F8" unicode="&#x6f8;" horiz-adv-x="1490" 
d="M1178 -71q-143 171 -263 400q-148 279 -170 493q-20 -212 -168 -493q-120 -227 -265 -400l-252 209q211 253 372 679q148 391 148 614h328q0 -222 149 -614q162 -424 373 -679z" />
    <glyph glyph-name="uni06F9" unicode="&#x6f9;" horiz-adv-x="1490" 
d="M838 882v62q-1 55 -1 61q0 68 -23 105q-33 52 -110 52t-110 -54q-23 -38 -23 -103q0 -63 30 -90q37 -33 132 -33h105zM895 1435q58 -24 108 -66q162 -138 162 -434q0 -429 26 -681q10 -93 22 -155q9 -46 19 -72l-307 -115q-47 127 -69 414q-9 135 -13 241h-132
q-13 0 -25 1q-33 1 -63 5q-82 10 -148 40q-102 49 -155 133q-63 96 -63 230q0 252 141 381q122 111 323 111q95 0 174 -33z" />
    <glyph glyph-name="uni2009" unicode="&#x2009;" 
 />
    <glyph glyph-name="uni2009" unicode="&#x200a;" 
 />
    <glyph glyph-name="uni200B" unicode="&#x200b;" 
 />
    <glyph glyph-name="uni200C" unicode="&#x200c;" 
d="M36 1667v-1484h-72v1484h72z" />
    <glyph glyph-name="uni200D" unicode="&#x200d;" 
d="M36 183h-72v1185l-134 -136l-49 49l171 169l-171 168l49 49l170 -171l170 171l49 -49l-171 -168l171 -169l-49 -49l-134 136v-1185z" />
    <glyph glyph-name="uni200E" unicode="&#x200e;" 
d="M430 1452l-217 -214l-49 49l137 130h-266v-1234h-71v1305h337l-137 130l49 49z" />
    <glyph glyph-name="uni200F" unicode="&#x200f;" 
d="M35 183h-71v1234h-266l137 -130l-49 -49l-217 214l217 215l49 -49l-137 -130h337v-1305z" />
    <glyph glyph-name="uni2028" unicode="&#x2028;" 
 />
    <glyph glyph-name="uni2029" unicode="&#x2029;" 
 />
    <glyph glyph-name="uni2060" unicode="&#x2060;" 
 />
    <glyph glyph-name="uni25CC" unicode="&#x25cc;" horiz-adv-x="1217" 
d="M980 918q0 -50 -48 -50q-52 0 -52 50t52 50q48 0 48 -50zM832 1016q0 -49 -48 -49q-52 0 -52 49q0 51 52 51q48 0 48 -51zM1079 770q0 -51 -51 -51q-49 0 -49 51q0 49 51 49q49 0 49 -49zM1115 596q0 -50 -48 -50q-52 0 -52 50t52 50q48 0 48 -50zM658 1053
q0 -51 -50 -51t-50 51q0 49 50 49t50 -49zM485 1016q0 -49 -51 -49q-49 0 -49 49q0 51 49 51q51 0 51 -51zM1079 422q0 -49 -51 -49q-49 0 -49 49q0 51 49 51q51 0 51 -51zM337 918q0 -50 -50 -50t-50 47q0 53 50 53t50 -50zM980 272q0 -49 -48 -49q-52 0 -52 49q0 51 52 51
q48 0 48 -51zM832 174q0 -48 -48 -48q-52 0 -52 48q0 52 52 52q48 0 48 -52zM238 770q0 -51 -48 -51q-52 0 -52 51q0 49 50 49t50 -49zM202 592q0 -46 -48 -46q-52 0 -52 50t52 50q48 0 48 -46v-8zM658 141q0 -51 -50 -51t-50 51q0 49 50 49t50 -49zM238 422q0 -49 -50 -49
t-50 49q0 51 50 51t50 -51zM485 178q0 -52 -51 -52q-49 0 -49 48q0 52 49 52q51 0 51 -48zM337 272q0 -49 -50 -49t-50 49q0 51 50 51t50 -51z" />
    <glyph glyph-name="uniFD3E" unicode="&#xfd3e;" horiz-adv-x="652" 
d="M592 1251l-3 -4q-4 -4 -8 -10q-14 -18 -29 -40q-47 -69 -85 -148q-51 -104 -81 -212q-39 -142 -39 -279q0 -136 39 -277q30 -107 81 -210q38 -78 85 -147q14 -21 28 -40q4 -6 8 -10l2 -3l-219 -184l-2 2q-2 2 -4 5q-5 6 -11 14q-18 24 -37 52q-58 85 -106 183
q-151 304 -151 615q0 312 151 619q48 98 106 184q19 28 37 51q6 9 11 15q2 3 4 5l2 2z" />
    <glyph glyph-name="uniFD3F" unicode="&#xfd3f;" horiz-adv-x="652" 
d="M281 1434l2 -2q2 -2 4 -5q5 -6 11 -15q18 -23 37 -51q58 -86 106 -184q151 -307 151 -619q0 -311 -151 -615q-48 -98 -106 -183q-19 -28 -37 -52q-6 -8 -11 -14q-2 -3 -4 -5l-2 -2l-219 184l2 3q4 4 8 10q14 19 29 40q46 69 84 147q51 103 81 210q39 141 39 277
q0 137 -39 279q-30 108 -81 212q-38 79 -85 148q-15 22 -29 40q-4 6 -8 10l-3 4z" />
    <glyph glyph-name="feh_dotless.isol" horiz-adv-x="2097" 
d="M1955 992q92 -177 92 -459q0 -303 -232 -445q-171 -104 -421 -104h-655q-282 0 -361 14q-154 26 -235 149q-51 77 -64 176q-4 36 -4 75q0 43 5 89q7 62 37 177q9 37 20 75q4 13 7 24q2 9 3 11l315 -89q-51 -182 -68 -298q-1 -8 -1 -16q0 -19 7 -33q12 -26 43 -26h951
q167 0 247 22q-229 0 -374 98q-172 117 -172 344q0 67 19 136q23 84 71 149q123 170 374 170q273 0 396 -239zM1726 658l-2 23q-3 25 -6 45q-8 53 -23 89q-38 95 -135 104q-7 1 -19 1q-65 0 -103 -39q-34 -36 -34 -91v-9q4 -97 98 -126q59 -18 226 -18z" />
    <glyph glyph-name="uni06A1.fina" horiz-adv-x="2105" 
d="M1915 875q136 -144 136 -356q0 -114 -42 -206h119v-328h-145q-244 0 -425 55q-171 -55 -426 -55h-393q-282 0 -361 14q-154 26 -235 149q-51 77 -64 176q-4 36 -4 75q0 43 5 89q7 62 37 177q9 37 20 75q4 13 7 24q2 9 3 11l315 -89q-51 -182 -68 -298q-1 -8 -1 -16
q0 -19 7 -33q12 -26 43 -26h663q-42 92 -42 206q0 212 136 356q141 149 358 149t357 -149zM1700 422q30 39 30 97q0 70 -40 119q-47 58 -132 58t-132 -58q-40 -49 -40 -119q0 -58 31 -97q41 -54 141 -81q100 27 142 81z" />
    <glyph glyph-name="onedot.above" 
d="M-207 1314l208 210l212 -212l-211 -210z" />
    <glyph glyph-name="twodots.above" 
d="M208 1115l-196 198l194 200l200 -200zM-211 1114l-196 198l193 200l200 -200z" />
    <glyph glyph-name="threedots.above" 
d="M-20 1318l-198 -200l-198 198l198 200zM414 1321l-196 -198l-203 196l200 200zM174 1579l-174 -174l-172 172l174 174z" />
    <glyph glyph-name="threedots.below" 
d="M-216 -561l-198 194l198 204l198 -204zM215 -565l-200 198l203 198l196 -198zM4 -796l-174 174l172 172l174 -174z" />
    <glyph glyph-name="wasla" 
d="M-322 1562l24 109h132l44 68l83 122q35 52 86 82.5t111 30.5q34 0 68 -13t61 -40t43.5 -68t16.5 -97q0 -54 -18 -91t-46 -60t-62.5 -33t-67.5 -10h-475zM158 1865q-27 0 -53.5 -18t-51 -46t-47.5 -62.5t-43 -67.5h190q36 0 60 20t24 65q0 53 -20.5 81t-58.5 28z" />
    <glyph glyph-name="beh_dotless_alt.init" horiz-adv-x="927" 
d="M843 493q8 -48 8 -92q0 -136 -78 -244q-125 -172 -407 -172h-391v328h384q90 0 127 24q38 23 38 73q0 15 -4 33q-10 51 -20 104q-4 20 -8 43l-4 19l-3 19q-15 82 -23 117l313 95q30 -141 68 -347z" />
    <glyph glyph-name="beh_dotless_alt.medi" horiz-adv-x="1024" 
d="M788 404q0 -48 23 -68q26 -23 92 -23h146v-328h-146q-65 0 -123 14q-46 11 -86 31q-46 22 -69 44q-23 -22 -74 -44q-101 -45 -240 -45h-336v328h359q72 0 101 24q26 21 26 67v272h327v-272z" />
    <glyph glyph-name="onedot.below" 
d="M-208 -289l208 210l212 -212l-210 -210z" />
    <glyph glyph-name="twodots.below" 
d="M209 -489l-196 198l194 200l200 -200zM-213 -490l-196 198l193 200l200 -200z" />
    <glyph glyph-name="alef_alt.isol" horiz-adv-x="528" 
d="M428 -15h-328v1295h328v-1295z" />
    <glyph glyph-name="alef_alt.fina" horiz-adv-x="599" 
d="M624 -15h-90q-111 0 -199 39q-67 29 -117 79t-79 117q-39 88 -39 199v861h327v-861q0 -61 23 -84q22 -22 84 -22h90v-328z" />
    <glyph glyph-name="heh_ae.fina" horiz-adv-x="1293" 
d="M635 414q54 44 54 116v5q-1 30 -12 80q-3 15 -10 46l-6 26l-6 27q-159 -55 -210 -106q-47 -47 -47 -103v-7q3 -59 52 -96q31 -23 80 -23q61 0 105 35zM977 772q8 -34 20 -87l10 -41l9 -39q21 -90 40 -162q22 -81 79 -105q34 -15 87 -21q36 -4 96 -4v-328q-90 0 -155 9
q-90 12 -162 44q-96 44 -160 120l-12 14q-51 -45 -116 -72q-83 -33 -176 -33l-10 1h-11q-114 5 -207 55q-174 91 -214 286q-11 52 -11 103q0 67 19 131q37 113 129 201q101 97 351 177l-19 88l320 73q57 -250 93 -410z" />
    <glyph glyph-name="uni06F4.urdu" horiz-adv-x="1490" 
d="M1400 624q-1 0 -8 -2q-8 -1 -20 -3q-32 -6 -72 -11q-122 -16 -261 -23q-46 -2 -90 -2q-220 0 -395 54q11 -141 13 -300q1 -62 1 -134v-219h-328v100q0 59 1 95q0 55 -1 102q-1 121 -6 228q-14 277 -61 520q-8 32 -11 49h1q-32 149 -74 282l312 99q55 -173 92 -358
q6 -20 10 -29v17l-1 18q0 15 3 37q5 28 13 57q22 80 67 145q131 190 403 190q91 0 173 -34q33 -14 75 -37q15 -9 38 -22l40 -24l29 -18l15 -9l16 -9l-159 -273q-58 33 -114 54q-76 27 -141 27q-68 0 -112 -34q-40 -31 -44 -77q-1 -9 -1 -17q0 -73 64 -116q63 -43 175 -43
q34 0 72 4q120 12 205 33z" />
    <glyph glyph-name="uni06F7.urdu" horiz-adv-x="1490" 
d="M1430 1276q-211 -255 -373 -679q-149 -392 -149 -614h-328q0 223 -148 614q-161 426 -372 679l252 209q145 -173 265 -400q148 -281 168 -493q22 214 170 493q120 229 263 400z" />
    <glyph glyph-name="Ghunna_above" 
d="M-66 1599q-89 0 -141 59.5t-52 170.5q0 60 9 109.5t29 97.5l86 -22q-9 -22 -15 -41.5t-9 -40t-4.5 -44t-1.5 -53.5q0 -152 118 -152h24q80 0 116.5 35t36.5 107v213h90v-207q0 -115 -57 -173.5t-181 -58.5h-48zM-56 2253h90v-333h-90v333z" />
    <glyph glyph-name="uni0651064B" 
d="M-120 1599q-92 0 -144.5 51.5t-52.5 142.5v108h115v-108q0 -42 19.5 -61t62.5 -19q6 0 17.5 2.5t22.5 10.5t19.5 24t8.5 43v108h116v-108q0 -42 19.5 -61.5t63.5 -19.5q6 0 17 3t21.5 11.5t18.5 24.5t8 42t-9.5 64t-20.5 79l109 37q3 -13 9 -32.5t12 -43.5t10.5 -50.5
t4.5 -53.5q0 -50 -16.5 -86.5t-42.5 -60.5t-58.5 -36t-64.5 -12q-43 0 -79 13t-61 35q-26 -24 -59 -35.5t-66 -11.5zM-249 2112l504 187v-138l-504 -189v140zM-249 2353l504 187v-137l-504 -189v139z" />
    <glyph glyph-name="uni0654064B" 
d="M-252 2274l504 187v-138l-504 -189v140zM-252 2515l504 187v-137l-504 -189v139zM-253 1583v149l124 40q-30 31 -49.5 70t-19.5 83q0 34 12 67t33 61t49.5 49t60.5 30q17 5 34.5 7.5t34.5 2.5q36 0 63.5 -8.5t51.5 -17.5l17 -8l-30 -124q-14 3 -31 8t-34 8t-33.5 3.5
t-29.5 -3.5q-14 -5 -27.5 -14t-22.5 -20.5t-12 -26.5q-2 -6 -2 -12q0 -10 4 -20q8 -26 37.5 -44t82.5 -18q10 0 21.5 1t30.5 5.5t48.5 13t75.5 23.5l8 -141z" />
    <glyph glyph-name="uni0654064E" 
d="M-262 2270l504 187v-138l-504 -189v140zM-247 1592v149l124 40q-30 31 -49.5 70t-19.5 83q0 34 12 67t33 61t49.5 49t60.5 30q17 5 34.5 7.5t34.5 2.5q36 0 63.5 -8.5t51.5 -17.5l17 -8l-30 -124q-14 3 -31 8t-34 8t-33.5 3.5t-29.5 -3.5q-14 -5 -27.5 -14t-22.5 -20.5
t-12 -26.5q-2 -6 -2 -12q0 -10 4 -20q8 -26 37.5 -44t82.5 -18q10 0 21.5 1t30.5 5.5t48.5 13t75.5 23.5l8 -141z" />
    <glyph glyph-name="uni0654064C" 
d="M-240 2276q4 9 10.5 21t12 26t9.5 29t4 29q0 8 -4 18.5t-7 17.5q-14 17 -35 17q-18 0 -39 -9.5t-35 -20.5l-72 71q3 4 15.5 17t32.5 26t47 23q24 8 53 8h7q37 -2 67.5 -22t48.5 -51q11 -21 16.5 -46.5t5.5 -48.5q0 -13 -1 -25t-3 -24q42 14 88.5 32.5t83.5 41.5
q-35 13 -63.5 33t-49 44t-31.5 51.5t-11 56.5q0 33 16 65q12 25 32 47.5t44 39t51.5 26t54.5 9.5q34 0 63 -14q55 -26 79.5 -75.5t24.5 -105.5q0 -48 -15.5 -97.5t-42.5 -90.5q-22 -32 -58 -59.5t-77.5 -49.5t-85 -38.5t-80 -28t-63 -17.5t-34.5 -7zM108 2662
q-10 0 -23 -3.5t-26 -9.5t-24.5 -15t-18.5 -20q0 -21 13.5 -39t33 -32t42 -24.5t40.5 -17.5q5 19 8 39.5t3 41.5q0 24 -7 44q-5 14 -15.5 25t-25.5 11zM-283 1580v149l124 40q-30 31 -49.5 70t-19.5 83q0 34 12 67t33 61t49.5 49t60.5 30q17 5 34.5 7.5t34.5 2.5
q36 0 63.5 -8.5t51.5 -17.5l17 -8l-30 -124q-14 3 -31 8t-34 8t-33.5 3.5t-29.5 -3.5q-14 -5 -27.5 -14t-22.5 -20.5t-12 -26.5q-2 -6 -2 -12q0 -10 4 -20q8 -26 37.5 -44t82.5 -18q10 0 21.5 1t30.5 5.5t48.5 13t75.5 23.5l8 -141z" />
    <glyph glyph-name="uni0654064F" 
d="M-288 2268q33 10 70.5 22.5t75 27.5t72.5 32.5t63 38.5q-37 12 -67.5 32t-52.5 46t-34.5 55.5t-12.5 61.5q0 33 13 62q12 25 32 48t44.5 40t52.5 27t56 10q36 0 67 -17q57 -31 81 -78.5t24 -103.5q0 -54 -19.5 -110t-53.5 -104q-33 -47 -86.5 -82.5t-109.5 -60.5
t-106 -40.5t-76 -23.5zM-67 2605q-2 -4 -2 -10q0 -8 7 -23t26.5 -34t46.5 -35t57 -20q6 15 10.5 38t4.5 47q0 31 -12.5 56t-45.5 28q-22 0 -50.5 -11.5t-41.5 -35.5zM-273 1590v149l124 40q-30 31 -49.5 70t-19.5 83q0 34 12 67t33 61t49.5 49t60.5 30q17 5 34.5 7.5
t34.5 2.5q36 0 63.5 -8.5t51.5 -17.5l17 -8l-30 -124q-14 3 -31 8t-34 8t-33.5 3.5t-29.5 -3.5q-14 -5 -27.5 -14t-22.5 -20.5t-12 -26.5q-2 -6 -2 -12q0 -10 4 -20q8 -26 37.5 -44t82.5 -18q10 0 21.5 1t30.5 5.5t48.5 13t75.5 23.5l8 -141z" />
    <glyph glyph-name="uni06540652" 
d="M-25 2254q-54 0 -97 16t-74 45t-47.5 71t-16.5 95t16.5 96t47.5 73t74.5 46t96.5 16q51 0 95.5 -16t76.5 -46t50.5 -72.5t18.5 -94.5t-18 -95t-50 -73t-76 -46q-42 -15 -91 -15h-6zM-25 2381q22 0 41.5 6.5t34.5 19.5t23.5 31.5t8.5 42.5t-8.5 43.5t-23.5 33t-34.5 21
t-41.5 7.5q-45 0 -77.5 -28t-32.5 -77q0 -51 29.5 -75.5t80.5 -24.5zM-283 1590v149l124 40q-30 31 -49.5 70t-19.5 83q0 34 12 67t33 61t49.5 49t60.5 30q17 5 34.5 7.5t34.5 2.5q36 0 63.5 -8.5t51.5 -17.5l17 -8l-30 -124q-14 3 -31 8t-34 8t-33.5 3.5t-29.5 -3.5
q-14 -5 -27.5 -14t-22.5 -20.5t-12 -26.5q-2 -6 -2 -12q0 -10 4 -20q8 -26 37.5 -44t82.5 -18q10 0 21.5 1t30.5 5.5t48.5 13t75.5 23.5l8 -141z" />
    <glyph glyph-name="uni0655064D" 
d="M-248 -1170l504 187v-137l-504 -190v140zM-248 -929l504 188v-138l-504 -189v139zM-240 -821v149l124 40q-30 31 -49.5 70t-19.5 83q0 34 12 67t33 61t49.5 49t60.5 30q17 5 34.5 7.5t34.5 2.5q36 0 63.5 -8.5t51.5 -17.5l17 -8l-30 -124q-14 3 -31 8t-34 8t-33.5 3.5
t-29.5 -3.5q-14 -5 -27.5 -14t-22.5 -20.5t-12 -26.5q-2 -6 -2 -12q0 -10 4 -20q8 -26 37.5 -44t82.5 -18q10 0 21.5 1t30.5 5.5t48.5 13t75.5 23.5l8 -141z" />
    <glyph glyph-name="uni06550650" 
d="M-252 -931l504 188v-138l-504 -189v139zM-240 -821v149l124 40q-30 31 -49.5 70t-19.5 83q0 34 12 67t33 61t49.5 49t60.5 30q17 5 34.5 7.5t34.5 2.5q36 0 63.5 -8.5t51.5 -17.5l17 -8l-30 -124q-14 3 -31 8t-34 8t-33.5 3.5t-29.5 -3.5q-14 -5 -27.5 -14t-22.5 -20.5
t-12 -26.5q-2 -6 -2 -12q0 -10 4 -20q8 -26 37.5 -44t82.5 -18q10 0 21.5 1t30.5 5.5t48.5 13t75.5 23.5l8 -141z" />
    <glyph glyph-name="uni06440675.isol" horiz-adv-x="1277" 
d="M1177 702q0 -158 -15 -251q-22 -137 -83 -232q-78 -120 -220 -179q-132 -55 -328 -55h-431v328h431q123 0 189 20q65 20 94 67q26 41 32 120q4 42 4 182v726h327v-726zM521 457l-327 -22l-65 952l327 22zM324 1497v149l124 40q-30 31 -49.5 70t-19.5 83q0 34 12 67t33 61
t49.5 49t60.5 30q17 5 34.5 7.5t34.5 2.5q36 0 63.5 -8.5t51.5 -17.5l17 -8l-30 -124q-14 3 -31 8t-34 8t-33.5 3.5t-29.5 -3.5q-14 -5 -27.5 -14t-22.5 -20.5t-12 -26.5q-2 -6 -2 -12q0 -10 4 -20q8 -26 37.5 -44t82.5 -18q10 0 21.5 1t30.5 5.5t48.5 13t75.5 23.5l8 -141z
" />
    <glyph glyph-name="uni06440675.fina" horiz-adv-x="1314" 
d="M1177 468q0 -94 32 -127q27 -28 97 -28h33v-328h-33q-111 0 -201 40q-71 32 -125 86q-49 -41 -121 -71q-134 -55 -328 -55h-431v328h431q212 0 272 72q46 56 46 248v795h328v-960zM521 457l-327 -22l-65 952l327 22zM350 1497v149l124 40q-30 31 -49.5 70t-19.5 83
q0 34 12 67t33 61t49.5 49t60.5 30q17 5 34.5 7.5t34.5 2.5q36 0 63.5 -8.5t51.5 -17.5l17 -8l-30 -124q-14 3 -31 8t-34 8t-33.5 3.5t-29.5 -3.5q-14 -5 -27.5 -14t-22.5 -20.5t-12 -26.5q-2 -6 -2 -12q0 -10 4 -20q8 -26 37.5 -44t82.5 -18q10 0 21.5 1t30.5 5.5t48.5 13
t75.5 23.5l8 -141z" />
    <glyph glyph-name="uni06B50627.isol" horiz-adv-x="1277" 
d="M1177 702q0 -158 -15 -251q-22 -137 -83 -232q-78 -120 -220 -179q-132 -55 -328 -55h-431v328h431q123 0 189 20q65 20 94 67q26 41 32 120q4 42 4 182v726h327v-726zM521 457l-327 -22l-65 952l327 22zM1335 1965l-231 -413h-131l-234 413h171l126 -253l130 253h169z
" />
    <glyph glyph-name="uni06B50627.fina" horiz-adv-x="1314" 
d="M1177 468q0 -94 32 -127q27 -28 97 -28h33v-328h-33q-111 0 -201 40q-71 32 -125 86q-49 -41 -121 -71q-134 -55 -328 -55h-431v328h431q212 0 272 72q46 56 46 248v795h328v-960zM521 457l-327 -22l-65 952l327 22zM1315 1965l-231 -413h-131l-234 413h171l126 -253
l130 253h169z" />
    <glyph glyph-name="smallv.arabic" 
d="M299 1696l-231 -413h-131l-234 413h171l126 -253l130 253h169z" />
    <glyph glyph-name="circumflex.arabic" 
d="M-278 1284l231 415h90l233 -415h-150l-126 255l-131 -255h-147z" />
    <glyph glyph-name="patah.wide" horiz-adv-x="729" 
d="M0 257v222h729v-222h-729z" />
    </font>
</defs>
</svg>
